#VERSION:0.83;
#TITLE:YouTube Ads;
#SUBTITLE:;
#ARTIST:Aleks (better known as 'ImmortalHD');
#TITLETRANSLIT:;
#SUBTITLETRANSLIT:;
#ARTISTTRANSLIT:;
#GENRE:Trap;
#ORIGIN:;
#CREDIT:;
#BANNER:YouTube Ads-bn.png;
#BACKGROUND:YouTube Ads-bg.png;
#PREVIEWVID:;
#JACKET:YouTube Ads-jacket.png;
#CDIMAGE:;
#DISCIMAGE:;
#LYRICSPATH:;
#CDTITLE:cdtitle.png;
#MUSIC:YouTube Ads.ogg;
#OFFSET:-0.002000;
#SAMPLESTART:66.440002;
#SAMPLELENGTH:14.750000;
#SELECTABLE:YES;
#BPMS:0.000=65.000,
4.000=130.000,
95.000=65.000,
96.000=130.000,
128.000=65.000,
132.000=130.000,
222.000=65.000,
223.000=130.000,
282.000=65.000;
#STOPS:95.000=1.390,
222.000=3.820;
#DELAYS:;
#WARPS:;
#TIMESIGNATURES:0.000=4=4;
#TICKCOUNTS:0.000=4;
#COMBOS:0.000=1;
#SPEEDS:0.000=1.000=0.000=0;
#SCROLLS:0.000=1.000;
#FAKES:;
#LABELS:0.000=Song Start;
#BGCHANGES:-0.002=YouTube Ads.mp4=1.000=0=0=1=====,
99999=-nosongbg-=1.000=0=0=0 // don't automatically add -songbackground-
;
#KEYSOUNDS:;
#ATTACKS:
;

//---------------dance-single - I don't think YouTube is ever coming back to the golden days...----------------
#NOTEDATA:;
#CHARTNAME:X-Scale 12;
#STEPSTYPE:dance-single;
#DESCRIPTION:I don't think YouTube is ever coming back to the golden days...;
#CHARTSTYLE:;
#DIFFICULTY:Hard;
#METER:8;
#RADARVALUES:0.502037,0.571725,0.077159,0.084174,0.175362,501.000000,490.000000,11.000000,12.000000,11.000000,0.000000,10.000000,0.000000,0.000000,0.502037,0.571725,0.077159,0.084174,0.175362,501.000000,490.000000,11.000000,12.000000,11.000000,0.000000,10.000000,0.000000,0.000000;
#CREDIT:;
#NOTES:
// measure 0
0000
0000
0000
0000
,  // measure 1
1100
0100
1000
0000
1000
0000
0001
0100
,  // measure 2
0001
0010
0100
0000
0010
0001
0000
0100
,  // measure 3
0001
0000
4000
0000
3010
0000
1000
0001
,  // measure 4
1000
0100
0040
0000
0130
1000
0000
0010
,  // measure 5
1000
0000
0001
0000
0100
0000
0010
0100
,  // measure 6
0001
0010
0100
0000
0010
0001
0000
0100
,  // measure 7
0001
0000
0040
0000
0130
0000
0010
0001
,  // measure 8
1000
0010
1000
0000
0001
0100
0010
0100
,  // measure 9
0110
0000
0010
0000
0100
0000
0010
0000
0000
0000
0000
0000
1000
0000
0010
0000
1000
0000
0001
0000
0000
0001
0000
0000
,  // measure 10
0100
0000
1000
0000
0100
0000
0010
0000
0100
0000
0000
0000
0001
0000
1000
0000
0010
0000
0100
0000
0000
0100
0000
0000
,  // measure 11
0010
0000
0001
0000
0010
0000
0100
0000
0000
0000
0000
0000
0001
0000
1000
0000
0100
0000
0010
0000
0000
0010
0000
0000
,  // measure 12
0100
0000
0001
0000
0100
0000
1000
0000
0100
0000
0000
0000
1000
0000
0001
0000
0100
0000
0010
0000
0000
0010
0000
0000
,  // measure 13
1000
0000
0100
0000
1000
0000
0001
0000
0000
0000
0000
0000
0010
0000
0100
0000
0010
0000
0001
0000
0000
0001
0000
0000
,  // measure 14
1000
0000
0010
0000
0100
0000
0010
0000
0000
0000
0000
0000
1000
0000
0010
0000
0100
0000
0001
0000
0000
0001
0000
0000
,  // measure 15
0010
0000
0001
0000
1000
0000
0100
0000
0000
0000
0000
0000
0010
0000
0100
0000
1000
0000
0010
0000
0000
0010
0000
0000
,  // measure 16
0100
0000
0001
0000
0010
0000
0100
0000
0000
0000
0000
0000
0100
0000
1000
0000
0001
0000
0010
0000
0000
0010
0000
0000
,  // measure 17
0011
0000
0001
0000
1000
0000
0100
0100
,  // measure 18
0001
0000
0100
0000
1000
0010
0000
0010
,  // measure 19
0001
0000
0040
0000
0031
0000
1000
1000
,  // measure 20
0001
0000
0004
0000
0103
0001
0000
0001
,  // measure 21
0010
0000
0100
0001
0100
0000
0010
0010
,  // measure 22
0001
0000
1000
0000
0010
1000
0000
1000
,  // measure 23
0001
0400
0310
0110
,  // measure 24
0101
0001
1000
0001
0010
0100
0010
0010
,  // measure 25
0001
0000
0100
0000
1000
0000
0100
0000
0010
0000
1000
0100
1000
0000
0001
0000
,  // measure 26
1000
0100
1000
0001
0100
0001
0010
0010
,  // measure 27
0001
1000
0100
0010
0100
1000
0001
1000
,  // measure 28
0100
0010
0001
0010
1000
0010
0100
1000
,  // measure 29
0001
0010
0001
0000
0010
0100
0000
0100
,  // measure 30
0001
0010
0100
1000
0001
1000
0100
0100
,  // measure 31
0010
0100
1000
0001
1000
0100
0000
0100
,  // measure 32
0010
0000
0001
0000
0020
0000
0030
0000
0001
0000
1000
0000
0010
0000
0100
0000
0001
0000
0100
0000
1000
0000
0100
0000
0001
0000
0010
0000
0002
0000
0000
0003
,  // measure 33
1001
1000
0001
0000
0100
0000
1000
0100
,  // measure 34
0001
0000
0100
0000
0010
0000
0000
0000
2000
0000
3001
M000
0200
0000
0301
0M00
,  // measure 35
2000
0000
3100
M000
0010
0000
0000
0000
0001
0000
0000
0000
1000
0000
0001
0000
,  // measure 36
1000
0000
0010
0000
0100
0000
0000
0000
0002
0000
0103
000M
0020
0000
1030
00M0
,  // measure 37
0002
0000
0013
000M
0000
0000
0001
0000
0010
0000
1000
0000
0010
0000
0001
0000
,  // measure 38
0100
0010
1000
0001
0010
0100
1000
0010
,  // measure 39
1000
0000
0000
1000
0010
0001
0010
1000
,  // measure 40
0010
0100
0001
0010
0001
0100
0010
1000
,  // measure 41
1010
0010
0100
0001
1000
0000
0010
0010
,  // measure 42
0001
0010
1000
0000
0100
1000
0000
1000
,  // measure 43
0001
0100
0001
0010
0100
0000
0001
0001
,  // measure 44
0100
1000
0100
0000
1000
0010
0000
0010
,  // measure 45
0001
0010
2000
0000
0001
0000
3100
0100
,  // measure 46
1000
0010
1000
0000
0001
0010
0000
0010
,  // measure 47
0100
0010
0001
0000
1000
0000
0010
0010
,  // measure 48
0001
0010
0100
0000
0001
0100
0000
0100
,  // measure 49
0101
0001
1000
0000
0100
0010
0100
0100
,  // measure 50
1000
0001
0100
0000
0001
0010
0100
0010
,  // measure 51
0001
1000
0004
0000
0103
0001
1000
1000
,  // measure 52
0100
0010
0004
0000
0013
0001
0100
0001
,  // measure 53
0010
0100
1000
0000
0001
1000
0010
0010
,  // measure 54
0001
0010
1000
0000
0100
1000
0001
1000
,  // measure 55
0010
0000
0000
0000
0100
0000
0000
0000
0004
0000
0000
0000
0000
0000
0000
0000
0003
0000
M000
0M00
M000
0000
0000
0000
1100
0000
0000
0000
1000
0000
0000
0000
,  // measure 56
0010
0001
0010
1000
0100
0100
1000
0001
,  // measure 57
0100
0010
1000
0001
0010
0001
0100
0010
,  // measure 58
0001
0010
1000
0001
1000
1000
0100
0001
,  // measure 59
0100
0010
0001
0100
0001
0010
0100
1000
,  // measure 60
0010
0100
0001
1000
0100
0100
0010
0100
,  // measure 61
1000
0001
0100
0010
1000
0010
0100
0001
,  // measure 62
1000
0010
0100
0001
0010
0010
1000
0010
,  // measure 63
0001
0100
0010
1000
0001
1000
1001
0001
,  // measure 64
0100
0010
1000
0000
0100
0100
0001
0100
,  // measure 65
0010
0000
0001
0010
0000
0010
1000
0100
,  // measure 66
1000
0100
1000
0000
0010
0010
0001
0010
,  // measure 67
0100
0000
0010
0100
0000
0100
0001
1000
,  // measure 68
0002
0000
0100
0000
0013
0010
0001
0010
,  // measure 69
0100
0000
0010
0001
0000
0001
1000
0010
,  // measure 70
4000
0000
0000
0000
3100
0000
0000
0000
MM11
0000
0002
0023
0000
0000
0030
0000
;

//---------------dance-single - Seriously, though. YouTube's system is pretty sh*t even b4 all this happened.----------------
#NOTEDATA:;
#CHARTNAME:X-Scale 10;
#STEPSTYPE:dance-single;
#DESCRIPTION:Seriously, though. YouTube's system is pretty sh*t even b4 all this happened.;
#CHARTSTYLE:;
#DIFFICULTY:Medium;
#METER:7;
#RADARVALUES:0.408845,0.422579,0.070145,0.196406,0.059623,408.000000,398.000000,10.000000,28.000000,0.000000,0.000000,1.000000,0.000000,0.000000,0.408845,0.422579,0.070145,0.196406,0.059623,408.000000,398.000000,10.000000,28.000000,0.000000,0.000000,1.000000,0.000000,0.000000;
#CREDIT:;
#NOTES:
// measure 0
0000
0000
0000
0000
,  // measure 1
0011
0000
0100
0000
0001
0000
1000
0100
,  // measure 2
1000
0001
0010
0010
,  // measure 3
0010
0000
0100
0000
0001
0000
0100
1000
,  // measure 4
0100
0010
0100
0100
,  // measure 5
0100
0000
1000
0000
0001
0000
0010
0001
,  // measure 6
0100
0001
0010
0010
,  // measure 7
0010
0000
1000
0000
0010
0000
0001
1000
,  // measure 8
0100
0000
1000
0000
0100
0010
0100
0000
,  // measure 9
1100
0000
0000
0000
0000
0000
0010
0000
0000
1000
0000
0000
1000
0000
0001
0000
1000
0000
0001
0000
0000
0000
0000
0000
,  // measure 10
0100
0000
0000
0000
0000
0000
0010
0000
0000
0100
0000
0000
0001
0000
0010
0000
0001
0000
0010
0000
0000
0000
0000
0000
,  // measure 11
0001
0000
0000
0000
0000
0000
1000
0000
0000
0100
0000
0000
1000
0000
0010
0000
1000
0000
0010
0000
0000
0000
0000
0000
,  // measure 12
0100
0000
0000
0000
0000
0000
0001
0000
0000
0010
0000
0000
0001
0000
0100
0000
0001
0000
0100
0000
0000
0000
0000
0000
,  // measure 13
0001
0000
0000
0000
0000
0000
1000
0000
0000
0100
0000
0000
0010
0000
0100
0000
0010
0000
0100
0000
0000
0000
0000
0000
,  // measure 14
0010
0000
0000
0000
0000
0000
0001
0000
0000
0100
0000
0000
0001
0000
1000
0000
0001
0000
1000
0000
0000
0000
0000
0000
,  // measure 15
0010
0000
0000
0000
0000
0000
0100
0000
0000
1000
0000
0000
0100
0000
0001
0000
0100
0000
0001
0000
0000
0000
0000
0000
,  // measure 16
0100
0000
0000
0000
0000
0000
0001
0000
0000
0010
0000
0000
0001
0000
0010
0000
0001
0000
0010
0000
0000
0000
0000
0000
,  // measure 17
0021
0000
0030
0000
0002
0000
0013
0010
,  // measure 18
0200
0000
0300
0000
0100
0010
0000
0010
,  // measure 19
2000
0000
3000
0000
0020
0000
0130
0100
,  // measure 20
0002
0000
0013
0000
0001
1000
0000
1000
,  // measure 21
0020
0000
0030
0000
0200
0000
0301
0001
,  // measure 22
2000
0000
3100
0000
0010
0100
0000
0100
,  // measure 23
0002
0003
2000
3001
,  // measure 24
0101
0000
0001
0010
0001
0000
1000
0010
,  // measure 25
1000
0100
1000
0010
0100
0001
0000
0001
,  // measure 26
0100
0000
0001
0010
0100
0000
0010
0100
,  // measure 27
1000
0001
1000
0010
0100
0001
0000
0001
,  // measure 28
0010
0000
0100
0010
0100
0000
0010
0001
,  // measure 29
1000
0010
0001
0000
0010
0100
0000
0100
,  // measure 30
0001
0000
0100
0001
1000
0000
0100
1000
,  // measure 31
0001
0100
1000
0100
0001
0100
0000
0100
,  // measure 32
0020
0030
0002
0003
0020
0030
2000
3000
0002
0003
0200
0300
0020
0030
2000
3000
,  // measure 33
1010
0000
0001
0000
0100
0000
0010
0100
,  // measure 34
1000
0100
0010
0000
2000
3000
2000
3000
,  // measure 35
2000
3000
0001
0000
0100
0000
0001
0100
,  // measure 36
0010
0100
0001
0000
0002
0003
0002
0003
,  // measure 37
0002
0003
1000
0000
0001
1000
0001
0000
,  // measure 38
0100
0010
1000
0001
0010
0100
1000
0010
,  // measure 39
1000
0000
0001
0000
1000
0100
0001
0000
,  // measure 40
0100
0010
0001
0010
0001
0010
0100
1000
,  // measure 41
1100
0000
1000
0001
1000
0000
0010
0010
,  // measure 42
0100
0001
0010
0000
0100
0000
1000
0000
,  // measure 43
0001
0000
0010
0100
0010
0000
0001
0001
,  // measure 44
1000
0010
0100
0000
0010
0000
1000
0000
,  // measure 45
0010
0000
0020
0000
0001
0000
1030
0010
,  // measure 46
1000
0010
1000
0000
0001
0000
0100
0000
,  // measure 47
0001
0000
0010
0100
1000
0000
0010
0010
,  // measure 48
0001
0010
0100
0000
0001
0000
1000
0000
,  // measure 49
1001
0000
0001
0000
0010
0100
0010
0010
,  // measure 50
0001
0000
1000
0000
0010
0001
0010
0000
,  // measure 51
1000
0000
0010
0000
0100
0001
1000
1000
,  // measure 52
0100
0000
1000
0000
0001
0100
1000
0100
,  // measure 53
0010
0000
1000
0000
0001
1000
0100
0100
,  // measure 54
0010
0000
0001
0000
0100
0001
1000
0001
,  // measure 55
0010
0400
0300
1001
,  // measure 56
0010
0000
0100
0000
0001
0001
1000
0010
,  // measure 57
0001
0010
1000
0001
0000
0001
0100
0000
,  // measure 58
0001
0000
0010
0000
0001
0001
1000
0100
,  // measure 59
0001
0100
0010
0001
0000
0001
1000
0000
,  // measure 60
0010
0000
0100
0000
0001
0001
0010
0100
,  // measure 61
1000
0001
0100
0010
0000
0010
1000
0000
,  // measure 62
0100
0000
1000
0000
0010
0010
1000
0010
,  // measure 63
0100
0001
0010
0001
0000
0001
1001
0000
,  // measure 64
0100
0010
1000
0000
0100
0100
1000
0100
,  // measure 65
0010
0000
0001
0010
0000
0010
0001
0100
,  // measure 66
0001
0100
0001
0000
0100
0100
1000
0100
,  // measure 67
0010
0000
1000
0100
0000
0100
1000
0000
,  // measure 68
2000
0000
0001
0000
3010
0010
1000
0010
,  // measure 69
1000
0000
0100
0001
0000
0001
0010
0100
,  // measure 70
1000
0000
0000
0000
0010
0000
0000
0000
1010
0000
0010
0020
0000
0000
0030
0000
;

//---------------dance-single - So... do you think there's an alternative to YouTube in the future?----------------
#NOTEDATA:;
#CHARTNAME:X-Scale 6;
#STEPSTYPE:dance-single;
#DESCRIPTION:So... do you think there's an alternative to YouTube in the future?;
#CHARTSTYLE:;
#DIFFICULTY:Easy;
#METER:4;
#RADARVALUES:0.325673,0.321439,0.049101,0.098203,0.000000,325.000000,318.000000,7.000000,14.000000,0.000000,0.000000,0.000000,0.000000,0.000000,0.325673,0.321439,0.049101,0.098203,0.000000,325.000000,318.000000,7.000000,14.000000,0.000000,0.000000,0.000000,0.000000,0.000000;
#CREDIT:;
#NOTES:
// measure 0
0000
0000
0000
0000
,  // measure 1
0110
0100
0100
0001
,  // measure 2
0100
0010
1000
0001
,  // measure 3
1000
0010
0010
0100
,  // measure 4
0001
0010
0100
1000
,  // measure 5
0001
0010
0010
0001
,  // measure 6
1000
0001
0010
0100
,  // measure 7
0010
0100
0100
1000
,  // measure 8
0010
0100
0001
0010
,  // measure 9
0011
0000
0010
0000
0001
0000
1000
1000
,  // measure 10
0010
0000
0100
0000
0001
0010
0000
0010
,  // measure 11
0001
0000
1000
0000
0100
0000
1000
1000
,  // measure 12
0010
0000
0100
0000
0001
1000
0000
1000
,  // measure 13
0001
0000
0100
0000
0001
0000
0010
0010
,  // measure 14
0100
0000
0010
0000
0001
0100
0000
0100
,  // measure 15
0001
0000
0010
0000
0100
0000
1000
1000
,  // measure 16
0001
0000
0100
0000
0001
0010
0000
0010
,  // measure 17
0002
0003
0200
0300
,  // measure 18
0002
0000
0003
0000
0001
0010
0000
0010
,  // measure 19
0200
0300
0020
0030
,  // measure 20
0002
0000
0003
0000
0001
1000
0000
1000
,  // measure 21
0020
0030
0200
0300
,  // measure 22
0002
0000
0003
0000
0001
1000
0000
1000
,  // measure 23
0002
0003
0200
0300
,  // measure 24
1001
0001
0100
1000
,  // measure 25
0100
0000
0001
0000
0100
0010
0000
0010
,  // measure 26
1000
0100
0010
0100
,  // measure 27
1000
0000
0010
0000
0100
0001
0000
0001
,  // measure 28
0010
0001
1000
0010
,  // measure 29
1000
0000
0100
0000
0010
0100
0000
0100
,  // measure 30
1000
0001
1000
0100
,  // measure 31
0010
0000
0001
0000
0100
0010
0000
0010
,  // measure 32
1000
0100
0010
0001
,  // measure 33
0011
0010
0010
0001
,  // measure 34
1000
0010
1000
0010
,  // measure 35
1000
0100
0100
1000
,  // measure 36
0010
0100
0001
0100
,  // measure 37
0001
0000
0010
0000
0001
0000
1000
1000
,  // measure 38
0010
0000
0100
0000
0001
0010
0000
0010
,  // measure 39
0100
0000
0010
0000
0001
0000
1000
1000
,  // measure 40
0001
0000
0100
0000
0001
0010
0000
0010
,  // measure 41
0100
0000
0001
0000
0100
0000
1000
1000
,  // measure 42
0001
0000
1000
0000
0100
1000
0000
1000
,  // measure 43
0001
0000
0010
0100
0010
0000
0001
0001
,  // measure 44
1000
0000
0100
0000
0010
0100
0000
0100
,  // measure 45
1000
0000
0200
0000
0010
0000
1300
0100
,  // measure 46
1000
0000
0010
0000
0100
0001
0000
0001
,  // measure 47
1000
0000
0010
0000
1000
0000
0100
0100
,  // measure 48
0010
0000
0100
0000
1000
0010
0000
0010
,  // measure 49
1010
0000
1000
0000
0010
0001
0010
0000
,  // measure 50
0100
0000
0001
0000
1000
0100
1000
0000
,  // measure 51
0010
0000
0100
0000
0001
1000
0001
0000
,  // measure 52
0010
0000
0100
0000
1000
0100
1000
0000
,  // measure 53
0010
0000
1000
0000
0001
0010
0001
0000
,  // measure 54
0100
0000
0010
0000
1000
0010
1000
0000
,  // measure 55
0001
0020
0030
0011
,  // measure 56
0001
0000
0100
0000
0001
0001
0010
0000
,  // measure 57
0100
0000
0010
0100
0000
0100
1000
0000
,  // measure 58
0100
0000
1000
0000
0100
0100
1000
0000
,  // measure 59
0010
0000
0001
0010
0000
0010
1000
0000
,  // measure 60
0010
0000
1000
0000
0001
0001
0100
0000
,  // measure 61
0010
0000
0100
0001
0000
0001
1000
0000
,  // measure 62
0010
0000
1000
0000
0100
0100
1000
0000
,  // measure 63
0010
0000
0100
0001
0000
0001
1000
0000
,  // measure 64
0010
0000
0100
0000
0010
0010
1000
0001
,  // measure 65
1000
0000
0001
0100
0000
0100
0010
0000
,  // measure 66
1000
0100
1000
0000
0001
0001
0010
0100
,  // measure 67
0010
0000
0001
0010
0000
0010
0100
0000
,  // measure 68
2000
0000
0000
0000
3010
1000
0010
1000
,  // measure 69
0010
0000
1000
0100
0000
0100
0010
0000
,  // measure 70
0100
1000
1100
0000
;

//---------------dance-single - ...goddamnit aleks----------------
#NOTEDATA:;
#CHARTNAME:X-Scale 2;
#STEPSTYPE:dance-single;
#DESCRIPTION:...goddamnit aleks;
#CHARTSTYLE:;
#DIFFICULTY:Beginner;
#METER:2;
#RADARVALUES:0.184381,0.197809,0.035072,0.098203,0.000000,184.000000,179.000000,5.000000,14.000000,0.000000,0.000000,0.000000,0.000000,0.000000,0.184381,0.197809,0.035072,0.098203,0.000000,184.000000,179.000000,5.000000,14.000000,0.000000,0.000000,0.000000,0.000000,0.000000;
#CREDIT:;
#NOTES:
// measure 0
0000
0000
0000
0000
,  // measure 1
1001
0000
1000
0000
,  // measure 2
0001
0000
0010
0100
,  // measure 3
0010
0000
0001
0000
,  // measure 4
1000
0000
0010
0100
,  // measure 5
0010
0000
1000
0000
,  // measure 6
0001
0000
0010
0100
,  // measure 7
0010
0000
0100
0000
,  // measure 8
1000
0000
0010
0100
,  // measure 9
0010
0000
1000
0000
,  // measure 10
0001
0000
0010
0000
,  // measure 11
0100
0000
1000
0000
,  // measure 12
0010
0000
0100
0000
,  // measure 13
0001
0000
1000
0000
,  // measure 14
0010
0000
0100
0000
,  // measure 15
0001
0000
1000
0000
,  // measure 16
0001
0000
0010
0000
,  // measure 17
0002
0003
0002
0003
,  // measure 18
0002
0003
0000
0000
,  // measure 19
0200
0300
0200
0300
,  // measure 20
0200
0300
0000
0000
,  // measure 21
0020
0030
0020
0030
,  // measure 22
0020
0030
0000
0000
,  // measure 23
2000
3000
2000
3000
,  // measure 24
1100
0000
0100
1000
,  // measure 25
0100
0000
0001
0100
,  // measure 26
0001
0000
0100
0010
,  // measure 27
0100
0000
0001
0010
,  // measure 28
0100
0000
0010
0100
,  // measure 29
1000
0000
0010
1000
,  // measure 30
0010
0000
0100
0001
,  // measure 31
0100
0000
0001
1000
,  // measure 32
0001
0000
1000
0000
,  // measure 33
1001
0000
0010
0000
,  // measure 34
1000
0000
0100
0100
,  // measure 35
0100
0000
0010
0000
,  // measure 36
0001
0000
0010
0010
,  // measure 37
0010
0000
0001
0000
,  // measure 38
1000
0100
0010
0100
,  // measure 39
1000
0000
0001
0000
,  // measure 40
0001
0010
0100
0010
,  // measure 41
0001
0000
1000
0000
,  // measure 42
0001
0000
0000
0000
0010
0001
0000
0001
,  // measure 43
0100
0000
0001
0000
,  // measure 44
1000
0000
0000
0000
0100
0010
0000
0010
,  // measure 45
0100
2000
0000
3000
,  // measure 46
1000
0000
0000
0000
0001
0100
0000
0100
,  // measure 47
0001
0000
0010
0000
,  // measure 48
0100
0000
0000
0000
1000
0010
0000
0010
,  // measure 49
1000
0000
0001
0000
,  // measure 50
0010
0000
0001
0000
,  // measure 51
1000
0000
0001
0000
,  // measure 52
1000
0000
0010
0000
,  // measure 53
0100
0000
0001
0000
,  // measure 54
1000
0000
0001
0000
,  // measure 55
0100
0200
0300
1001
,  // measure 56
0000
0100
0001
0100
,  // measure 57
0000
0001
1000
0001
,  // measure 58
0000
1000
0100
1000
,  // measure 59
0000
0001
0100
0001
,  // measure 60
0000
1000
0010
1000
,  // measure 61
0000
0001
0010
0001
,  // measure 62
0000
1000
0100
0010
,  // measure 63
0000
0100
0010
0001
,  // measure 64
0000
0001
0000
1000
,  // measure 65
0000
0000
1000
0100
0000
0100
0010
0000
,  // measure 66
0000
0010
0000
0100
,  // measure 67
0000
0000
0100
0010
0000
0010
0001
0000
,  // measure 68
0002
1000
0003
1000
,  // measure 69
0000
0000
0001
0100
0000
0100
0001
0000
,  // measure 70
0000
0010
0011
0000
;
