#TITLE:Tumbum;
#SUBTITLE:;
#ARTIST:Yemi Alade;
#TITLETRANSLIT:;
#SUBTITLETRANSLIT:;
#ARTISTTRANSLIT:;
#CREDIT:SupremeX;
#BANNER:Tumbum.png;
#BACKGROUND:Tumbum-bg.png;
#LYRICSPATH:;
#CDTITLE:cdtitle.png;
#MUSIC:Tumbum.ogg;
#OFFSET:-0.180;
#SAMPLESTART:52.120;
#SAMPLELENGTH:12.000;
#SELECTABLE:YES;
#BPMS:0.000=128.050;
#STOPS:28.000=0.940
,60.250=0.700
,76.000=0.235
,97.000=0.700
,103.500=0.700
,132.500=1.880
;
#BGCHANGES:;

//---------------dance-single - ----------------
#NOTES:
     dance-single:
     :
     Hard:
     9:
     0.640,0.536,0.437,0.109,0.377: // measure 1
0000
0000
0000
0000
,  // measure 2
0000
0000
0000
0000
,  // measure 3
0100
0000
0000
0010
0100
0000
0010
0000
1000
0000
1010
0000
0100
0000
0101
0000
,  // measure 4
0000
0000
0000
1000
0001
0000
0010
0000
0100
0000
1100
0000
1000
0000
0110
0000
,  // measure 5
0000
0001
0100
0001
0000
0000
0100
0000
0010
0000
1010
0000
0100
0000
0101
0000
,  // measure 6
1000
0000
0010
0100
0001
0000
1000
0000
1000
0000
0100
0000
0010
0000
0010
0000
,  // measure 7
0001
0000
1000
0100
1000
0000
0001
0000
0000
0000
1000
0000
0010
0000
0100
0000
,  // measure 8
0002
0000
0003
0000
1100
0000
0000
0000
0110
0000
0000
0001
0000
0010
0001
0000
,  // measure 9
0010
0000
0100
1000
0100
0000
0010
0000
0001
0000
0000
1000
0000
1000
0100
0000
,  // measure 10
1100
0000
0000
0000
0001
0000
0010
0000
0100
0000
0000
1000
0100
0000
1000
0000
,  // measure 11
0100
0000
0010
0001
0010
0000
0000
0000
0100
0000
0000
1000
0100
0000
1000
0000
,  // measure 12
0001
0000
0100
0010
0100
0000
0100
0000
0010
1000
0000
0010
1000
0000
0200
0000
,  // measure 13
0301
0000
1000
0010
1000
0000
0100
0000
0010
0000
0000
0001
1000
0000
1000
0000
,  // measure 14
0110
0000
0001
1000
0001
0000
0010
0000
0100
1000
0000
1000
0100
0000
0020
0000
,  // measure 15
0000
0000
0001
0000
0001
0000
0031
0000
0010
0000
0000
0100
1000
0000
0001
0000
,  // measure 16
0000
0000
1000
0000
0100
1000
0100
0000
0010
0000
0011
0000
1000
0000
0100
0000
,  // measure 17
1100
0000
0000
0000
0010
0001
0000
0001
0010
0000
0100
0000
1100
0000
1000
0000
,  // measure 18
1001
0000
0001
0000
1000
0100
1000
0000
0001
0000
0100
0000
0010
0000
1000
0000
,  // measure 19
0110
0000
0001
0000
1000
0010
0100
0000
0001
0000
0010
0000
0100
0000
1001
0000
,  // measure 20
0000
0010
1000
0010
1010
0100
0101
0010
,  // measure 21
1000
0000
0100
1000
0100
0000
0010
0000
0001
0000
1001
0000
1000
0000
1100
0000
,  // measure 22
0010
0000
0001
1000
0010
0000
1000
0000
0001
0000
0101
0000
1000
0000
1001
0000
,  // measure 23
0000
0000
0001
0000
1000
0000
1000
0000
0100
0000
0010
0000
0001
0000
0010
0001
,  // measure 24
0020
0000
0000
0000
0031
0000
0001
0000
2000
0000
3100
1000
0100
0000
1000
0000
,  // measure 25
0001
0000
0100
0000
0000
0000
0100
0000
0001
1000
0200
0000
0000
0000
1300
0000
,  // measure 26
1000
0002
0000
1003
2000
0000
3000
0000
,  // measure 27
0010
0000
0100
0000
1001
0000
0000
0010
0000
0100
0001
0000
0020
0000
0000
0000
,  // measure 28
0130
0000
0100
0000
1000
0000
0000
0001
0000
0010
0100
0000
1000
0000
0001
0100
,  // measure 29
0010
0000
1000
0000
0001
0000
0000
1000
0010
0000
1000
0000
0100
0000
0010
0001
,  // measure 30
0010
0000
0100
0000
1000
0000
0000
0010
0100
0000
0001
0000
1000
0000
0100
0001
,  // measure 31
1000
0000
0100
0000
1100
0000
0001
1000
0100
0000
0020
0000
0000
0030
0001
0010
,  // measure 32
0001
0000
0000
0000
1000
0000
0000
0100
0010
0000
0100
0000
0011
0000
0000
0000
,  // measure 33
1000
0000
0010
0000
0100
0000
0001
1000
0010
0000
0200
0000
0000
0000
0301
0000
,  // measure 34
0001
0000
1000
0000
0100
0000
0010
1000
0001
0000
1001
0000
0000
0000
0100
0010
,  // measure 35
1000
0000
0101
0000
0000
0000
0010
1000
0001
0000
0010
0000
1100
0000
0010
0000
,  // measure 36
1001
0000
0100
0000
0001
0000
1000
0100
1000
0000
0001
0000
0000
0000
1000
0010
,  // measure 37
0100
0000
0100
0000
0000
0000
0000
0001
1000
0000
0010
0000
0010
0000
1100
0000
,  // measure 38
0010
0000
0011
0000
0100
0000
1000
0100
0010
0000
1001
0000
0000
0000
0100
0010
,  // measure 39
0100
0000
0110
0000
0000
0000
0001
1000
0010
0000
0100
0000
0101
0000
1000
0000
,  // measure 40
0010
0000
0000
0000
1010
0000
0000
0000
0100
0000
0000
0000
0010
0000
1000
0000
0100
0000
0000
0000
0010
0000
0000
0000
0000
0000
0000
0001
0000
0010
0000
0001
,  // measure 41
0000
0010
0000
0000
0000
0000
0100
0000
1000
0000
0000
0000
0100
0000
1000
0000
0100
0000
0000
0000
0010
0000
0001
0000
0010
0000
0000
0000
0100
0000
1000
0000
,  // measure 42
0100
0000
1100
0000
0001
0000
0100
0001
0100
0000
0001
0000
0000
0000
1000
0010
,  // measure 43
0100
0000
0001
0000
1000
0000
0010
1000
0010
0000
1000
0000
0110
0000
0100
0000
,  // measure 44
0110
0000
0001
0000
1000
0000
0010
0100
0010
0000
1000
0000
0100
0000
0010
0001
,  // measure 45
0010
0000
1000
0000
0100
0000
0100
1000
0100
0000
0010
0000
1001
0000
0100
0000
,  // measure 46
0101
0000
1000
0000
0100
0000
0010
0001
0010
0000
0100
0000
1000
0000
0010
1000
,  // measure 47
0010
0000
1000
0000
0100
0000
0010
0001
0010
0000
0100
0000
1100
0000
1000
0000
,  // measure 48
1100
0000
0010
0000
0001
0000
1000
0100
1000
0000
0001
0000
0010
0000
0100
1000
,  // measure 49
0100
0000
0010
0000
0001
0000
0000
1000
0010
0000
1000
0000
0110
0000
0001
0000
,  // measure 50
1000
1001
0000
0000
0000
0000
0000
0000
;

//---------------dance-single - ----------------
#NOTES:
     dance-single:
     :
     Medium:
     7:
     0.460,0.439,0.278,0.060,0.104:
0000
0000
0000
0000
,
0000
0000
0000
0000
,
0010
1000
0100
0010
0001
1000
0100
1100
,
0000
0000
0010
0001
0010
0100
1000
1001
,
0000
0010
0100
0010
1000
0001
0100
0110
,
0010
0000
1001
0000
0100
0010
1000
0001
,
0200
0000
0000
0000
0000
0300
0110
0000
,
1001
0000
0000
0000
0100
0000
0010
0000
1000
0000
0000
0100
0000
0000
0010
0000
,
0001
0000
0000
0000
0000
1000
0000
0000
0010
0000
0000
0100
0000
0000
0100
0000
,
0001
0000
0000
0000
1000
0000
0100
0000
1000
0000
0000
0001
0000
0000
0010
0000
,
0100
0000
1000
0000
0010
0000
0100
0000
0001
0000
0000
1000
0000
0000
1000
0000
,
0010
0000
0100
0000
0001
0000
0001
0000
1000
0000
0000
1000
0000
0000
0010
0000
,
0100
0000
0001
0000
1000
0000
0000
0000
0010
0000
0000
0010
1000
0000
0001
0000
,
1000
0000
0000
0000
0001
0000
0010
0000
0100
0000
0000
1000
0100
0000
1000
0000
,
0000
0100
0010
0001
0000
0000
1000
1000
,
0000
0000
0010
0100
0010
1000
1000
0001
,
0001
0000
0000
1000
0100
0010
0001
1000
,
1100
0000
0001
0000
0000
0100
0010
0100
,
0001
0000
1000
0100
0010
0100
1000
0100
,
0010
0000
0001
0000
1000
0100
1000
1100
,
0000
0010
0001
0010
0100
0010
0001
0011
,
0000
1000
0001
0100
0010
1000
0001
1001
,
0000
0000
0100
0000
0001
0000
1000
0000
0001
0000
0000
0000
0000
1000
0100
1000
,
0000
0200
0000
0000
0310
0000
0010
0000
0002
0000
0000
0000
0000
0000
1003
0000
,
0000
0000
0000
0000
0000
0000
0010
0000
0100
0010
0100
0000
0000
0000
0001
0000
,
1000
0020
0000
1030
2000
0000
3000
0000
,
0001
0000
0000
0000
0001
0000
0000
1000
0000
0010
1000
0000
0101
0000
0000
0000
,
1000
0000
0000
0000
0001
0000
0000
0100
0000
0010
1000
0000
1100
0000
0000
0000
,
0010
0000
0001
0000
0000
0001
0000
0000
0010
0000
0100
0000
1000
0000
0000
0000
,
0100
0000
0000
0000
0010
0000
0000
0001
0000
0000
0010
0000
0100
0000
1000
0000
,
0100
0000
0000
0000
0010
0000
0000
0001
0000
0000
0010
0000
0100
0000
1000
0100
,
1000
0000
0010
0000
0010
0001
1000
0000
,
1000
0000
0010
0000
0100
0000
0000
0010
0100
0000
0200
0000
0000
0000
0301
0000
,
0010
0100
1000
0000
0100
1000
0000
0100
,
0010
0001
0000
1000
0010
1000
0001
0100
,
0001
1001
0000
0100
0010
0100
0000
0001
,
1000
0010
0000
0100
0001
1000
0010
0100
,
0001
1100
0000
0010
0001
0010
0000
0100
,
1000
0100
0000
0010
0001
0010
0100
0010
,
0001
0011
0000
1000
0100
0100
0000
1000
,
1000
0000
0001
0010
0100
1000
0100
0010
,
0100
0110
0000
0001
0001
0000
1100
0000
,
0110
0000
0001
0010
0100
1000
0001
0100
,
0010
1000
0110
0000
0011
0000
1100
0000
,
0011
0000
1000
0100
0010
0100
1000
0100
,
0010
0001
1001
0000
0110
0000
1001
0000
,
0110
0000
1000
0100
0010
0100
1000
0100
,
0010
0100
1000
1000
0001
0010
0100
1000
,
0010
0000
0110
0000
1001
0000
0010
0100
,
0010
0100
0000
0000
0000
0000
0000
0000
;

//---------------dance-single - ----------------
#NOTES:
     dance-single:
     :
     Easy:
     4:
     0.315,0.341,0.417,0.099,0.000:
0000
0000
0000
0000
,
0000
0000
0000
0000
,
1000
0010
0100
0001
,
1000
0010
0100
0001
,
1000
0010
0100
0001
,
1000
0001
1000
1100
,
0022
0033
1000
0100
,
0010
0000
0001
0100
,
1010
0100
0001
1000
,
1001
0010
0100
0010
,
0110
1000
1000
0001
,
0011
0100
1000
1000
,
0001
0001
0100
0010
,
0110
1000
0001
1000
,
0020
0000
0000
0230
0000
0000
0300
0000
,
0000
0001
0001
1000
,
1010
0000
0000
0100
0000
0101
0000
0101
,
0000
0010
0000
0010
0000
1000
0000
1000
,
0000
0010
0000
0100
0000
0001
0000
1000
,
0000
0001
0110
0110
,
1000
0001
1010
0101
,
0010
1000
0011
1100
,
0001
0010
0100
0000
,
2000
3000
0020
0030
,
0000
0000
0000
0000
0000
0200
0000
0000
,
0300
0002
0000
0000
0003
0000
0000
0000
,
0000
1000
1000
0110
,
0001
0001
0100
1010
,
0100
0100
1001
0110
,
1001
0010
0010
1010
,
0101
1000
1000
0020
,
0030
0100
0001
0100
,
0000
0010
1000
0010
,
1000
1000
0100
0010
,
0001
1000
0100
1100
,
1100
0010
0001
0010
,
0100
1000
0001
0011
,
0011
1000
1000
0010
,
0010
0100
0101
1010
,
0101
1000
0010
1000
,
0001
0110
1001
0110
,
1001
0010
0010
0100
,
0100
0001
1000
0110
,
0110
0001
0001
1000
,
1000
0001
1000
0011
,
1100
0001
0001
1000
,
0010
1000
0001
0110
,
1001
0100
0010
1000
,
0001
2000
3000
0110
,
1001
0000
0000
0000
;
