#TITLE:Touch My Body;
#SUBTITLE:;
#ARTIST:anubasu-anubasu;
#TITLETRANSLIT:;
#SUBTITLETRANSLIT:;
#ARTISTTRANSLIT:;
#GENRE:;
#CREDIT:;
#BANNER:[Stops] - Touch My Body.png;
#BACKGROUND:[Stops] - Touch My Body-bg.png;
#LYRICSPATH:;
#CDTITLE:;
#MUSIC:[Stops] - Touch My Body.ogg;
#OFFSET:-0.050000;
#SAMPLESTART:73.650002;
#SAMPLELENGTH:14.400000;
#SELECTABLE:YES;
#BPMS:0.000000=150.000000
;
#STOPS:32.000000=1.200000,
181.000000=1.200000
;
#BGCHANGES:;
#KEYSOUNDS:;
#ATTACKS:;

//---------------dance-single - ----------------
#NOTES:
     dance-single:
     :
     Hard:
     11:
     0.653256,0.810442,0.408136,0.541405,0.787120,549.000000,500.000000,49.000000,65.000000,0.000000,0.000000,0.653256,0.810442,0.408136,0.541405,0.787120,549.000000,500.000000,49.000000,65.000000,0.000000,0.000000:
// measure 0
0000
0000
0000
0000
,  // measure 1
0000
0000
0000
0000
,  // measure 2
0000
0000
0000
0000
,  // measure 3
0000
0000
0000
0000
,  // measure 4
0000
0000
0000
0000
,  // measure 5
2000
3200
0302
0023
,  // measure 6
1030
0100
0010
0001
0100
0010
1000
0100
,  // measure 7
1000
0010
0100
0001
1000
0100
0010
0001
0010
0100
1000
0001
0100
0010
1000
0002
,  // measure 8
0020
0000
0003
0000
0230
0000
0000
0000
1300
0010
1000
0010
0100
0001
0100
0001
,  // measure 9
2000
0000
3200
0000
1300
0100
0010
0001
0100
0010
0100
0010
1000
0001
1000
0001
,  // measure 10
0100
0000
0100
0000
0020
0000
0000
0000
1030
0100
1000
0100
0010
0001
0010
0001
,  // measure 11
2000
0000
3020
0000
0130
0001
0100
0001
0000
1000
0100
0000
0010
0000
0001
0000
,  // measure 12
1000
0000
0000
0000
2002
0000
3003
0000
0001
0010
0001
0010
0100
1000
0100
1000
,  // measure 13
0002
0000
0203
0000
0310
1000
0100
0010
0001
0100
0010
1000
0001
0010
0001
1000
,  // measure 14
0000
0010
0100
0000
2002
0000
3003
0000
0001
1000
0001
1000
0010
0100
0010
0100
,  // measure 15
0001
0000
0001
0000
1000
0000
1000
0000
0001
0010
0100
0000
1000
0000
0010
0000
,  // measure 16
0100
0000
0001
0000
0200
0000
0000
0000
0301
0000
0001
1000
0000
0100
1000
0000
,  // measure 17
0100
0000
0010
0000
0001
0000
0001
0000
0100
0000
0010
1000
0000
0001
1000
0000
,  // measure 18
1000
0000
0100
0000
0020
0000
0000
0000
0130
0000
1000
0100
0000
1000
0010
0000
,  // measure 19
0100
0000
0001
0000
1000
0000
0100
0000
0010
0000
0001
0010
0000
0001
0100
1000
,  // measure 20
0100
1000
0100
0001
0020
0000
0000
0000
0130
0000
1000
0001
0000
0100
0001
0000
,  // measure 21
1000
0000
0100
0000
0010
0000
0010
0000
0001
0000
0100
0001
0000
1000
0100
0000
,  // measure 22
0010
0000
0001
0000
0200
0000
0000
0000
0310
0000
1000
0100
0000
0010
0001
0000
,  // measure 23
0100
0010
0220
0000
0000
0000
0000
0000
,  // measure 24
0330
1001
0000
0000
,  // measure 25
0000
0000
0000
0000
,  // measure 26
0000
0000
0000
0000
2000
0000
0000
0000
3002
0000
0000
0103
0000
0100
0000
0100
,  // measure 27
0020
0000
0000
0000
1030
0000
1000
0010
0100
0010
1000
0000
0100
0000
0010
0000
,  // measure 28
0001
0000
0000
0000
0002
0000
0000
0000
2003
0000
0000
3010
0000
0010
0000
0010
,  // measure 29
0100
0000
0001
1000
0010
0010
0100
0001
,  // measure 30
0010
0000
0000
0000
0200
0000
0000
0000
2300
0000
0000
3100
0000
0100
0000
0010
,  // measure 31
0002
0000
0000
0000
1003
0000
0001
0100
0010
0100
0001
0000
0010
0000
0001
0000
,  // measure 32
1000
0000
0000
0000
2000
0000
0000
0000
3002
0000
0000
0013
0000
0010
0000
0100
,  // measure 33
2000
3000
0000
0000
,  // measure 34
0000
1001
0011
1001
,  // measure 35
1010
0000
1000
0010
1000
0000
0100
0010
0000
0001
0000
1000
0000
0100
0010
0001
,  // measure 36
1000
1001
0101
1100
,  // measure 37
0101
0000
0001
0100
0001
0000
0010
0100
0000
1000
0000
0010
0000
0100
0001
0010
,  // measure 38
0100
1000
1010
0000
0011
0000
1100
0000
,  // measure 39
1001
0000
1000
0100
1000
0000
0100
0010
0000
0001
0000
1000
0000
0100
0010
0001
,  // measure 40
1000
0000
0000
0000
0110
0000
0000
0000
1001
0000
0000
0001
0000
0010
0000
0100
,  // measure 41
1000
0000
1000
0010
0002
0000
0000
0000
0000
0000
0000
0000
0013
1000
0010
1000
,  // measure 42
0200
0000
0000
0000
0320
0000
0000
0032
0000
0000
0203
0000
0000
2300
0000
0000
,  // measure 43
3010
0000
1000
0000
0200
0000
0000
0302
0000
0000
0023
0000
0000
2030
0000
0000
,  // measure 44
3200
0000
0301
0000
1000
0010
1000
0001
0010
0001
1000
0001
0100
1000
0100
0010
,  // measure 45
0001
0010
0100
0020
2000
0000
3000
0000
1030
0000
0000
0000
1100
0000
0000
0100
,  // measure 46
0000
0100
0000
0010
0001
0000
0000
0000
0100
0000
0010
0000
0100
0001
0000
1000
,  // measure 47
0000
0010
0000
0100
0001
0000
1000
0000
1001
0000
0000
0000
0101
0000
0000
0001
,  // measure 48
0000
0001
0000
0010
0100
0000
0000
0000
1000
0000
0010
0000
1000
0010
0000
0100
,  // measure 49
0000
0001
0000
1000
0100
0000
1000
0000
1010
0000
0000
0000
0011
0000
0000
0001
,  // measure 50
0000
0001
0000
0010
0100
0000
0000
0000
1000
0000
0010
0000
0100
0010
0000
1000
,  // measure 51
0000
0100
0000
0010
0001
0000
0100
0000
0101
0000
0000
0000
1100
0000
0000
1000
,  // measure 52
0000
1000
0000
0100
0010
0000
0000
0000
0001
0000
0100
0000
0010
1000
0000
0100
,  // measure 53
0000
1000
0000
0010
0100
0000
0001
0000
0020
0000
0000
0000
0100
0000
0000
0000
,  // measure 54
0100
0000
0000
0000
0130
0000
0000
0000
0110
0000
1001
0000
0001
0100
0000
0010
,  // measure 55
0000
0100
0000
0001
1000
0000
0100
0000
0110
0000
0000
0000
1001
0000
0000
1000
,  // measure 56
0000
1000
0000
0100
0010
0000
0000
0000
0001
0000
0100
0000
0010
1000
0000
0100
,  // measure 57
0000
0010
0000
0100
1000
0000
0010
0000
0101
0000
0000
0000
1001
0000
0000
1100
,  // measure 58
0000
1001
0000
0001
0100
0000
0000
0000
1010
0000
1000
0000
0100
0010
0000
0001
,  // measure 59
0000
1000
0000
0010
0100
0001
1000
0100
0002
0000
0003
0000
0110
0000
0000
0011
,  // measure 60
0000
1001
0000
0001
0010
0000
0000
0000
0101
0000
0001
0000
0100
0010
0000
1000
,  // measure 61
0000
0100
0000
0010
0001
0100
0010
1000
0100
0000
0000
0000
0110
0000
0000
1001
,  // measure 62
0000
1000
0000
0100
0010
0000
0000
0000
0001
0010
0001
0010
0001
1000
0010
1000
,  // measure 63
0001
0010
0001
0100
0010
0000
1000
0000
1100
0000
0000
0000
0101
0000
0000
0001
,  // measure 64
0000
0100
0000
0010
1000
0000
0100
0000
0010
0001
1000
0100
0000
0010
0001
0000
,  // measure 65
1000
0000
0010
0000
0200
0000
0000
0000
0310
0000
0000
0000
1100
0000
0000
1000
,  // measure 66
0000
0100
0000
1000
0010
0000
0000
0000
0100
0000
0100
0000
0001
0000
0010
0100
,  // measure 67
0000
1000
0001
0000
0002
0003
2000
3000
2020
3030
0000
0022
0033
0000
0202
0303
,  // measure 68
0000
2200
3300
0000
2002
0000
3003
0000
0220
0000
0000
0000
0000
0000
0000
0000
,  // measure 69
0000
0000
0330
0000
;

//---------------dance-single - ----------------
#NOTES:
     dance-single:
     :
     Medium:
     8:
     0.508088,0.549943,0.299855,0.291526,0.141598,427.000000,391.000000,36.000000,35.000000,0.000000,0.000000,0.508088,0.549943,0.299855,0.291526,0.141598,427.000000,391.000000,36.000000,35.000000,0.000000,0.000000:
// measure 0
0000
0000
0000
0000
,  // measure 1
0000
0000
0000
0000
,  // measure 2
0000
0000
0000
0000
,  // measure 3
0000
0000
0000
0000
,  // measure 4
0000
0000
0000
0000
,  // measure 5
2000
3002
2003
3002
,  // measure 6
1003
0100
0010
0001
0100
0010
1000
0010
,  // measure 7
0100
0001
0100
0000
0010
0000
1000
0000
0100
1000
0100
0000
0010
0000
0001
0000
,  // measure 8
2000
3000
0000
0000
0000
0000
0000
0000
0000
0000
0000
0000
0000
0000
0000
0000
0101
0000
0000
0000
0000
0000
0000
0000
0000
0000
0000
0000
0000
0000
0000
0000
0100
0000
0000
0000
0000
0000
0000
0000
0001
0000
0000
0000
0000
0000
0000
0000
0100
0000
0000
0000
0000
0000
0000
0000
0010
0000
0000
0000
0000
0000
0000
0000
,  // measure 9
0100
0001
0200
0000
0310
1000
0100
1000
,  // measure 10
0010
0010
0200
0000
0301
0010
0100
0010
,  // measure 11
0001
0000
0010
0000
0100
0000
0000
1000
0000
0000
0001
0000
0100
0000
0010
0000
,  // measure 12
0100
0000
0001
1000
0002
0000
0000
0000
1003
0000
0100
0000
0010
0000
0100
0000
,  // measure 13
1000
0000
0010
0000
0200
0000
0000
0000
0301
0000
0010
0000
0100
0000
0000
0100
,  // measure 14
0000
0100
0110
0000
0010
0001
0100
0001
,  // measure 15
0010
0000
0100
0000
2000
0000
3002
0000
0103
0010
0100
0000
0010
0000
1000
0000
,  // measure 16
0002
0000
1003
0000
0100
0010
0100
1000
,  // measure 17
0100
0000
0010
0001
0100
0001
0010
0100
,  // measure 18
1000
0001
0200
0000
0310
0100
0001
0100
,  // measure 19
0010
0000
0000
0000
0100
0000
0001
0000
0010
0000
0100
0000
1000
0000
0001
1000
,  // measure 20
0001
1000
0001
1000
0002
0000
0000
0000
0013
0000
0100
0000
1000
0000
0100
0000
,  // measure 21
0010
0000
0001
0100
0010
0100
0001
0010
,  // measure 22
0100
1000
0020
0000
0130
0001
0100
0010
,  // measure 23
0100
0001
2000
0000
0000
0000
0000
0000
,  // measure 24
0000
3001
0000
0000
,  // measure 25
0000
0000
0000
0000
,  // measure 26
0000
0001
0001
0001
,  // measure 27
0001
0000
0000
0000
1000
0000
0000
1000
0000
0000
1000
0000
0100
0000
0010
0000
,  // measure 28
0001
1000
1000
1000
,  // measure 29
1000
0000
0001
0100
0010
1000
0100
0010
,  // measure 30
0100
0010
0010
0010
,  // measure 31
0010
0000
0000
0000
0100
0000
0000
0100
0000
0000
0100
0000
1000
0000
0001
0000
,  // measure 32
1000
0100
0100
0100
,  // measure 33
0100
0000
0000
0000
,  // measure 34
0000
1010
1100
1010
,  // measure 35
1100
0000
1000
0100
0010
0001
1000
0010
,  // measure 36
0100
0101
0011
0101
,  // measure 37
0011
0000
0001
0010
0100
1000
0001
0100
,  // measure 38
0010
1000
1100
0000
1010
0000
1100
0000
,  // measure 39
1010
0000
1000
0010
0100
0001
1000
0100
,  // measure 40
0010
0011
0101
0011
,  // measure 41
0101
0000
0001
0100
0020
0000
0000
0000
0000
0000
0000
0000
1030
0001
1000
0001
,  // measure 42
2000
0000
0000
0000
3100
0000
0000
0010
0000
0000
0001
0000
0000
1000
0000
0000
,  // measure 43
0100
0000
0001
0000
1000
0000
0000
0010
0000
0000
0001
0000
0000
0100
0000
0000
,  // measure 44
1000
0000
0001
0000
0010
1000
0010
0000
0100
0000
0001
0000
0010
0001
0010
0000
,  // measure 45
0100
0000
0000
0000
0000
0000
0000
0000
1000
0000
0000
0000
0000
0000
0000
0000
0002
0003
0000
0000
0000
0000
0000
0000
0000
0000
0000
0000
0000
0000
0000
0000
1100
0000
0000
0000
0000
0000
0000
0000
0000
0000
0000
0000
0000
0000
0000
0000
1010
0000
0000
0000
0000
0000
0000
0000
0000
0000
0000
0000
0000
0000
0000
0000
,  // measure 46
1000
0010
0200
0000
0301
0001
0010
0100
,  // measure 47
0010
0001
1000
0001
0101
0000
0011
0000
,  // measure 48
0001
0010
0200
0000
1300
1000
0010
0100
,  // measure 49
0010
1000
0100
0010
0011
0000
0101
0000
,  // measure 50
0001
0100
0020
0000
1030
1000
0100
0010
,  // measure 51
0100
1000
0001
1000
1100
0000
1010
0000
,  // measure 52
1000
0100
0020
0000
0031
0001
0100
0010
,  // measure 53
0100
0001
0010
0100
1000
0000
0000
0000
,  // measure 54
0000
0000
0000
0000
1001
1001
0001
0100
,  // measure 55
0010
1000
0100
0010
0110
0000
1001
0000
,  // measure 56
0001
0100
0020
0000
0130
0100
0001
0010
,  // measure 57
0100
0000
1000
0000
0100
0000
0010
0000
0011
0000
0000
0000
0101
0000
0000
0001
,  // measure 58
0000
1000
0000
0001
2000
0000
0000
0000
3010
0000
0100
0000
0010
0100
0000
0010
,  // measure 59
0000
0100
0000
0010
1000
0000
0001
1000
0002
0000
0000
0000
1003
0000
0100
0000
,  // measure 60
0010
0001
0200
0000
0310
1000
0010
0001
,  // measure 61
0010
0000
1000
0000
0100
0010
0100
0010
0200
0000
0000
0000
0320
0000
0000
0000
,  // measure 62
0031
1000
0001
0000
1000
0100
0001
0100
,  // measure 63
1000
0010
1000
0010
0200
0000
0301
0010
,  // measure 64
1000
0000
0010
0000
0001
0000
0000
0000
1000
0000
0000
0010
0000
0000
0100
0000
,  // measure 65
0001
0000
1000
0000
0001
0000
1000
0100
0020
0000
0000
0000
0031
0000
0100
0000
,  // measure 66
1000
0100
0001
0000
0001
0100
0010
1000
,  // measure 67
0100
0000
0010
0000
0002
0000
2003
0000
3001
0000
0000
0101
0000
0000
1000
0000
,  // measure 68
0000
1100
0000
0000
0110
0000
0000
0000
2002
0000
0000
0000
0000
0000
0000
0000
,  // measure 69
0000
0000
3003
0000
;

//---------------dance-single - ----------------
#NOTES:
     dance-single:
     :
     Easy:
     5:
     0.421225,0.520998,1.049493,0.199903,0.000000,354.000000,228.000000,126.000000,24.000000,0.000000,0.000000,0.421225,0.520998,1.049493,0.199903,0.000000,354.000000,228.000000,126.000000,24.000000,0.000000,0.000000:
// measure 0
0000
0000
0000
0000
,  // measure 1
0000
0000
0000
0000
,  // measure 2
0000
0000
0000
0000
,  // measure 3
0000
0000
0000
0000
,  // measure 4
0000
0000
0000
0000
,  // measure 5
1000
1000
0001
0001
,  // measure 6
0100
0010
1000
0001
,  // measure 7
1000
0100
0010
0001
,  // measure 8
0100
1001
1001
0011
,  // measure 9
0011
1001
1001
1010
,  // measure 10
1010
1001
0011
1001
,  // measure 11
1010
1001
0110
1001
,  // measure 12
0000
1001
1001
1100
,  // measure 13
1100
1001
1001
0101
,  // measure 14
0101
1001
0110
1001
,  // measure 15
0110
0101
0011
1010
,  // measure 16
1100
0011
0011
0101
,  // measure 17
0101
0011
0101
0011
,  // measure 18
0101
1010
1010
1100
,  // measure 19
1100
1010
1100
1010
,  // measure 20
0000
0101
1010
0101
,  // measure 21
1010
1100
0011
1100
,  // measure 22
0011
1001
1001
0110
,  // measure 23
0110
2002
0000
0000
,  // measure 24
3003
0110
0000
0000
,  // measure 25
0000
0000
0000
0000
,  // measure 26
0000
0002
2003
3002
,  // measure 27
2003
3010
0010
0010
,  // measure 28
0010
2000
3002
2003
,  // measure 29
3002
0103
0100
0100
,  // measure 30
0100
0020
2030
3020
,  // measure 31
2030
3001
0001
0001
,  // measure 32
0001
0020
0032
0023
,  // measure 33
0032
0003
0000
0000
,  // measure 34
1001
1000
0100
0010
,  // measure 35
0001
0100
0100
0010
,  // measure 36
0010
0100
0001
1000
,  // measure 37
0001
1000
1000
0001
,  // measure 38
0001
0010
0100
1000
,  // measure 39
0001
0100
0100
0010
,  // measure 40
0010
0100
0001
1000
,  // measure 41
0001
0020
0000
0000
,  // measure 42
0130
0000
1000
0000
0000
1000
0000
0000
,  // measure 43
0001
0000
0001
0000
0000
0001
0000
0000
,  // measure 44
1000
0010
0100
0001
,  // measure 45
0010
0100
0011
0011
,  // measure 46
1100
1100
0011
1100
,  // measure 47
0011
1100
1010
1010
,  // measure 48
0101
0101
1010
0101
,  // measure 49
1010
0101
1001
1001
,  // measure 50
0110
0110
1001
0110
,  // measure 51
1001
0110
0011
0101
,  // measure 52
1010
1100
0120
0001
,  // measure 53
0001
0130
1000
0000
,  // measure 54
0000
0000
0001
1001
,  // measure 55
0110
1001
1100
1010
,  // measure 56
0101
0011
0101
1010
,  // measure 57
1100
0110
2001
3002
,  // measure 58
0103
0100
0100
0010
,  // measure 59
1000
0100
0010
0001
,  // measure 60
0100
0010
0110
0000
,  // measure 61
0000
0000
1100
1100
,  // measure 62
0101
0101
1100
0101
,  // measure 63
1100
0101
1010
1010
,  // measure 64
0011
0011
1010
0011
,  // measure 65
1010
0000
0101
0011
,  // measure 66
1010
1100
0110
1001
,  // measure 67
0110
0000
1001
0000
1000
0000
0000
0001
,  // measure 68
0000
0200
0020
0000
,  // measure 69
0000
0000
0330
0000
;

//---------------dance-single - ----------------
#NOTES:
     dance-single:
     :
     Beginner:
     2:
     0.188004,0.260499,0.041647,0.174915,0.000000,158.000000,153.000000,5.000000,21.000000,0.000000,0.000000,0.188004,0.260499,0.041647,0.174915,0.000000,158.000000,153.000000,5.000000,21.000000,0.000000,0.000000:
// measure 0
0000
0000
0000
0000
,  // measure 1
0000
0000
0000
0000
,  // measure 2
0000
0000
0000
0000
,  // measure 3
0000
0000
0000
0000
,  // measure 4
0000
0000
0000
0000
,  // measure 5
0002
0003
2000
3000
,  // measure 6
0020
0030
0200
0300
,  // measure 7
0001
0001
1000
1000
,  // measure 8
1001
0001
0000
0001
,  // measure 9
0000
1000
0000
1000
,  // measure 10
0000
0100
0000
0100
,  // measure 11
0000
0010
0000
0010
,  // measure 12
0000
0001
0001
0001
,  // measure 13
0000
1000
1000
1000
,  // measure 14
0000
0010
0010
0010
,  // measure 15
0000
0100
0100
0100
,  // measure 16
0000
0001
0100
0001
,  // measure 17
0000
1000
0100
1000
,  // measure 18
0000
0010
0100
0010
,  // measure 19
0000
0100
0010
0100
,  // measure 20
0000
0001
0010
0100
,  // measure 21
0000
1000
0100
0010
,  // measure 22
0000
0001
0100
0010
,  // measure 23
0000
2002
0000
0000
,  // measure 24
3003
1001
0000
0000
,  // measure 25
0000
0000
0000
0000
,  // measure 26
0000
0002
0000
0000
,  // measure 27
0003
0100
0100
0100
,  // measure 28
0000
2000
0000
0000
,  // measure 29
3000
0010
0010
0010
,  // measure 30
0000
0200
0000
0000
,  // measure 31
0300
0001
0001
0001
,  // measure 32
0000
0020
0000
0000
,  // measure 33
0030
0000
0000
0000
,  // measure 34
0000
1000
0000
1000
,  // measure 35
0000
0001
0000
0001
,  // measure 36
0000
0010
0000
0010
,  // measure 37
0000
0100
0000
0100
,  // measure 38
0000
1000
0000
0100
,  // measure 39
0000
0010
0000
0001
,  // measure 40
0000
0100
0000
0010
,  // measure 41
0000
1001
0000
0000
,  // measure 42
0000
0002
0000
0000
,  // measure 43
0003
2000
0000
0000
,  // measure 44
3000
0010
0010
0010
,  // measure 45
0010
0100
0010
1000
,  // measure 46
0010
0000
0100
0001
,  // measure 47
0100
0000
0001
0010
,  // measure 48
0001
0000
1000
0100
,  // measure 49
1000
0000
0001
0001
,  // measure 50
0010
0000
1000
1000
,  // measure 51
0010
0000
0001
0001
,  // measure 52
0100
0000
1000
1000
,  // measure 53
0100
0000
0020
0000
,  // measure 54
0000
0030
0001
1000
,  // measure 55
0010
0010
0100
0100
,  // measure 56
0010
0010
1000
1000
,  // measure 57
0001
0001
2000
3000
,  // measure 58
0200
0300
0020
0030
,  // measure 59
0002
0003
1000
1000
,  // measure 60
1000
0000
0001
0001
,  // measure 61
0001
0000
0100
0000
,  // measure 62
0100
0000
0010
0000
,  // measure 63
0010
0000
1000
0000
,  // measure 64
1000
0000
0001
0001
,  // measure 65
0001
0000
0010
0010
,  // measure 66
0100
0100
1000
0001
,  // measure 67
1000
0000
0020
0030
,  // measure 68
0200
0300
2002
0000
,  // measure 69
0000
0000
3003
0000
;
