#TITLE:Tortura;
#SUBTITLE:;
#ARTIST:MAX MAXIMIZER;
#TITLETRANSLIT:;
#SUBTITLETRANSLIT:;
#ARTISTTRANSLIT:;
#GENRE:;
#CREDIT:;
#BANNER:[Stops] - Tortura.png;
#BACKGROUND:[Stops] - Tortura-bg.png;
#LYRICSPATH:;
#CDTITLE:;
#MUSIC:[Stops] - Tortura.ogg;
#OFFSET:-1.339999;
#SAMPLESTART:19.966015;
#SAMPLELENGTH:15.000007;
#SELECTABLE:YES;
#BPMS:0.000000=103.000000
,31.000000=412.000000
,32.000000=206.000000
,62.000000=412.000000
,63.000000=206.000000
,93.000000=412.000000
,155.000000=206.000000
,169.000000=412.000000
,202.000000=103.000000
,226.000000=51.500000
,228.000000=275.000000
,326.000000=51.500000
;
#STOPS:31.000000=0.440000,
62.000000=0.440000,
93.000000=0.440000,
154.000000=0.440000,
169.000000=0.440000,
228.000000=2.099999
;
#BGCHANGES:;
#KEYSOUNDS:;
#ATTACKS:;

//---------------dance-single - ----------------
#NOTES:
     dance-single:
     :
     Hard:
     10:
     0.550445,0.925373,0.098112,0.214062,0.187304,432.000000,421.000000,11.000000,24.000000,0.000000,0.000000,0.550445,0.925373,0.098112,0.214062,0.187304,432.000000,421.000000,11.000000,24.000000,0.000000,0.000000:
// measure 0
0000
0000
0000
0000
,  // measure 1
0000
0000
0000
0000
,  // measure 2
0000
0000
0000
0000
,  // measure 3
0000
0000
0000
0000
,  // measure 4
0020
0000
2030
0000
,  // measure 5
3200
0000
0320
0000
,  // measure 6
0032
0000
0000
2003
0000
0000
0000
0000
3200
0000
0000
2300
0000
0000
0000
0000
,  // measure 7
3002
0000
0000
0200
0003
0000
0000
0000
0320
0000
0000
0200
0330
0000
0000
0000
,  // measure 8
1010
0000
1000
0100
0010
0000
0001
0100
,  // measure 9
0010
1000
0100
0010
0001
0000
0100
0000
,  // measure 10
0001
0000
0010
0100
1000
0000
0010
1000
,  // measure 11
0100
0010
0001
0100
0010
0000
1000
0000
,  // measure 12
0100
0000
1000
0010
0100
0000
0010
1000
,  // measure 13
0100
0010
0001
1000
0010
0000
0100
0000
,  // measure 14
0010
0000
1000
0001
0010
0000
0100
0010
,  // measure 15
0001
0100
0010
1000
0100
0000
1100
0000
,  // measure 16
1000
0100
0001
0000
0100
1000
0010
0100
,  // measure 17
0001
1000
0010
0000
0100
0000
0100
0000
,  // measure 18
0001
0100
1000
0000
0100
0010
1000
0100
,  // measure 19
0010
0001
1000
0000
1000
0000
0100
0000
,  // measure 20
1000
0100
0001
0000
0100
0010
0001
0100
,  // measure 21
0010
1000
0100
0000
0010
0000
0010
0000
,  // measure 22
0001
0100
1000
0000
0100
0010
1000
0001
,  // measure 23
0010
0100
1000
0000
0001
0000
0100
0000
,  // measure 24
0001
0100
0001
1000
,  // measure 25
0001
1000
0001
0100
,  // measure 26
1000
0100
0001
0010
,  // measure 27
0100
1000
1000
0001
,  // measure 28
1000
0001
1000
0100
,  // measure 29
1000
0100
1000
0100
,  // measure 30
0001
0100
1000
0010
,  // measure 31
0100
0000
0001
0000
0001
0100
0001
0000
,  // measure 32
0100
0000
0010
0000
1000
0010
1000
0000
,  // measure 33
0010
0000
1000
0000
0100
1000
0100
0000
,  // measure 34
1000
0000
0010
0000
0100
0010
0100
0000
,  // measure 35
0001
0000
0010
0000
0100
1000
0100
0000
,  // measure 36
1000
0000
0010
0000
0100
0010
0100
0000
,  // measure 37
0001
0000
1000
0000
0001
0010
0100
1000
,  // measure 38
0001
0010
0100
1000
0001
0000
1100
0000
,  // measure 39
1100
1000
1000
0011
,  // measure 40
0011
0000
0000
0000
0001
0000
0000
0000
0001
0000
0000
0000
1000
0001
0000
0000
,  // measure 41
1000
0001
0000
0000
1000
0100
0000
0000
1000
0001
0000
0000
1000
0010
0000
0000
,  // measure 42
1000
0010
0000
0000
1000
0000
0000
0000
0001
0000
0000
0000
0010
0000
0000
0000
,  // measure 43
0100
1000
0001
0100
,  // measure 44
0010
1000
0001
0010
,  // measure 45
0100
1000
0001
0100
,  // measure 46
0010
0000
1000
0000
0001
0100
0010
0000
,  // measure 47
1000
0000
0001
0000
1000
0010
0100
0000
,  // measure 48
0010
0000
1000
0000
0001
1000
0100
0000
,  // measure 49
1000
0000
0001
0000
1000
0010
0100
0001
,  // measure 50
1000
0000
0010
0000
0100
0000
0001
0000
1000
0001
0010
0100
0000
0100
0000
1000
,  // measure 51
0100
0010
0001
0100
0000
0100
0000
0001
0100
0010
1000
0001
0000
0001
0000
0010
,  // measure 52
0001
0100
0010
1000
0000
1000
0000
0100
1000
0001
0100
0010
0000
0010
0000
0100
,  // measure 53
0001
0010
0100
0010
0000
0010
0000
0001
0100
0010
1000
0001
0000
0001
0000
0010
,  // measure 54
0001
0100
0010
1000
0000
1000
0000
0001
0020
0000
0002
0030
0000
0000
0000
0000
,  // measure 55
0203
0000
0020
0300
0000
0000
0000
0000
0032
0000
0020
0003
0000
0000
0000
0000
,  // measure 56
0230
0000
0002
0300
0000
0000
0000
0000
2003
0000
0000
0000
0002
0000
0000
0000
,  // measure 57
3003
1000
0100
0001
,  // measure 58
0100
1000
0100
0001
,  // measure 59
0100
1000
0010
0100
,  // measure 60
0001
0011
0010
0001
,  // measure 61
0100
0101
0001
0100
,  // measure 62
1000
0100
0001
0100
,  // measure 63
1000
0100
0001
0010
,  // measure 64
0100
1100
1000
0010
,  // measure 65
0100
0101
0001
1000
,  // measure 66
0010
1000
0001
0000
0100
0000
0001
0000
,  // measure 67
0010
0001
1000
0000
0010
0000
1000
0000
,  // measure 68
0100
1000
0001
0000
0100
0000
0010
0000
,  // measure 69
1000
0001
0010
0000
0100
0000
0010
0000
,  // measure 70
0001
0100
1000
0000
0100
0000
0010
0000
,  // measure 71
1000
0100
0001
0000
0100
0000
0010
0000
,  // measure 72
0001
0100
1000
0000
0100
0000
0010
0000
,  // measure 73
1000
0100
0001
0000
0100
0000
1000
0000
,  // measure 74
0001
0100
0010
0100
0001
0000
1000
0000
,  // measure 75
0001
0100
0001
0010
0100
0000
1000
0000
,  // measure 76
0010
1000
0100
0010
0001
0000
1000
0000
,  // measure 77
0100
1000
0010
0100
0001
0000
1000
0000
,  // measure 78
0001
0010
0100
1000
0100
0000
1000
0000
,  // measure 79
0001
0100
0010
1000
0100
1000
0010
0100
,  // measure 80
0010
0100
0001
1000
0010
1000
0100
0010
,  // measure 81
0001
1000
0100
0010
2002
0000
0000
0000
,  // measure 82
0000
0000
0000
0000
,  // measure 83
3003
0000
0000
0000
;

//---------------dance-single - ----------------
#NOTES:
     dance-single:
     :
     Medium:
     9:
     0.415382,0.592238,0.142708,0.214062,0.035677,326.000000,310.000000,16.000000,24.000000,0.000000,0.000000,0.415382,0.592238,0.142708,0.214062,0.035677,326.000000,310.000000,16.000000,24.000000,0.000000,0.000000:
// measure 0
0000
0000
0000
0000
,  // measure 1
0000
0000
0000
0000
,  // measure 2
0000
0000
0000
0000
,  // measure 3
0000
0000
0000
0000
,  // measure 4
2000
0000
3002
0000
,  // measure 5
0203
0000
0320
0000
,  // measure 6
2030
0000
3020
0000
,  // measure 7
0230
0000
0302
0003
,  // measure 8
1000
0000
0100
1000
0010
0000
0100
0000
,  // measure 9
0010
1000
0100
0000
0010
0000
0011
0000
,  // measure 10
0001
0000
1000
0010
0100
0000
0010
0000
,  // measure 11
1000
0001
0010
0000
0100
0000
1100
0000
,  // measure 12
1000
0000
0010
1000
0100
0000
0010
0000
,  // measure 13
0001
1000
0010
0000
0100
0000
0101
0000
,  // measure 14
0001
0000
1000
0010
0100
0000
0010
0000
,  // measure 15
1000
0001
0010
0000
0100
0000
1100
0000
,  // measure 16
1000
0001
0010
0000
0001
0000
0100
0010
,  // measure 17
1000
0100
1100
1000
,  // measure 18
0001
0100
0010
0000
1000
0000
0001
0010
,  // measure 19
0100
0010
0011
0001
,  // measure 20
1000
0010
0100
0000
0010
0000
1000
0001
,  // measure 21
0010
0100
1100
1000
,  // measure 22
0001
1000
0010
0000
0100
0000
0010
1000
,  // measure 23
0001
1001
1000
0001
,  // measure 24
0100
0000
0010
1000
,  // measure 25
0100
0000
0010
0001
,  // measure 26
0010
0001
1000
0100
,  // measure 27
1000
0000
0010
1000
,  // measure 28
0001
0000
0100
0010
,  // measure 29
1000
0000
0100
1000
,  // measure 30
0100
0010
0001
0010
,  // measure 31
0001
0000
1000
0010
,  // measure 32
0100
0000
0010
1000
,  // measure 33
0100
0000
1000
0100
,  // measure 34
0001
0100
1000
0010
,  // measure 35
0100
0000
0001
0100
,  // measure 36
0010
1000
0100
0010
,  // measure 37
0001
1000
0010
0100
,  // measure 38
0001
1000
0001
1000
,  // measure 39
1000
0010
0010
0100
,  // measure 40
0100
0001
0001
1001
,  // measure 41
1001
1001
1001
1001
,  // measure 42
1001
0110
1000
0100
,  // measure 43
0001
0000
0001
0100
,  // measure 44
1000
0000
1000
0010
,  // measure 45
0001
0000
0001
0010
,  // measure 46
1000
0000
1000
0010
,  // measure 47
0100
0001
0010
0100
,  // measure 48
0010
0001
0100
0010
,  // measure 49
1000
0100
0010
0001
,  // measure 50
0100
0000
0000
0000
0010
0000
0000
0000
1000
0000
0000
2000
0000
0000
0000
0000
,  // measure 51
3001
0000
0000
0002
0000
0000
0000
0000
1003
0000
0000
2000
0000
0000
0000
0000
,  // measure 52
3100
0000
0000
0200
0000
0000
0000
0000
1300
0000
0000
2000
0000
0000
0000
0000
,  // measure 53
3010
0000
0000
0020
0000
0000
0000
0000
0130
0000
0000
0200
0000
0000
0000
0000
,  // measure 54
0301
0000
0000
0002
0000
0000
0000
0000
1003
0000
0200
0000
0000
0000
0000
0000
,  // measure 55
0310
0002
0000
0000
0013
0200
0000
0000
,  // measure 56
1300
0002
0000
0000
2003
0000
0002
0000
,  // measure 57
3003
1000
0010
1000
,  // measure 58
0001
0010
0100
0010
,  // measure 59
0001
0000
0001
1000
,  // measure 60
0010
0100
0010
1000
,  // measure 61
0100
0000
0100
0010
,  // measure 62
0001
0010
0100
1000
,  // measure 63
0010
0000
0010
1000
,  // measure 64
0001
0010
0100
0010
,  // measure 65
0001
0000
0001
1000
,  // measure 66
0010
0100
0010
1000
,  // measure 67
0100
1000
0001
0010
,  // measure 68
0100
0010
0001
0100
,  // measure 69
0010
0100
0010
1000
,  // measure 70
0100
0010
0001
0100
,  // measure 71
0010
1000
0100
1000
,  // measure 72
0010
0100
0001
0010
,  // measure 73
0100
0010
0001
1000
,  // measure 74
0010
1000
0010
0000
1000
0000
0001
0000
,  // measure 75
0100
0001
0100
0000
0010
0000
1000
0000
,  // measure 76
0100
1000
0100
0000
1000
0000
0010
0000
,  // measure 77
0100
0001
0100
0000
0010
0000
1000
0000
,  // measure 78
0001
0010
0001
0000
0010
0000
0100
0000
,  // measure 79
1000
0100
1000
0000
0010
0000
0100
0000
,  // measure 80
0001
1000
0001
0000
0100
0000
0010
0000
,  // measure 81
1000
0001
1000
0001
2002
0000
0000
0000
,  // measure 82
0000
0000
0000
0000
,  // measure 83
3003
0000
0000
0000
;

//---------------dance-single - ----------------
#NOTES:
     dance-single:
     :
     Easy:
     6:
     0.308351,0.481194,0.044596,0.178385,0.000000,242.000000,237.000000,5.000000,20.000000,0.000000,0.000000,0.308351,0.481194,0.044596,0.178385,0.000000,242.000000,237.000000,5.000000,20.000000,0.000000,0.000000:
// measure 0
0000
0000
0000
0000
,  // measure 1
0000
0000
0000
0000
,  // measure 2
0000
0000
0000
0000
,  // measure 3
0000
0000
0000
0000
,  // measure 4
2000
0000
3020
0000
,  // measure 5
2030
0000
3002
0000
,  // measure 6
0023
0000
0032
0000
,  // measure 7
0203
0000
0320
0000
,  // measure 8
1030
1000
0100
0100
,  // measure 9
1000
1000
0010
0010
,  // measure 10
0100
0001
0010
0100
,  // measure 11
1000
0000
0010
0000
0100
0010
0100
0000
,  // measure 12
0001
0001
0010
0010
,  // measure 13
0100
0000
0100
0000
1000
0100
1000
0000
,  // measure 14
0010
1000
0100
0010
,  // measure 15
0001
0100
0010
1000
,  // measure 16
1000
0010
0010
0100
,  // measure 17
0100
0001
0001
0010
,  // measure 18
0001
0100
0010
1000
,  // measure 19
0100
0000
0010
0100
0010
0000
0001
0000
,  // measure 20
0001
1000
1000
0010
,  // measure 21
0010
0000
1000
0010
1000
0000
0100
0000
,  // measure 22
0010
0001
1000
0010
,  // measure 23
0100
0001
1000
0000
,  // measure 24
1000
0000
0010
0000
,  // measure 25
0100
0000
0001
0000
,  // measure 26
0010
0000
0100
0000
,  // measure 27
1000
0000
0010
0000
,  // measure 28
1000
0000
0001
0000
,  // measure 29
0010
0000
0100
0000
,  // measure 30
0100
0000
1000
0001
,  // measure 31
1000
0000
0010
0000
,  // measure 32
0010
0000
1000
0000
,  // measure 33
0010
0000
0100
0000
,  // measure 34
0001
0000
0010
0000
,  // measure 35
0100
0000
0010
0000
,  // measure 36
0010
0000
0001
1000
,  // measure 37
0001
0000
0100
0000
,  // measure 38
0010
0000
1000
0001
,  // measure 39
0001
0100
0100
0010
,  // measure 40
0010
1000
1000
1001
,  // measure 41
0001
1001
1000
1001
,  // measure 42
0001
1001
1000
0000
,  // measure 43
0010
0000
0100
0000
,  // measure 44
0001
0000
1000
0000
,  // measure 45
0100
0000
0001
0000
,  // measure 46
0100
0000
1000
0010
,  // measure 47
1000
0000
0010
0100
,  // measure 48
0010
0000
0100
0001
,  // measure 49
0100
0000
0001
1000
,  // measure 50
0001
0000
2000
0000
,  // measure 51
3020
0000
2030
0000
,  // measure 52
3200
0000
0320
0000
,  // measure 53
0032
0000
0203
0000
,  // measure 54
0320
0000
0000
0000
1030
1000
0000
0000
,  // measure 55
0100
0100
0000
0000
1000
1000
0000
0000
,  // measure 56
0001
0001
0000
0000
2000
0000
0002
0000
,  // measure 57
3003
1000
0010
0000
,  // measure 58
1000
0001
0100
0000
,  // measure 59
0010
1000
0100
0000
,  // measure 60
0010
0001
1000
0000
,  // measure 61
0010
1000
0100
0000
,  // measure 62
1000
0010
0100
0000
,  // measure 63
0001
1000
0100
0000
,  // measure 64
0010
0001
1000
0000
,  // measure 65
0001
1000
0100
0000
,  // measure 66
1000
0100
0001
0000
,  // measure 67
0100
1000
0010
0000
,  // measure 68
0100
0001
1000
0000
,  // measure 69
0010
1000
0001
0000
,  // measure 70
1000
0100
0001
0000
,  // measure 71
0100
1000
0010
0000
,  // measure 72
0100
0001
1000
0000
,  // measure 73
0001
1000
0100
1000
,  // measure 74
0010
0000
0100
0001
,  // measure 75
0010
0000
0100
1000
,  // measure 76
0010
0000
0100
0001
,  // measure 77
1000
0000
0001
1000
,  // measure 78
0001
1000
0010
0100
,  // measure 79
0001
0000
1000
0100
,  // measure 80
0010
0001
0010
0100
,  // measure 81
1000
0001
2002
0000
,  // measure 82
0000
0000
0000
0000
,  // measure 83
3003
0000
0000
0000
;

//---------------dance-single - ----------------
#NOTES:
     dance-single:
     :
     Beginner:
     3:
     0.206417,0.296119,0.017839,0.017839,0.000000,162.000000,160.000000,2.000000,2.000000,0.000000,0.000000,0.206417,0.296119,0.017839,0.017839,0.000000,162.000000,160.000000,2.000000,2.000000,0.000000,0.000000:
// measure 0
0000
0000
0000
0000
,  // measure 1
0000
0000
0000
0000
,  // measure 2
0000
0000
0000
0000
,  // measure 3
0000
0000
0000
0000
,  // measure 4
1000
0000
0010
0000
,  // measure 5
1000
0000
0100
0000
,  // measure 6
0010
0000
0001
0000
,  // measure 7
0100
0000
0010
0000
,  // measure 8
1000
1000
0000
0000
,  // measure 9
0001
0001
0000
0000
,  // measure 10
0100
0100
0000
0000
,  // measure 11
0010
0010
0000
0000
,  // measure 12
1000
1000
0000
0000
,  // measure 13
0010
0010
0000
0000
,  // measure 14
0100
0100
0000
0000
,  // measure 15
0001
0001
0000
1000
,  // measure 16
1000
0100
0000
1000
,  // measure 17
1000
0010
0000
0100
,  // measure 18
0100
0001
0000
0010
,  // measure 19
0010
0001
0000
0100
,  // measure 20
0100
0010
0000
1000
,  // measure 21
1000
0001
0000
0010
,  // measure 22
0010
0001
0000
1000
,  // measure 23
1000
0100
1000
0000
,  // measure 24
0000
0000
1000
0000
,  // measure 25
0000
0000
0010
0000
,  // measure 26
0000
0000
0010
0000
,  // measure 27
0000
0000
0100
0000
,  // measure 28
0000
0000
0100
0000
,  // measure 29
0000
0000
0001
0000
,  // measure 30
0000
0000
0001
0000
,  // measure 31
0000
0000
1000
0000
,  // measure 32
1000
0000
1000
0000
,  // measure 33
0000
0000
0010
0000
,  // measure 34
0010
0000
0010
0000
,  // measure 35
0000
0000
0100
0000
,  // measure 36
0100
0000
0100
0000
,  // measure 37
0000
0000
0001
0000
,  // measure 38
0001
0000
0001
1000
,  // measure 39
1000
1000
1000
1000
,  // measure 40
1000
1000
0000
0001
,  // measure 41
0001
0001
0001
0001
,  // measure 42
0001
0001
1000
0000
,  // measure 43
1000
0000
1000
0000
,  // measure 44
1000
0000
1000
0000
,  // measure 45
1000
0000
0010
0000
,  // measure 46
0000
0000
0001
0000
,  // measure 47
0001
0000
0001
0000
,  // measure 48
0001
0000
0001
0000
,  // measure 49
0001
0000
0010
0000
,  // measure 50
0000
0000
1000
0000
,  // measure 51
0010
0000
1000
0000
,  // measure 52
0100
0000
0010
0000
,  // measure 53
0001
0000
1000
0000
,  // measure 54
0010
0000
1000
0000
,  // measure 55
0100
0000
0001
0000
,  // measure 56
0010
0000
1000
0001
,  // measure 57
1001
0000
0010
0000
,  // measure 58
0010
0000
0010
0000
,  // measure 59
0010
0000
1000
0000
,  // measure 60
1000
0000
1000
0000
,  // measure 61
1000
0000
0001
0000
,  // measure 62
0001
0000
0001
0000
,  // measure 63
0001
0000
0010
0000
,  // measure 64
0010
0000
0010
0000
,  // measure 65
0010
0000
1000
0000
,  // measure 66
0001
0000
0010
0000
,  // measure 67
0001
0000
0100
0000
,  // measure 68
0010
0000
1000
0000
,  // measure 69
0100
0000
0010
0000
,  // measure 70
0001
0000
0100
0000
,  // measure 71
0001
0000
0010
0000
,  // measure 72
0001
0000
0100
0000
,  // measure 73
0010
0000
1000
0000
,  // measure 74
0100
0000
1000
0000
,  // measure 75
0010
0000
0100
0000
,  // measure 76
0001
0000
0010
0000
,  // measure 77
0100
0000
0010
0000
,  // measure 78
0001
0000
0100
0000
,  // measure 79
0010
0000
1000
0000
,  // measure 80
0100
0000
0010
0000
,  // measure 81
0001
0000
2002
0000
,  // measure 82
0000
0000
0000
0000
,  // measure 83
3003
0000
0000
0000
;
