#TITLE:The Zoo Zone;
#SUBTITLE:;
#ARTIST:Mystic Moon;
#TITLETRANSLIT:;
#SUBTITLETRANSLIT:;
#ARTISTTRANSLIT:;
#GENRE:;
#CREDIT:;
#BANNER:The Zoo Zone.png;
#BACKGROUND:The Zoo Zone-bg.png;
#LYRICSPATH:;
#CDTITLE:gd-cd2.png;
#MUSIC:The Zoo Zone.ogg;
#OFFSET:-1.112000;
#SAMPLESTART:13.927999;
#SAMPLELENGTH:15.000000;
#SELECTABLE:YES;
#BPMS:0.000000=160.000000
;
#STOPS:95.500000=0.180000,
96.000000=0.200000,
96.500000=0.180000,
97.000000=0.200000,
194.000000=1.120000,
226.500000=0.180000,
227.000000=0.200000,
227.500000=0.180000,
228.500000=0.180000
;
#BGCHANGES:;
#KEYSOUNDS:;
#ATTACKS:;

//---------------dance-single - ----------------
#NOTES:
     dance-single:
     :
     Beginner:
     1:
     0.085966,0.090612,0.027774,0.000000,0.000000,62.000000,3.000000,0.000000,0.000000,0.000000,0.000000,0.085966,0.090612,0.027774,0.000000,0.000000,62.000000,3.000000,0.000000,0.000000,0.000000,0.000000:
0000
0000
0000
0000
,
0000
0000
0000
0000
,
0000
0000
0000
0000
,
0000
0000
0000
0000
,
1001
0000
0000
0000
,
0000
0000
0000
0000
,
1000
0000
0000
0000
,
0001
0000
0000
0000
,
0010
0000
0000
0000
,
0000
1000
0000
0000
,
0000
1000
0000
0000
,
0000
0001
0000
0000
,
0000
0001
0000
0000
,
0000
1000
0000
0000
,
0000
1000
0000
0000
,
0000
0001
0000
0000
,
0000
0001
0000
0000
,
0010
0010
0000
0000
,
0000
0010
0000
0000
,
0000
0100
0000
0000
,
0000
0100
0000
0000
,
0000
0010
0000
0000
,
0000
0010
0000
0000
,
0000
0100
0000
0000
,
0000
0000
1000
0000
,
0000
0000
0001
0000
,
0000
0000
1000
0000
,
0000
0000
0001
0000
,
0000
0000
0100
0000
,
0000
0000
0010
0000
,
0000
0000
0100
0000
,
0100
0000
0010
0000
,
0000
0000
0001
0000
,
0000
0000
0000
0000
,
0000
0000
1000
0000
,
0000
0000
0000
0000
,
0000
0000
1001
0000
,
0000
0000
0000
0000
,
0000
0000
1000
0000
,
0000
0000
0001
0000
,
0001
0000
0000
0100
,
0000
0000
0000
0100
,
0000
0000
0000
0100
,
0000
0000
0000
0100
,
0000
0000
0010
0000
,
0000
0000
0010
0000
,
0000
0000
0010
0000
,
0010
0000
0010
0000
,
0010
0000
0010
0000
,
0000
0000
0000
1000
,
0000
0000
0000
0001
,
0000
0000
0000
1000
,
0000
0000
0000
0001
,
0000
0000
0000
0010
,
0000
0000
0000
0100
,
0000
0000
0000
0010
,
0000
0000
0000
0000
,
0000
0001
0000
0000
,
0000
0100
0000
0000
,
0000
1000
0000
0000
,
0000
0100
0000
0000
,
0000
0001
0000
0000
,
0000
0010
0000
0000
,
0000
1000
0000
0000
,
0000
0010
0000
0000
,
0000
1001
0000
0000
;

//---------------dance-single - ----------------
#NOTES:
     dance-single:
     :
     Easy:
     3:
     0.268479,0.271835,0.046289,0.129610,0.000000,184.000000,5.000000,14.000000,0.000000,0.000000,0.000000,0.268479,0.271835,0.046289,0.129610,0.000000,184.000000,5.000000,14.000000,0.000000,0.000000,0.000000:
0000
0000
0000
0000
,
0000
0000
0000
0000
,
0000
0000
0000
0000
,
0000
0000
0000
0000
,
1000
0000
1000
0000
,
0001
0000
0001
0000
,
1000
0000
0001
0000
,
1000
0100
0010
0002
,
0000
0000
0000
0003
,
0000
1000
0000
1000
,
0000
0001
0000
0001
,
0000
1000
0000
1000
,
0000
0001
0000
0001
,
0000
0010
0000
0010
,
0000
0100
0000
0100
,
0000
0010
0000
0010
,
0000
0100
0000
0100
,
1000
0100
0000
1000
,
0001
0100
0000
0001
,
1000
0100
0000
1000
,
0001
0100
0000
0001
,
1000
0010
0000
1000
,
0001
0010
0000
0010
,
0001
0000
1000
0000
0100
0000
0000
1000
,
1000
1000
1000
0000
0001
0000
0100
0000
,
0100
0100
0010
1000
,
1000
1000
0100
0010
,
0010
0010
0001
0100
,
0100
0001
2000
3000
,
0100
1000
0002
0003
,
0100
0001
2000
3000
,
0002
0003
0010
0010
,
0100
0010
0002
0000
,
0000
0000
0000
0003
,
1000
0100
1000
0010
,
0020
0030
0200
0300
,
0001
1000
0100
1000
,
0020
0030
1000
0001
,
1000
0001
0010
0100
,
2000
3000
0002
0003
,
1001
0000
0000
0001
,
0001
0010
0100
1000
,
1000
0010
0100
0001
,
0001
0100
0010
1000
,
1000
0100
2000
0000
,
3001
0100
0002
0000
,
1003
0100
1000
1000
,
0001
0001
0010
0001
,
1000
0010
0200
0000
,
0000
0300
0000
0001
,
0100
0010
0100
0001
,
1000
0100
1000
0001
,
0000
0001
1000
0010
,
0000
0100
0010
1000
,
0100
0010
0100
1000
,
0001
0100
0001
1000
,
1000
0000
0001
0000
0000
0010
0010
0010
,
0000
0100
0000
1000
,
0001
1001
0000
0001
,
1000
1001
0000
0010
,
0100
0110
0000
0001
,
0010
0100
0100
1000
,
0010
0100
0000
0001
,
0010
0100
0000
0010
,
0000
0001
0010
0100
,
1000
1001
0000
0000
;

//---------------dance-single - ----------------
#NOTES:
     dance-single:
     :
     Medium:
     6:
     0.420573,0.373556,0.074063,0.212931,0.018516,287.000000,8.000000,23.000000,0.000000,0.000000,0.000000,0.420573,0.373556,0.074063,0.212931,0.018516,287.000000,8.000000,23.000000,0.000000,0.000000,0.000000:
0000
0000
0000
0000
,
0000
0000
0000
0000
,
0000
0000
0000
0000
,
0000
0000
0000
0000
,
1000
1000
0001
0100
,
0001
0001
1000
0010
,
2000
3000
0002
0003
,
0010
0000
0001
0000
1000
0000
0001
0100
,
0020
0000
0000
0000
0030
0100
0001
0100
,
0001
0000
1000
0000
0100
0000
1000
0001
,
0010
0001
0000
1000
0000
0001
0000
0100
,
0010
0000
1000
0000
0010
0000
1000
0001
,
0010
0001
0000
0100
0000
1000
0100
0000
,
0010
0000
1000
0000
0100
0000
0010
0001
,
0010
0100
0000
1000
0000
0010
0000
1000
,
0100
0000
0010
0000
0001
0000
0001
0100
,
1000
0100
0000
0001
0000
0010
0010
0000
,
0002
0000
0103
0000
0001
0000
0100
0010
,
0000
0010
1000
0000
0001
0100
0001
0010
,
0000
0010
0001
0000
1000
0100
1000
0010
,
0000
0010
0100
0000
0001
0000
1000
0000
,
2000
0000
3100
0000
1000
0000
0001
0100
,
0000
0100
0001
0000
1000
0010
1000
0100
,
0000
0100
0010
0000
0001
1000
0001
1000
,
1000
1000
1000
0010
0100
0000
0100
0000
,
0001
0020
0000
0031
1000
0000
0001
0000
,
1000
0020
0000
1030
0100
0000
0100
0000
,
0100
2000
0000
3001
0010
0000
0001
0000
,
0020
0000
0030
0001
1000
0000
1000
0000
,
0020
0000
0030
1000
0100
0000
0100
0000
,
0020
0000
0030
0001
2000
0000
3000
0001
,
0200
0000
0300
0001
0000
1000
0000
0010
,
0000
0100
0000
0001
0010
0100
0010
0000
,
0020
0000
0000
0030
,
1000
0000
0001
0100
0001
0000
2000
0000
,
3000
0100
0100
0000
0000
0001
0001
0000
,
1000
0000
0100
1000
0100
0000
0010
0000
,
0001
0200
0000
0000
0300
0000
0001
0000
,
0100
1000
0100
0001
,
1000
0200
0000
0000
0310
0000
0100
0000
,
0220
0000
0330
0001
,
1001
0000
1000
0100
1000
0001
1000
0000
,
0010
0100
0001
0010
,
0110
0000
0001
0100
0001
1000
0001
0000
,
0100
0000
0010
0000
0001
0000
0001
1000
,
0001
0000
1000
0100
1000
0000
0010
1000
,
0010
0000
0100
0001
0100
0000
0001
0000
,
1000
1100
1001
0101
,
0001
0100
0020
0000
,
0000
0000
0030
0100
0010
0100
0001
0000
,
1001
0000
1000
0000
0001
0100
0000
0001
,
0100
0000
0001
0000
1000
0000
0000
1000
0000
0000
1000
0000
0100
0000
0000
0000
,
0010
0001
0100
0010
,
1000
0000
0001
0000
0100
0000
0001
0100
,
0001
0000
0010
0000
0100
1000
0000
1000
,
0100
0000
1000
0000
0001
0000
0000
0001
0000
0000
0001
0000
0100
0000
0000
0000
,
0010
0000
1000
0000
1000
0100
0100
0100
,
0100
0010
1000
0100
1000
0000
0001
0000
,
0100
0000
0001
0100
0001
0000
0010
0000
,
0100
0000
1000
0010
1000
0000
0100
0000
,
1000
0000
0001
0010
0001
0000
1000
0000
,
0001
0000
0000
0000
0020
0000
0000
0000
0000
0000
0000
0000
0031
0000
0000
0001
,
0000
0000
0001
0000
0000
0000
1000
0000
1000
0000
0000
0000
0010
0000
0000
0100
,
0000
0010
0000
1000
0001
0000
1000
0000
,
0001
1000
0010
0100
,
0001
2002
0000
0000
,
0000
0000
0000
0000
,
0000
3003
0000
0000
;

//---------------dance-single - ----------------
#NOTES:
     dance-single:
     :
     Hard:
     8:
     0.554151,0.560334,0.231447,0.231447,0.138868,369.000000,25.000000,25.000000,0.000000,0.000000,0.000000,0.554151,0.560334,0.231447,0.231447,0.138868,369.000000,25.000000,25.000000,0.000000,0.000000,0.000000:
0000
0000
0000
0000
,
0000
0000
0000
0000
,
0000
0000
0000
0000
,
0000
0000
0000
0000
,
1000
0000
1000
0000
0001
0100
0010
0100
,
0001
0000
0001
0000
1000
0001
0010
0001
,
0100
0001
1000
0010
,
1001
0000
0110
0000
0001
0010
0100
1000
,
0020
0000
0000
0000
0030
1000
0001
0010
,
0100
0000
1000
0000
0100
0000
0000
0000
1000
0000
0000
1000
0000
0000
0100
0000
,
1000
0000
0010
0000
1000
0000
0000
0001
0000
0000
0001
0000
0000
0000
0010
0000
,
0100
0000
1000
0000
0001
0000
0000
1000
0000
0000
1000
0000
0000
0000
0100
0000
,
0010
0000
0001
0000
1000
0000
0000
0010
0000
0000
0100
0000
0001
0000
0100
0000
,
0000
0000
0010
0000
1000
0000
0010
0000
0100
0000
0000
0001
0000
0000
0010
0000
,
0100
0000
1000
0000
0010
0000
0000
1000
0000
0000
0010
0000
0100
0000
0001
0000
,
0100
0000
0010
0000
0100
0000
0000
0001
0000
0000
0100
0000
0010
0000
1000
0000
,
0100
0000
0010
0000
0001
0000
0000
1000
0000
0000
0100
0000
0100
0000
0000
0000
,
1100
0000
0101
0000
0001
0100
1000
0100
,
0000
0100
0010
0000
1000
0100
1000
0001
,
0000
0010
0100
0000
1000
0100
1000
0010
,
0000
0010
0100
0000
0001
1000
0100
0000
,
0001
0000
1100
0000
1000
0010
0001
0010
,
0000
0010
0100
0000
0100
0001
0010
0001
,
0000
0001
1000
0000
1000
0100
0010
0001
,
0011
1100
0110
0010
0100
0000
1000
0100
,
1000
0020
0000
1030
0001
0000
0001
0100
,
0001
0020
0000
0031
0100
0000
0001
1000
,
0010
0200
0000
0301
0010
0000
0001
1000
,
0200
0000
0310
0000
1000
0001
1000
0010
,
0200
0000
0301
0100
0001
1000
0010
1000
,
0002
0000
1003
0100
2000
0000
3001
0100
,
0002
0000
1003
0100
0000
0101
0000
1100
,
0000
0001
0000
0100
0000
0000
0100
0000
0001
0000
0000
0000
0001
0000
1000
0000
,
0020
0000
0000
0000
0000
0000
1030
0100
,
0010
0000
0001
0100
0001
0010
0100
0000
,
1000
0020
0000
0000
0230
0000
0000
0000
,
0302
0000
2003
0000
3001
0010
0100
1000
,
0100
0020
0000
0031
0100
0000
0100
0001
,
1000
0100
0000
0100
1000
0001
1000
0010
,
0100
0020
0000
1030
1000
0001
0100
0010
,
0220
0000
0000
0000
0000
0000
0000
0000
0000
0330
0000
0000
0000
0000
0000
0000
0000
0000
0001
0000
1000
0000
0001
0000
,
0100
0000
0000
0000
0000
0000
0001
0000
0000
1000
0000
0000
0001
0000
0000
0010
0000
0000
0100
0000
1000
0000
0010
0000
,
0100
0000
0000
0000
0000
0000
0010
0000
0000
1000
0000
0000
0001
0000
0000
1000
0000
0000
0010
0000
0100
0000
0001
0000
,
0010
0000
0000
0000
0000
0000
0100
0000
0000
1000
0000
0000
0001
0000
0000
0010
0000
0000
0100
0000
0010
0000
0001
0000
,
1000
0000
0100
0010
0001
0001
0000
0100
,
1000
1000
0000
0100
0010
0010
0000
1000
,
0100
0100
0000
1000
0001
0001
1000
1000
,
0010
0010
0100
0100
0001
0001
0010
0010
,
0001
1000
0001
1000
2200
3300
0000
0100
,
0000
0100
0000
1000
0100
0001
0100
1000
,
0010
0000
0000
0000
0010
0000
0000
0100
0000
0000
1001
0000
0000
0000
0001
0000
,
0001
0000
0100
0000
0010
0000
0000
0100
0000
0000
0001
0000
0001
0000
0000
0000
,
0101
1001
0101
1000
,
1010
0000
1001
0000
1010
0000
1000
0100
,
0010
0000
0001
0000
1000
0000
0000
0001
0000
0000
0110
0000
0000
0000
1000
0000
,
1000
0000
0001
0000
0010
0000
0000
0100
0000
0000
1000
0000
2000
0000
0000
0000
,
3002
0000
0023
0000
0130
0100
1100
1001
,
0001
0000
0100
0000
0001
0000
1000
0000
0010
0000
1000
0000
0100
0000
0000
0100
,
0000
0000
0010
0000
0000
0000
0001
0000
0100
0000
0001
0000
1000
0000
0000
1000
,
0000
0000
0001
0000
0000
0000
1000
0000
0001
0000
0100
0000
0010
0000
0000
0100
,
0000
0000
0100
0000
0000
0000
0001
0000
0100
0000
0010
0000
1000
0000
0000
0100
,
0000
0000
1000
0000
0001
0000
0001
0000
0001
0000
0001
0000
0010
0000
0000
0100
,
0000
0000
0100
0000
0000
0000
1000
0000
0100
0000
1000
0000
0001
0000
0000
0010
,
0000
0000
0010
0000
0000
0000
0100
0000
0010
0000
0001
0000
1000
0000
0000
1100
,
0000
0000
1001
0000
0000
0000
0010
0000
1000
0000
0001
0000
0100
0000
0000
0010
,
0000
0100
2002
0000
0000
0000
0000
0000
,
0000
0000
0000
0000
,
0000
3003
0000
0000
;

//---------------dance-single - ----------------
#NOTES:
     dance-single:
     :
     Challenge:
     9:
     0.693019,0.684852,0.379573,0.249963,0.402718,456.000000,41.000000,27.000000,0.000000,0.000000,0.000000,0.693019,0.684852,0.379573,0.249963,0.402718,456.000000,41.000000,27.000000,0.000000,0.000000,0.000000:
// measure 0
0000
0000
0000
0000
,  // measure 1
0000
0000
0000
0000
,  // measure 2
0000
0000
0000
0000
,  // measure 3
0000
0000
0000
0000
,  // measure 4
1000
0000
0000
0001
0000
0010
0000
0001
0000
0000
1000
0000
0100
0000
0010
0000
,  // measure 5
0001
0000
0000
1000
0000
0010
0000
1000
0000
0000
0001
0000
0100
0000
0010
0000
,  // measure 6
1000
0000
0100
0000
0001
0000
0100
0000
1000
0000
0010
0000
0001
0000
0010
0100
,  // measure 7
0010
0000
1000
0000
0001
0000
0010
0000
0100
0000
1000
0001
0000
0001
0100
0000
,  // measure 8
0020
0000
0000
0000
0030
1000
1000
2000
,  // measure 9
3000
0000
0001
0000
0100
0001
0100
0000
0001
0000
0000
0010
0000
0000
0100
0000
,  // measure 10
0000
0000
0010
0000
0001
1000
0000
1000
0010
0000
0100
0000
0001
0000
0010
0000
,  // measure 11
0000
0000
0010
0000
0001
1000
0000
1000
0100
0000
1000
0000
0010
0000
0100
0000
,  // measure 12
0000
0000
0100
0000
0001
1000
0000
0010
1000
0000
0001
0000
0001
0000
0002
0000
,  // measure 13
0003
0000
1000
0000
0100
1000
0100
0000
1000
0000
0000
0010
0000
0000
0100
0000
,  // measure 14
0000
0000
0010
0000
1000
0001
0000
0001
0100
0000
0010
0000
1000
0000
0100
0000
,  // measure 15
0000
0000
0100
0000
1000
0001
0000
0001
0010
0000
0001
0000
0100
0000
0010
0000
,  // measure 16
0000
0000
0100
0000
0001
0100
0000
0100
0010
0000
1000
0000
1000
0000
0000
0000
,  // measure 17
2200
3300
0022
0033
0001
1000
0100
0010
,  // measure 18
0000
0000
0100
0000
1000
0001
0000
0010
0001
0000
0100
0000
0100
0000
0010
0000
,  // measure 19
0000
0000
1000
0000
0001
0010
0000
0001
1000
0000
0100
0000
0100
0000
0010
0000
,  // measure 20
0000
0000
0001
0000
0100
0010
0000
0010
0100
0000
0001
0000
1000
0000
0000
0000
,  // measure 21
0001
0100
0010
0100
0001
1000
0100
0010
,  // measure 22
0000
0000
0100
0000
1000
0001
0000
0100
0010
0000
0100
0000
0001
0000
0101
0000
,  // measure 23
0000
0000
1000
0000
0001
1000
0000
0100
0010
0000
0100
0000
1000
0000
1100
0000
,  // measure 24
1001
0101
0110
1001
1000
0001
0100
0000
,  // measure 25
0001
1000
0010
1010
1000
0001
0100
0000
,  // measure 26
0001
1000
0001
0011
0010
0100
1000
0000
,  // measure 27
0100
0010
0100
1100
1000
0001
0101
0000
,  // measure 28
0001
0000
0000
0001
0100
0000
0010
0000
1000
0000
0100
0000
1000
0000
0100
0000
,  // measure 29
0020
0100
0031
1000
0001
0100
0010
1000
,  // measure 30
0020
0100
1030
0100
0020
0100
0031
0100
,  // measure 31
0020
0100
1030
0100
1000
0001
1000
0001
,  // measure 32
0010
0100
0000
0100
0010
0000
0001
0000
1000
0000
0000
1000
0100
0000
0000
0100
,  // measure 33
0020
0000
0000
0000
0031
0000
0001
0100
,  // measure 34
1000
0100
0001
0010
1000
0000
0010
0010
,  // measure 35
0001
1000
0100
1000
0001
1000
0010
1000
,  // measure 36
0002
1003
0201
0310
,  // measure 37
1010
0000
0010
0000
1000
0000
0001
0000
0011
0000
0000
0100
0000
0000
0100
0000
,  // measure 38
1000
0000
0001
0000
0100
0010
0000
0000
0110
0000
0000
0000
0100
0000
0001
0000
,  // measure 39
0010
0000
0001
0000
1000
0000
0010
0000
1000
0000
0100
0000
0010
0001
0010
0000
,  // measure 40
0022
0000
0000
0000
0000
0000
0000
0000
0000
0033
0000
0000
0000
0000
0000
0000
0000
0000
0001
0000
0100
0000
0010
0000
,  // measure 41
1000
0000
0000
0100
0000
0000
0010
0000
0000
0100
0000
0000
1000
0000
0000
0001
0000
0000
1000
0000
0100
0000
0010
0000
,  // measure 42
0001
0000
0010
0000
0100
0000
1000
0000
0000
0010
0000
0000
0100
0000
0000
0001
0000
0000
0100
0000
0010
0000
1000
0000
,  // measure 43
0001
0000
0000
1000
0000
0000
0100
0000
0000
0010
0000
0000
0100
0000
0000
1000
0000
0000
0010
0000
0100
0000
0001
0000
,  // measure 44
0010
0000
0100
0000
1000
0000
0001
0000
0000
0100
0000
0000
0001
0000
0000
0010
0000
0000
0110
0000
0000
0000
0000
0000
,  // measure 45
0100
1100
0000
1010
1000
0001
0101
0000
,  // measure 46
0110
0010
1000
1001
0001
1000
0010
0110
,  // measure 47
0100
0000
0001
0000
1000
0000
1001
0000
0001
0000
0010
0100
0010
0000
0001
0000
,  // measure 48
1000
0010
1000
0010
0100
0000
0001
0000
0022
0000
0000
0000
0003
0000
0001
0000
,  // measure 49
0000
1000
0030
0001
0001
0001
0000
0100
,  // measure 50
0001
1000
0010
0000
2010
0000
0000
0100
0000
0000
3001
0000
0000
0000
0001
0000
,  // measure 51
0001
0000
0100
0000
0010
0000
0000
0101
0000
0000
0011
0000
0001
0000
0000
0001
,  // measure 52
1000
0000
0000
1000
0100
0000
0000
0100
0010
0000
0000
0010
0001
0000
0000
0001
,  // measure 53
0100
0000
0000
0100
0010
0000
1000
0000
1000
0000
1000
0000
0000
0000
0100
0000
,  // measure 54
1000
0001
0010
0000
0012
0000
0000
0100
0000
0000
1003
0000
0000
0000
0001
0000
,  // measure 55
1000
0000
0001
0000
0010
0000
0000
1100
0000
0000
1010
0000
0010
0000
0000
0100
,  // measure 56
0001
0000
0000
0001
1000
0000
1000
0100
0010
0000
0011
0000
1100
0000
0011
0000
,  // measure 57
2000
0000
3100
0000
1000
0000
1000
0000
0001
0000
0001
0000
0010
0001
0000
0100
,  // measure 58
0000
0000
0101
0000
0000
0000
0001
0000
0010
0000
0010
0000
0001
1000
0000
0100
,  // measure 59
0000
0000
1100
0000
0000
0000
1000
0000
0001
0000
0100
0000
0010
1000
0000
0001
,  // measure 60
0000
0000
0011
0000
0000
0000
1000
0100
1000
0000
0001
0100
0001
0000
0000
0100
,  // measure 61
0000
0000
0010
0000
2000
0000
3200
0000
0320
0000
0032
0000
1003
0000
0000
0010
,  // measure 62
0000
0000
0110
0000
0000
0000
0001
0000
0100
0000
0010
0000
1000
0000
0000
0100
,  // measure 63
0000
0110
0010
0001
0100
0001
1000
0010
,  // measure 64
1000
0000
0100
0000
0010
0000
0001
1000
0100
0000
1000
0001
0100
0000
0000
0010
,  // measure 65
0000
0100
2002
0000
0000
0000
0000
0000
,  // measure 66
0000
0000
0000
0000
,  // measure 67
0000
3003
0000
0000
;
