#TITLE:The Chase;
#SUBTITLE:;
#ARTIST:DJ Mass MAD Izm*;
#TITLETRANSLIT:;
#SUBTITLETRANSLIT:;
#ARTISTTRANSLIT:;
#GENRE:;
#CREDIT:;
#BANNER:[STOPS] - The Chase.png;
#BACKGROUND:[STOPS] - The Chase-bg.png;
#LYRICSPATH:;
#CDTITLE:;
#MUSIC:[STOPS] - The Chase.mp3;
#OFFSET:0.603000;
#SAMPLESTART:61.912212;
#SAMPLELENGTH:13.521122;
#SELECTABLE:YES;
#BPMS:0.000000=142.000000
,4.000000=71.000000
,5.000000=142.000000
,7.000000=71.000000
,8.000000=142.000000
,10.000000=71.000000
,11.000000=142.000000
,13.000000=71.000000
,14.000000=142.000000
,155.000000=71.000000
,171.000000=142.000000
,235.000000=71.000000
;
#STOPS:5.000000=1.690000,
8.000000=1.690000,
11.000000=1.690000,
14.000000=1.690000,
60.000000=0.845000,
122.000000=1.268000
;
#BGCHANGES:;
#KEYSOUNDS:;
#ATTACKS:;

//---------------dance-single - ----------------
#NOTES:
     dance-single:
     :
     Hard:
     8:
     0.416227,0.498924,0.261378,0.169127,0.192189,379.000000,345.000000,34.000000,22.000000,0.000000,0.000000,0.416227,0.498924,0.261378,0.169127,0.192189,379.000000,345.000000,34.000000,22.000000,0.000000,0.000000:
0000
0000
0000
0000
,
0220
0000
0000
0330
0000
0000
0000
0000
0000
0000
0000
0000
2002
0000
0000
3003
,
0000
0000
0000
0000
0000
0000
0000
0000
0220
0000
0000
0330
0000
0000
0000
0000
,
0000
0000
0000
0000
2002
0000
0000
3003
0000
0000
0000
0000
0000
0000
0000
0000
,
0001
0000
1000
0010
0000
0010
1000
0000
0000
0000
0100
0000
0000
0000
0010
0000
,
0001
0001
0000
0000
0100
0100
0100
0000
,
0010
0000
1000
0001
0000
0001
1000
0000
0000
0000
0100
0000
0000
0000
1000
0000
,
0100
0100
0000
0000
1000
1000
1000
0000
,
0010
0000
0100
0001
0000
0001
0100
0000
0010
0000
1000
0000
0000
0000
0001
0000
,
0000
0010
0000
0000
0100
0100
0100
0000
,
0010
0000
0001
1000
0000
1000
0001
0000
0100
0000
0010
0100
0010
0000
1000
0000
,
0002
0000
0000
0003
,
1000
0001
0100
0000
0001
0000
0010
0000
,
0001
0000
0000
0000
0100
0000
0000
0000
0010
0000
1000
0000
0100
0010
0000
0010
,
0001
1000
0010
0000
1000
0000
0100
0000
,
1000
0020
0000
0030
1001
0001
0010
0100
,
1000
0001
1000
0000
1000
0010
0100
0010
,
1000
0100
0010
0001
1000
0001
0100
0010
,
1000
0001
1000
0000
0001
0010
0100
0010
,
0001
0100
0010
1000
0001
0010
0100
1000
,
0001
1000
0001
0000
0100
0001
0100
0010
,
1000
0100
0010
0100
1000
0100
0010
0001
,
1000
0001
1000
0000
0001
0100
0010
1000
,
0001
0010
0001
1000
0001
0010
0000
0011
,
0000
1100
0000
0100
0000
1000
0000
0010
,
0100
1000
0100
0001
0010
0001
0000
0011
,
0000
1010
0000
1000
0010
0001
0010
1000
,
0010
0001
0010
0000
0210
0000
0300
0101
,
0000
0101
0000
1010
0000
1010
0000
1100
,
0000
0220
0000
0330
2001
0000
3000
0101
,
0000
0101
0000
0101
0000
0000
0210
0000
,
0000
0000
1000
0000
0301
0000
0100
0001
,
1000
0100
1000
0001
0100
0010
0120
0000
,
0000
0000
1000
0000
0031
0000
0100
0010
,
1000
0001
0010
0100
1000
0010
0210
0000
,
0000
0000
0001
0000
1300
0000
1000
0100
,
0010
1000
0001
0010
0100
1000
0120
0000
,
0000
0000
1000
0000
0031
0000
0010
0100
,
0001
0010
0100
1000
0010
0100
2002
0000
,
0000
3003
0000
0110
,
0000
0000
0000
0000
0000
0000
0000
0000
0000
0000
0000
0000
1000
0100
1000
0010
,
0000
0100
0020
0000
0000
0000
0030
0000
0000
0000
0000
0000
0110
0000
0000
0101
,
0000
0000
0011
0000
0000
1100
0000
0000
0100
0010
0001
1000
0010
0000
1000
0000
,
0100
1000
0100
0010
0001
0000
1000
0000
,
0001
0000
0100
0000
0010
0000
0100
0001
,
0010
0100
1000
0001
1000
0000
0001
0000
,
0010
0000
0001
0000
1000
0000
0001
1000
,
0100
0010
0001
0100
0010
0000
0100
0000
,
0001
0000
1000
0000
0100
0000
0010
0001
,
0010
0100
1000
0010
0100
0000
0001
0000
,
1000
0000
0010
0000
0100
0000
0010
1000
,
0000
0000
0101
0000
0000
0000
0000
0000
0000
0000
0000
0000
1000
0001
1000
0001
,
1000
0001
1000
0001
1000
0001
1000
0001
1000
0001
1000
0001
1000
0000
0010
0000
,
0000
0000
0011
0000
0000
0000
0000
0000
0000
0000
0000
0000
0100
0010
0100
0010
,
0100
0010
0100
0010
0100
0010
0100
0010
0100
0010
0100
0010
0100
0000
0001
0000
,
0000
0000
1001
0000
0000
0000
0000
0000
0000
0000
0000
0000
1000
0100
1000
0100
,
1000
0100
1000
0100
1000
0100
1000
0100
1000
0100
1000
0100
1000
0000
0010
0000
,
0000
0000
0101
0000
0000
0000
0000
0000
0000
0000
0000
0000
0001
0010
0001
0010
,
0001
0010
0001
0010
0001
0010
0001
0010
0001
0010
0001
0010
0200
0000
0000
0000
,
0300
0000
0000
0000
;

//---------------dance-double - ----------------
#NOTES:
     dance-double:
     :
     Hard:
     8:
     0.423915,0.498924,0.238315,0.269065,0.215252,386.000000,355.000000,31.000000,35.000000,0.000000,0.000000,0.423915,0.498924,0.238315,0.269065,0.215252,386.000000,355.000000,31.000000,35.000000,0.000000,0.000000:
00000000
00000000
00000000
00000000
,
20020000
00000000
00000000
30030000
00000000
00000000
00000000
00000000
00000000
00000000
00000000
00000000
00022000
00000000
00000000
00033000
,
00000000
00000000
00000000
00000000
00000000
00000000
00000000
00000000
00002002
00000000
00000000
00003003
00000000
00000000
00000000
00000000
,
00000000
00000000
00000000
00000000
00022000
00000000
00000000
00033000
00000000
00000000
00000000
00000000
00000000
00000000
00000000
00000000
,
00001000
00000000
00100000
01000000
00000000
01000000
10000000
00000000
00000000
00000000
00100000
00000000
00000000
00000000
01000000
00000000
,
00010000
00100000
00000000
00000000
01000000
01000000
01000000
00000000
,
00100000
00000000
00001000
00010000
00000000
00010000
00000100
00000000
00000000
00000000
00000100
00000000
00000000
00000000
00000010
00000000
,
00000001
00000010
00000000
00000000
00000100
00000100
00000100
00000000
,
00000100
00000000
00001000
00000100
00000000
00010000
00001000
00000000
00000000
00000000
01000000
00000000
00000000
00000000
00000000
00000000
,
00000000
00010000
00000000
00000000
00100000
00100000
00100000
00000000
,
00001000
00000000
00100000
00001000
00000000
00010000
00000100
00000000
00001000
00000000
00000010
00000100
00000010
00000000
00000100
00000000
,
00001002
00000100
00001000
00000013
,
00000001
00000010
00001000
00000000
00000010
00000000
00000100
00000000
,
00001000
00000000
00000000
00000000
00000100
00000000
00000000
00000000
00010000
00000000
00001000
00000000
00100000
00010000
00000000
00010000
,
01000000
00100000
10000000
00000000
00010000
00000000
00100000
00000000
,
00001000
00002020
00000000
00003030
00000100
00000010
00001000
00000001
,
00000010
00000100
00001000
00000000
00000001
00000001
00000010
00000001
,
00000100
00000100
00000010
00001000
00000100
00010000
00001000
00100000
,
00010000
00100000
01000000
00000000
00100000
00100000
00010000
01000000
,
00100000
00100000
01000000
00010000
10000000
00010000
00100000
00001000
,
00010000
00000100
00000010
00000000
00000100
00000100
00000010
00000001
,
00001000
00001000
00000010
00000100
00000001
00001000
00000100
00000010
,
00000001
00001000
00000010
00000000
00001000
00001000
00000100
00010000
,
00001000
00000000
00001000
00000000
00010000
00000000
00100000
00000000
01000000
10000000
00100000
00000000
00000000
00000000
01000000
00010000
,
10000000
00010000
00000000
00000000
00000000
01000000
00000000
00010000
,
00100000
00000000
00001000
00000000
00010000
00000000
00000100
00000000
00000010
00000001
00000010
00000000
00000000
00000000
00000001
00000100
,
00000010
00000100
00000000
00000010
00001000
00000100
00010000
00001000
,
00100000
00010000
01000000
10000000
21000000
00000000
30000000
11000000
,
00000000
01100000
00000000
01010000
00000000
00110000
00000000
01010000
,
00000000
02002000
00000000
03003000
00021000
00000000
00030000
00001100
,
00000000
00000011
00000000
00001100
00000000
00000000
00020200
00000000
,
00030000
00000000
00010000
00000000
00001300
00000000
00000100
00010000
,
00001000
00100000
10000000
00100000
00010000
01000000
02020000
00000000
,
00030000
00000000
00001000
00000000
03010000
00100000
01000000
10000000
,
01000000
00100000
00001000
00010000
00000100
00000010
00000022
00000000
,
00000030
00000000
00000100
00000000
00000013
00000000
00000100
00000010
,
00000001
00000100
00000010
00001000
00000100
00010000
00022000
00000000
,
00030000
00000000
00010000
00000000
00103000
00000000
00001000
00100000
,
00010000
01000000
10000000
01000000
00100000
10000000
20020000
00000000
,
00000000
30030000
00000000
01100000
,
00000000
00000000
00000000
00000000
00000000
00000000
00000000
00000000
00000000
00000000
00000000
00000000
01000000
01000000
00001000
00001000
,
00000000
00010000
00020000
00000000
00000000
00000000
00030000
00000000
00000000
00000000
00000000
00000000
00011000
00000000
00000000
00010100
,
00000000
00000000
00000000
00000000
00011000
00000000
00000000
00000000
00000000
00000000
00101000
00000000
00000000
00000000
00000000
00000000
00001000
00000000
00010000
00000000
00000100
00001000
00000100
00001000
00000010
00000000
00000000
00000000
00000100
00000000
00000000
00000000
,
00000001
00001000
00000100
00000010
00000001
00000000
00002000
00000000
,
00003010
00000000
00000020
00000000
00010030
00000000
00001000
00010000
,
00001000
01000000
00100000
10000000
01000000
00000000
00200000
00000000
,
00301000
00000000
00020000
00000000
00030100
00000000
00001000
00000010
,
00000100
00000001
00001000
00000100
00000010
00000000
00000002
00000000
,
00000103
00000000
00000020
00000000
00001030
00000000
00000100
00010000
,
00001000
00100000
01000000
10000000
00010000
00000000
02000000
00000000
,
03001000
00000000
00020000
00000000
00031000
00000000
00001000
00100000
,
00000000
00000000
11000000
00000000
00000000
00000000
00000000
00000000
00000000
00000000
00000000
00000000
10000000
00100000
10000000
00100000
,
10000000
00100000
10000000
00100000
10000000
00100000
10000000
00100000
10000000
00100000
10000000
00100000
10000000
00000000
01000000
00000000
,
00000000
00000000
00110000
00000000
00000000
00000000
00000000
00000000
00000000
00000000
00000000
00000000
00001000
00100000
00001000
00100000
,
00001000
00100000
00001000
00100000
00001000
00100000
00001000
00100000
00001000
00100000
00001000
00100000
00001000
00000000
00010000
00000000
,
00000000
00000000
00001010
00000000
00000000
00000000
00000000
00000000
00000000
00000000
00000000
00000000
00000010
00000100
00000010
00000100
,
00000010
00000100
00000010
00000100
00000010
00000100
00000010
00000100
00000010
00000100
00000010
00000100
00000010
00000000
00001000
00000000
,
00000000
00000000
00001001
00000000
00000000
00000000
00000000
00000000
00000000
00000000
00000000
00000000
00000001
00000100
00000001
00000100
,
00000001
00000100
00000001
00000100
00000001
00000100
00000001
00000100
00000001
00000100
00000001
00000100
00000020
00000000
00000000
00000000
,
00000030
00000000
00000000
00000000
;

//---------------dance-single - ----------------
#NOTES:
     dance-single:
     :
     Medium:
     5:
     0.305307,0.340175,0.153752,0.176814,0.042282,278.000000,258.000000,20.000000,23.000000,0.000000,0.000000,0.305307,0.340175,0.153752,0.176814,0.042282,278.000000,258.000000,20.000000,23.000000,0.000000,0.000000:
0000
0000
0000
0000
,
2002
0000
0000
3003
0000
0000
0000
0000
0000
0000
0000
0000
2002
0000
0000
3003
,
0000
0000
0000
0000
0000
0000
0000
0000
2002
0000
0000
3003
0000
0000
0000
0000
,
0000
0000
0000
0000
2002
0000
0000
3003
0000
0000
0000
0000
0000
0000
0000
0000
,
1000
0000
0000
0010
0000
0000
0100
0000
0000
0000
0001
0000
0000
0000
0000
0000
,
1000
0100
0000
0000
1000
0001
1000
0000
,
0001
0000
0000
0100
0000
0000
0010
0000
0000
0000
1000
0000
0000
0000
0000
0000
,
0001
0010
0000
0000
0001
1000
0001
0000
,
1000
0000
0000
0001
0000
0000
0010
0000
0000
0000
0100
0000
0000
0000
0000
0000
,
0000
0010
0000
0000
0001
1000
0001
0000
,
1000
0000
0000
0010
0000
0000
0100
0000
0000
0000
0001
0000
0100
0000
0010
0000
,
2000
0000
0000
3000
,
0001
0100
0001
0000
1000
0000
0100
0000
,
1000
0000
0010
0000
0100
0001
0010
0000
,
0100
0010
0001
0000
0010
0000
0001
0000
,
0010
0000
0000
0000
0100
1000
0000
1010
,
0000
0000
0000
0000
0100
0010
1000
0000
,
1000
0001
0010
0000
0100
0010
0000
0011
,
0000
0000
0000
0000
0100
1000
0010
0000
,
0100
0010
1000
0000
0001
1000
0000
1100
,
0000
0000
0000
0000
0100
0010
0001
0000
,
0010
0100
1000
0000
0100
1000
0000
1010
,
0000
0000
0000
0000
0010
0100
0001
0000
,
0100
0010
1000
0000
0001
1000
0000
0100
,
0000
1000
0000
0010
0000
0100
0000
0010
,
0100
0001
1000
0000
0001
0010
0000
0001
,
0000
1000
0000
0100
1000
0010
0100
0000
,
0010
0100
0001
0000
1001
0000
0000
0001
,
0000
0001
0000
0001
0000
0001
0000
0001
,
0000
2200
0000
3300
1000
0000
0000
0010
,
0000
0010
0000
0010
0000
0000
0220
0000
,
0300
0000
0100
0000
0130
0000
0010
0100
,
0010
0000
0100
0010
0100
0000
2002
0000
,
3000
0000
1000
0000
1003
0000
0001
1000
,
0001
0000
1000
0001
1000
0000
2020
0000
,
3000
0000
1000
0000
1030
0000
0010
1000
,
0010
0000
1000
0010
1000
0000
0202
0000
,
0003
0000
0001
0000
0301
0000
0100
0001
,
0100
0000
0001
0100
0001
0000
0220
0000
,
0000
0330
0000
1001
,
0000
0000
0000
0000
0000
0000
0000
0000
0000
0000
0000
0000
1000
0001
1000
0001
,
0000
0010
0200
0000
0000
0000
0300
0000
0000
0000
0000
0000
0010
0000
0000
0001
,
0000
0000
0100
0000
0000
1000
0000
0000
0100
0010
0100
0010
0100
0000
0000
0000
,
0001
0000
0010
0000
0001
0000
1000
0001
,
0100
0000
0001
1000
0100
0000
1000
0000
,
0010
0000
0100
0000
0001
0000
1000
0100
,
0010
0000
0100
1000
0010
0000
0100
0000
,
0001
0000
0010
0000
0100
0000
0010
0001
,
0100
0000
0010
0100
0001
0000
1000
0000
,
0001
0000
0100
0000
0010
0000
1000
0010
,
0100
0000
0010
1000
0001
0000
0010
0100
,
0000
1100
0000
0000
0000
0000
0010
1000
,
0010
1000
0010
1000
0010
1000
0010
0100
,
0000
0101
0000
0000
0000
0000
0001
0010
,
0001
0010
0001
0010
0001
0010
0100
1000
,
0000
1100
0000
0000
0000
0000
0100
0010
,
0100
0010
0100
0010
0100
0010
0100
1000
,
0000
1001
0000
0000
0000
0000
0001
0100
,
0010
1000
0001
0100
0010
1000
0002
0000
,
0003
0000
0000
0000
;

//---------------dance-single - ----------------
#NOTES:
     dance-single:
     :
     Easy:
     3:
     0.180109,0.226784,0.084563,0.192189,0.000000,164.000000,153.000000,11.000000,25.000000,0.000000,0.000000,0.180109,0.226784,0.084563,0.192189,0.000000,164.000000,153.000000,11.000000,25.000000,0.000000,0.000000:
0000
0000
0000
0000
,
1001
0000
0000
1001
,
0000
0000
1001
0000
,
0000
1001
0000
0000
,
0001
0100
0000
0001
,
1000
0000
1000
1000
,
0001
0010
0000
0001
,
0100
0000
0100
0100
,
0010
1000
0000
0100
,
0010
0000
0010
0010
,
0001
0100
0000
0010
,
2002
0000
0000
3003
,
0001
1000
0010
1000
,
0001
0010
0001
1001
,
1000
0001
0100
0001
,
0100
0000
0020
1030
,
0020
0130
0100
0010
,
1000
0001
0020
0031
,
0020
0130
0100
1000
,
0010
0100
0002
1003
,
0002
0013
0010
0001
,
1000
0100
2000
3010
,
2000
3001
0001
0010
,
0001
0100
0010
0000
,
0100
0000
0000
0000
,
0010
1000
0001
0000
,
1000
0000
0100
0000
,
1000
0000
0010
0000
,
1000
0000
0001
0000
,
0100
0000
0010
0000
,
1000
0000
0000
2002
,
0000
3000
0003
1000
,
0001
0010
0001
0202
,
0000
0300
0003
0100
,
0010
1000
0100
2200
,
0000
3000
0300
1000
,
0010
0100
0001
2020
,
0000
3000
0030
0100
,
0010
1000
0001
0220
,
0000
0330
0000
1000
,
0000
0000
0000
0001
,
1000
0000
0000
0010
,
0000
0100
0000
0000
0010
0000
1000
0000
,
0001
0010
0001
1000
,
0000
1000
0000
0001
,
0100
0001
1000
0100
,
0000
0100
0000
0010
,
0001
1000
0100
1000
,
0000
1000
0000
0001
,
0100
0010
0100
0001
,
0000
0001
0000
1000
,
0001
0100
0000
0020
,
0000
0000
0000
0130
,
0001
1000
0000
0200
,
0000
0000
0000
1300
,
0001
0100
0000
0020
,
0000
0000
0000
0130
,
0001
1000
0000
0002
,
0000
0000
0000
0203
,
0300
0000
0000
0000
;

//---------------dance-double - ----------------
#NOTES:
     dance-double:
     :
     Medium:
     5:
     0.291030,0.317497,0.153752,0.315191,0.019219,265.000000,245.000000,20.000000,41.000000,0.000000,0.000000,0.291030,0.317497,0.153752,0.315191,0.019219,265.000000,245.000000,20.000000,41.000000,0.000000,0.000000:
00000000
00000000
00000000
00000000
,
20020000
00000000
00000000
30030000
00000000
00000000
00000000
00000000
00000000
00000000
00000000
00000000
02020000
00000000
00000000
03030000
,
00000000
00000000
00000000
00000000
00000000
00000000
00000000
00000000
00022000
00000000
00000000
00033000
00000000
00000000
00000000
00000000
,
00000000
00000000
00000000
00000000
00002020
00000000
00000000
00003030
00000000
00000000
00000000
00000000
00000000
00000000
00000000
00000000
,
00000001
00001000
00000000
00001000
00000000
00001000
00000000
00000000
,
00000100
00001000
00000000
00000000
00000100
00010000
00001000
00000000
,
00010000
01000000
00000000
01000000
00000000
01000000
00000000
00000000
,
00100000
10000000
00000000
00000000
10000000
00010000
00100000
00000000
,
01000000
00100000
00000000
00100000
00000000
00100000
00000000
00000000
,
00000000
00010000
00000000
00000000
00100000
00001000
00010000
00000000
,
00001000
00010000
00000000
00010000
00000000
00010000
00000100
00000010
,
00000002
00000000
00000000
00000103
,
00000010
00001000
00000100
00000000
00000001
00000000
00000100
00000000
,
00001000
00000000
00000010
00000000
00000100
00000010
00001000
00000000
,
00000001
00001000
00000100
00000000
00001000
00000000
00000100
00000000
,
00010000
00000000
00002000
00103000
,
00020000
00000000
01030000
00000000
00010000
01000000
10000000
00000000
,
10000000
01000000
00010000
00000000
00200000
00000000
00310000
00000000
,
02000000
00000000
03001000
00000000
00010000
00000100
00001000
00000000
,
00000100
00001000
00000010
00000000
00000200
00000000
00000301
00000000
,
00000020
00000000
00000130
00000000
00001000
00000010
00000001
00000000
,
00000001
00000010
00001000
00000000
00000200
00000000
00010300
00000000
,
00002000
00000000
00103000
00000000
00010000
01000000
00100000
00000000
,
01000000
00100000
10000000
00000000
00010000
10000000
00000000
01000000
,
00000000
00100000
00000000
00010000
00000000
00100000
00100000
00000000
,
00001000
00010000
00000100
00001000
00000001
00000100
00000000
00000010
,
00000000
00001000
00000000
00000100
00000010
00000001
00000100
00000000
,
00000010
00001000
00000001
00000000
00002002
00000000
00003003
00001000
,
00000000
00000100
00000000
00001000
00000000
00000100
00000000
00001000
,
00000000
00020200
00000000
00030300
00022000
00000000
00033000
00100000
,
00000000
00100000
00000000
00100000
00000000
00000000
02020000
00000000
,
00000000
03000000
00030000
01000000
,
00100000
10000000
00010000
00202000
,
00000000
00003000
00301000
00010000
,
00000100
00001000
00000010
00002002
,
00000000
00003000
00000003
00000100
,
00000010
00001000
00000100
00020200
,
00000000
00030000
00000300
00010000
,
00001000
00100000
01000000
22000000
,
00000000
33000000
00000000
00010000
,
00000000
00000000
00000000
00000000
00000000
00000000
00000000
00000000
00000000
00000000
00000000
00000000
01000000
00100000
01000000
00100000
,
00000000
01000000
00200000
00000000
00000000
00000000
00300000
00000000
00000000
00000000
00000000
00000000
10000000
00000000
00000000
00010000
,
00000000
00000000
00100000
00000000
00000000
00001000
00000000
00000000
00010000
00000000
00000100
00000000
00001000
00000000
00000010
00000000
,
00001000
00000001
00000011
00000002
,
00000103
00000000
00000020
00000000
00001030
00000000
00000100
00001000
,
00000100
00001000
00001010
00000020
,
00010030
00000000
00002000
00000000
01003000
00000000
00100000
10000000
,
01000000
01100000
01000000
20000000
,
30010000
00000000
00200000
00000000
01300000
00000000
00100000
00010000
,
01000000
00000000
00001000
00000000
01001000
00000000
00001000
00010000
,
00000100
00000000
00001000
00000010
00000100
00000000
00000001
00000100
,
00000000
00001010
00000000
00000000
00000000
00000000
00000010
00000100
,
00000010
00000100
00000010
00000100
00000010
00000100
00000010
00001000
,
00000000
00001100
00000000
00000000
00000000
00000000
00000100
00010000
,
00000100
00010000
00000100
00010000
00000100
00010000
00000100
00001000
,
00000000
00011000
00000000
00000000
00000000
00000000
00010000
00100000
,
00010000
00100000
00010000
00100000
00010000
00100000
00010000
01000000
,
00000000
10100000
00000000
00000000
00000000
00000000
10000000
00010000
,
10000000
00010000
10000000
00010000
10000000
00010000
00200000
00000000
,
00300000
00000000
00000000
00000000
;

//---------------dance-double - ----------------
#NOTES:
     dance-double:
     :
     Easy:
     3:
     0.182305,0.248405,0.130689,0.246002,0.011531,166.000000,149.000000,17.000000,32.000000,0.000000,0.000000,0.182305,0.248405,0.130689,0.246002,0.011531,166.000000,149.000000,17.000000,32.000000,0.000000,0.000000:
00000000
00000000
00000000
00000000
,
10010000
00000000
00000000
10010000
,
00000000
00000000
01100000
00000000
,
00000000
01100000
00000000
00000000
,
01000000
00010000
00000000
00100000
,
00010000
00000000
00100000
00001000
,
00010000
00000000
00000100
00000000
,
00000010
00000000
00000001
00000001
,
00001000
00000000
00000010
00000000
,
00001000
00000000
00000100
00000100
,
00001000
00000000
00000100
00000000
,
00022000
00000000
00000000
00033000
,
00010000
00100000
01000000
00100000
,
01000000
00100000
01000000
10000000
,
00010000
01000000
00010000
01000000
,
00100000
00000000
02000000
00000000
,
03020000
00000000
00130000
00001000
,
00010000
00000100
00002000
00000000
,
00003002
00000000
00000103
00000010
,
00001000
00000001
00000020
00000000
,
00000230
00000000
00001300
00000100
,
00010000
00001000
00020000
00000000
,
00030200
00000000
00001300
00000010
,
00000100
00000001
00001000
00000000
,
00000100
00000000
00010000
00000000
,
00002000
00103000
00010000
00000000
,
01000000
00000000
00200000
10300000
,
02000000
00000000
03010000
00000000
10010000
00000000
00000000
00010000
,
00000000
00010000
00000000
00010000
00000000
00010000
00000000
00010000
,
00000000
02000000
00000000
03000000
01100000
00000000
00000000
01000000
,
00000000
01000000
00000000
01000000
00000000
00000000
20020000
00000000
,
00000000
30000000
00030000
00200000
,
00000000
00000000
00300000
02020000
,
00000000
03000000
00030000
00200000
,
00000000
00000000
00300000
00022000
,
00000000
00030000
00003000
02000000
,
00000000
00000000
03000000
20200000
,
00000000
30000000
00300000
02000000
,
00000000
00000000
03000000
20020000
,
00000000
30030000
00000000
00100000
,
00000000
00000000
00000000
00000000
00000000
00000000
00000000
00000000
00000000
00000000
00000000
00000000
01000000
00000000
00000000
00010000
,
00000000
00000000
00000000
00000000
00000000
00000000
00000000
00000000
00000000
00000000
00000000
00000000
00100000
00000000
00000000
00100000
,
00000000
00000000
00010000
00000000
00000000
00010000
00000000
00000000
00100000
00000000
00001000
00000000
00010000
00000000
00000000
00000000
,
00000100
00001000
00000010
00000100
,
00000001
00000100
00000001
00000100
,
00000010
00001000
00000100
00010000
,
00001000
00010000
00001000
00100000
,
00010000
01000000
00100000
10000000
,
00010000
10000000
00010000
00100000
,
00001000
00010000
00000100
00001000
,
00000010
00001000
00000010
00000100
,
00000001
00001001
00000000
00000020
,
00000000
00000000
00000000
00000130
,
00000010
00001010
00000000
00000200
,
00000000
00000000
00000000
00010300
,
00001000
00011000
00000000
00200000
,
00000000
00000000
00000000
01300000
,
10000000
10010000
00000000
00200000
,
00000000
00000000
00300000
10010000
;

//---------------dance-single - ----------------
#NOTES:
     dance-single:
     :
     Beginner:
     1:
     0.079072,0.112911,0.030750,0.000000,0.000000,72.000000,68.000000,4.000000,0.000000,0.000000,0.000000,0.079072,0.112911,0.030750,0.000000,0.000000,72.000000,68.000000,4.000000,0.000000,0.000000,0.000000:
// measure 0
0000
0000
0000
0000
,  // measure 1
0000
0000
0000
0000
,  // measure 2
0000
0000
0000
0000
,  // measure 3
0000
0000
0000
0000
,  // measure 4
0010
0000
0000
0000
,  // measure 5
1000
0000
1000
0000
,  // measure 6
0001
0000
0000
0000
,  // measure 7
0100
0000
0100
0000
,  // measure 8
0010
0000
0000
0000
,  // measure 9
1000
0000
1000
0000
,  // measure 10
0001
0000
0000
0000
,  // measure 11
1000
0000
1000
0000
,  // measure 12
0010
0000
0000
0000
,  // measure 13
0000
0000
0000
0000
,  // measure 14
0100
0000
0000
0000
,  // measure 15
0000
0000
1000
0000
,  // measure 16
0000
0000
0001
0000
,  // measure 17
0000
0000
0100
0000
,  // measure 18
0000
0000
0001
0000
,  // measure 19
0000
0000
0010
0000
,  // measure 20
0000
0000
0100
0000
,  // measure 21
0000
0000
0010
0000
,  // measure 22
0000
0000
0001
0000
,  // measure 23
0000
0000
1000
0000
,  // measure 24
1000
0000
0000
0000
,  // measure 25
0001
0000
0100
0000
,  // measure 26
0100
0000
0010
0000
,  // measure 27
0000
0000
1001
0000
,  // measure 28
0000
0000
0000
0000
,  // measure 29
0000
0000
0110
0000
,  // measure 30
0000
0000
0000
0010
,  // measure 31
0000
0000
0000
1000
,  // measure 32
0000
1000
0000
0001
,  // measure 33
0000
0000
0000
0100
,  // measure 34
0000
0100
0000
0010
,  // measure 35
0000
0000
0000
1000
,  // measure 36
0000
1000
0000
0001
,  // measure 37
0000
0000
0000
0010
,  // measure 38
0000
0010
0000
1001
,  // measure 39
0000
0000
0000
0010
,  // measure 40
0000
0000
0000
0100
,  // measure 41
0000
0000
0000
0010
,  // measure 42
0000
0000
0000
1000
,  // measure 43
0000
0000
0000
0001
,  // measure 44
0000
0000
0000
0100
,  // measure 45
0000
0000
0000
0010
,  // measure 46
0000
0100
0000
0010
,  // measure 47
0000
0000
0000
1000
,  // measure 48
0000
0000
0000
0001
,  // measure 49
0000
0000
0000
0010
,  // measure 50
0000
0000
0000
0001
,  // measure 51
0000
0000
0000
1000
,  // measure 52
0000
1000
0000
1000
,  // measure 53
0000
0000
0000
0001
,  // measure 54
0000
0001
0000
0001
,  // measure 55
0000
0000
0000
0100
,  // measure 56
0000
0100
0000
0100
,  // measure 57
0000
0000
0000
0010
,  // measure 58
0000
0010
0000
0110
;
