#TITLE:Skybreaker;
#SUBTITLE:;
#ARTIST:Razihel;
#TITLETRANSLIT:;
#SUBTITLETRANSLIT:;
#ARTISTTRANSLIT:;
#GENRE:;
#CREDIT:;
#BANNER:Skybreaker-bn.png;
#BACKGROUND:Skybreaker-bg.png;
#LYRICSPATH:;
#CDTITLE:loodeecdtitle.png;
#MUSIC:Skybreaker.ogg;
#OFFSET:-0.777;
#SAMPLESTART:58.977;
#SAMPLELENGTH:24.897;
#SELECTABLE:YES;
#DISPLAYBPM:140.000;
#BPMS:0.000=140.000,75.000=280.000,75.500=140.000,75.750=70.000,76.000=140.000,80.750=210.000,83.000=140.000,88.750=210.000,90.000=140.000,96.750=210.000,99.000=140.000,104.750=210.000,106.000=140.000,139.000=280.000,139.500=140.000,139.750=70.000,140.000=140.000,147.000=280.000,147.500=140.000,147.750=70.000,148.000=140.000,154.000=210.000,154.167=140.000,154.333=105.000,154.500=210.000,154.667=140.000,154.833=105.000,155.000=280.000,155.500=140.000,155.750=70.000,156.000=140.000,163.000=210.000,164.000=210.000,165.500=210.000,170.000=140.000,171.000=280.000,171.500=140.000,171.750=70.000,172.000=140.000,179.000=280.000,179.500=140.000,179.750=70.000,180.000=140.000,186.000=210.000,186.167=140.000,186.333=105.000,186.500=210.000,186.667=140.000,186.833=105.000,187.000=280.000,187.500=140.000,187.750=70.000,188.125=140.000,188.250=280.000,188.500=280.000,188.750=140.000,188.875=70.000,189.000=140.000,195.000=210.000,202.000=140.000,203.000=280.000,203.500=140.000,203.750=70.000,204.000=140.000,204.500=280.000,204.750=140.000,204.875=70.000,205.000=140.000,208.500=280.000,208.750=140.000,208.875=70.000,209.000=140.000,211.000=280.000,211.500=140.000,211.750=70.000,212.000=140.000,212.500=280.000,212.750=140.000,212.875=70.000,213.000=140.000,216.500=280.000,216.750=140.000,216.875=70.000,217.000=210.000,217.167=140.000,217.333=105.000,217.500=210.000,217.667=140.000,217.833=105.000,218.000=210.000,218.167=140.000,218.333=105.000,218.500=210.000,218.667=140.000,218.833=105.000,219.000=70.000,219.250=140.000,219.500=280.000,220.500=140.000,220.750=70.000,221.000=140.000,224.500=280.000,224.750=140.000,224.875=70.000,225.000=140.000,227.000=210.000,233.000=140.000,233.250=210.000,234.000=140.000,235.000=280.000,235.500=140.000,235.750=70.000,236.000=140.000,236.500=280.000,236.750=140.000,236.875=70.000,237.000=140.000,240.500=280.000,240.750=140.000,240.875=70.000,241.000=140.000,243.000=280.000,243.500=140.000,243.750=70.000,244.000=140.000,244.500=280.000,244.750=140.000,244.875=70.000,245.000=140.000,248.500=280.000,248.750=140.000,248.875=70.000,249.000=210.000,249.167=140.000,249.333=105.000,249.500=210.000,249.667=140.000,249.833=105.000,250.000=210.000,250.167=140.000,250.333=105.000,250.500=210.000,250.667=140.000,250.833=105.000,251.000=70.000,251.250=140.000,251.500=280.000,252.500=140.000,252.750=70.000,253.000=140.000,256.500=280.000,256.750=140.000,256.875=70.000,257.000=140.000,259.000=210.000,265.000=140.000,265.250=210.000,266.000=140.000;
#STOPS:80.750=0.107
,81.500=0.071
,82.000=0.143
,88.750=0.107
,89.500=0.072
,96.750=0.107
,97.500=0.071
,98.000=0.143
,104.750=0.107
,105.500=0.071
,136.000=0.429
,163.000=0.143
,164.000=0.072
,164.500=0.143
,165.500=0.071
,166.000=0.143
,167.000=0.107
,167.750=0.107
,168.500=0.107
,169.250=0.107
,195.000=0.143
,196.000=0.036
,196.250=0.035
,196.500=0.143
,197.500=0.036
,197.750=0.035
,198.000=0.143
,199.000=0.107
,199.750=0.108
,200.500=0.107
,201.250=0.107
,227.000=0.143
,228.000=0.072
,228.500=0.143
,229.500=0.071
,230.000=0.143
,231.000=0.107
,231.750=0.107
,232.500=0.072
,233.250=0.107
,259.000=0.143
,260.000=0.036
,260.250=0.035
,260.500=0.143
,261.500=0.035
,261.750=0.035
,262.000=0.143
,263.000=0.107
,263.750=0.108
,264.500=0.072
,265.250=0.107
;
#BGCHANGES:;
#KEYSOUNDS:;

//---------------dance-single - Loodee----------------
#NOTES:
     dance-single:
     Loodee:
     Challenge:
     11:
     0.811,0.924,0.246,0.764,0.828:
0000
0000
0000
0000
,
0001
1000
0010
0100
0000
0001
1000
0000
,
0100
0000
0110
0000
,
0001
0000
1001
0000
,
1000
0000
0000
0000
0000
0000
0000
0010
1000
0000
0000
0000
0000
0000
0000
0000
,
0001
1000
0100
0010
0000
0100
1000
0000
,
0010
0000
0110
0000
,
1000
0000
1001
0000
,
0001
0000
0000
0000
0000
0000
0000
0010
0001
0000
0000
0100
0001
1000
0100
0010
,
0100
1000
0001
0100
0000
0010
1000
0000
,
0001
0000
0010
0000
0000
0010
0000
0000
0100
0000
0010
0000
0000
0000
0000
0000
,
0001
0000
0100
0000
0010
0000
1000
0000
0000
0001
0000
0000
0010
0000
0000
0100
,
1000
0000
0010
0000
0000
0010
0000
1000
0001
0000
0010
0010
0001
0000
1000
0000
,
0010
0000
0100
0000
0001
0000
0010
0000
0000
0000
0100
1000
0010
0000
0000
0000
,
0100
0000
0001
0000
0000
0001
0000
0000
0010
0000
0100
0000
0000
0000
0000
0000
,
0001
0000
0100
0000
0010
0000
0100
0000
0000
1000
0000
0000
0010
0000
0000
0000
,
0100
0000
0001
0000
0000
0002
0000
0013
0100
0000
1000
0000
0100
0010
0100
0010
,
0002
0000
0000
0000
,
0000
0000
0000
0000
0000
0000
0000
0000
0000
0000
0000
0000
0203
0000
0000
0300
,
0110
0000
0010
0000
1000
0000
1002
0000
0000
0000
0013
0100
2100
0000
0000
0000
,
0000
0000
0000
3001
0000
0000
0001
0000
0002
0000
0000
0000
2003
0000
0000
3000
,
1010
0000
0010
0000
0100
0000
0101
0000
0000
0001
0000
0000
0021
0000
0000
0000
,
0000
0000
0000
0000
0000
0000
0000
0000
0000
0130
0000
0000
0000
0000
0000
0000
0000
0000
0100
0000
0000
0000
0000
0000
0200
0000
0000
0000
0000
0000
1300
0000
0001
0000
0000
0000
2000
0000
0000
0000
0000
0000
0000
0000
0000
3000
0000
0000
,
1010
0000
0010
0000
0100
0001
2001
0000
0000
0000
3100
0010
0012
0000
0000
0000
,
0000
0000
0000
1003
0000
0000
1000
0000
2000
0000
0000
0000
3020
0000
0000
0030
,
0110
0000
0100
0001
0000
1000
0001
0000
0010
0100
0000
0000
2100
0000
0000
0000
,
0000
0000
0000
0000
0000
0000
0000
0000
0000
3001
0000
0000
0000
0000
0000
0000
0000
0000
0001
0000
0000
0000
0000
0000
0002
0000
0000
0000
0000
0000
0013
0000
0100
0000
1000
0000
0100
0000
0000
0000
0000
0000
1000
0000
0000
0000
0000
0000
,
0001
0001
1000
1000
,
0010
0010
1000
1000
,
0001
0001
0010
0010
,
0100
0100
1000
1000
,
0001
0010
0001
1000
0010
0100
0001
1000
,
0100
1000
0100
0010
0001
0010
0001
1000
,
0010
0000
0000
0100
0000
0000
0001
0000
0000
0100
0000
0000
0010
0000
0000
1000
0000
0000
0100
0000
0000
0010
0000
0000
0100
0000
0000
0010
0000
0000
0001
0000
0000
1000
0000
0000
0001
0000
1000
0000
0010
0000
1000
0000
0001
0000
0010
0000
,
0100
0000
0000
0000
1000
0010
0100
0001
1000
0100
1000
0100
0020
0000
0000
0000
,
0031
0000
0000
0000
0200
0000
0000
0000
0310
0000
1000
0000
0010
0000
1000
0000
0010
1000
0010
0000
0100
0000
0001
0000
0010
0000
0000
0000
0100
0000
1000
0000
,
0100
0000
1000
0000
0000
0000
0000
0000
0010
0000
1000
0000
0100
0000
1000
0000
0001
1000
0001
0000
1000
0000
0010
0000
0200
0000
0000
0000
0000
0000
0000
0000
,
0310
0000
0000
0000
2000
0000
0000
0000
3001
0010
0001
0000
0010
0000
0001
0000
0010
0001
0010
0000
0100
0000
1000
0000
0010
0000
0000
0000
1000
0000
0001
0000
,
1000
0001
0000
0000
0100
0001
1000
0001
0040
0000
0000
0000
0230
0000
0000
0000
,
0310
0000
0000
0000
0002
0000
0000
0000
1003
0000
0001
0000
1000
0000
0001
0000
1000
0001
1000
0000
0010
0000
1000
0000
0100
0000
0000
0000
0010
0000
0001
0000
,
0010
0000
0001
0000
0000
0000
0000
0000
0100
0000
0001
0000
0010
0000
0001
0000
1000
0001
1000
0000
0001
0000
0100
0000
0020
0000
0000
0000
0030
0000
0000
0000
,
0010
0000
2000
0000
3000
0000
0100
0000
0020
0000
0030
0000
0220
0000
0330
2200
,
0000
3300
2002
0000
3003
0202
0000
0303
0002
0000
1000
0000
0023
0000
0000
0000
,
0130
0000
0000
0000
2000
0000
0000
0000
3001
0000
0010
0000
0100
0000
0010
0000
0001
1000
0001
0000
0010
0000
0001
0000
0100
0000
0000
0000
0010
0000
1000
0000
,
0001
0000
1000
0000
0000
0000
0000
0000
0010
0000
1000
0000
0001
0000
0010
0000
0100
1000
0100
0000
0010
0000
0001
0000
0200
0000
0000
0000
0000
0000
0000
0000
,
0310
0000
0000
0000
2000
0000
0000
0000
3001
0010
0001
0000
0010
0000
0100
0000
1000
0001
1000
0000
0010
0000
1000
0000
0001
0000
0000
0000
0010
0000
0100
0000
,
0010
0001
0000
0000
0010
0100
0010
0001
0400
0000
0000
0000
0320
0000
0000
0000
,
2030
0000
0000
0000
0000
0000
0000
0000
3010
0000
0100
0000
0001
0000
0010
0000
0100
1000
0100
0000
0010
0000
0001
0000
0100
0000
0000
0000
0001
0000
1000
0000
,
0001
0000
0010
0000
0000
0000
0000
0000
0001
0000
0100
0000
0010
0000
1000
0000
0001
0100
0001
0000
1000
0000
0100
0000
0020
0000
0000
0000
0030
0000
0000
0000
,
0100
0010
0002
0000
0003
0000
1000
0010
0200
0000
0300
0000
0202
0000
0303
2020
,
0000
3030
2002
0000
3003
0022
0000
0033
2000
0000
0001
0000
3200
0000
0000
0000
,
0310
0001
0200
0000
0310
1000
0001
1000
0010
0100
1000
0100
0010
0100
1000
0100
,
0010
0000
0100
0000
0002
0000
0000
0000
0013
0000
0100
0000
1000
0000
0100
0000
0010
0001
0010
0000
0001
0000
1000
0000
0020
0000
0000
0000
0000
0000
0000
0000
,
0130
0001
0020
0000
0130
1000
0001
0010
0100
0010
1000
0010
0100
0010
1000
0010
,
0100
0010
0002
0000
4003
0000
3040
0000
0000
0000
0000
0000
0230
0000
0000
0000
,
0002
0000
0000
0300
1003
0001
1000
0100
0010
0100
0001
0100
0010
0100
0001
0100
,
0010
0000
0100
0000
2000
0000
0000
0000
3001
0100
0001
0000
0100
0000
0010
0000
1000
0100
1000
0000
0100
0000
0010
0000
0002
0000
0000
0000
0003
0000
0000
0000
,
0001
0000
0200
0000
0300
0000
0010
0000
2000
0000
3000
0000
0022
0000
0033
2002
,
0000
3003
2010
0000
3001
0200
0000
0300
0020
0000
1030
0001
0020
0000
0000
0000
,
0031
0100
0020
0000
1030
0001
1000
0010
0100
0010
0001
0010
0100
0010
0001
0010
,
0100
0000
0010
0000
2000
0000
0000
0000
3001
0000
0010
0000
0001
0000
0010
0000
0100
1000
0100
0000
1000
0000
0001
0000
0200
0000
0000
0000
0000
0000
0000
0000
,
0310
1000
0200
0000
0310
0001
1000
0001
0010
0100
0001
0100
0010
0100
0001
0100
,
0010
0100
2000
0000
3004
0000
0403
0000
0000
0000
0000
0000
0320
0000
0000
0000
,
0000
0000
0000
0000
1030
0001
0010
0001
0100
0010
0001
0010
0100
0010
0001
0010
,
0100
0000
0010
0000
2000
0000
0000
0000
3001
1000
0001
0000
0010
0000
0100
0000
1000
0010
1000
0000
0010
0000
0100
0000
0002
0000
0000
0000
0003
0000
0000
0000
,
1000
0100
0020
0000
0030
0000
0100
1000
0002
0000
0003
0000
0202
0000
0303
2020
,
0000
3030
2100
0000
3100
0020
0000
0030
0002
0000
1000
0000
0203
0000
0000
0000
,
0000
0000
0000
0000
,
0300
0000
0000
0000
;
