#TITLE:One More Day;
#SUBTITLE:;
#ARTIST:Afrojack X Jewelz & Sparks;
#TITLETRANSLIT:;
#SUBTITLETRANSLIT:;
#ARTISTTRANSLIT:;
#GENRE:;
#CREDIT:;
#BANNER:;
#BACKGROUND:[STOPS] - One More Day-bg.png;
#LYRICSPATH:;
#CDTITLE:;
#MUSIC:01 - One More Day [Explicit].ogg;
#OFFSET:1.147717;
#SAMPLESTART:37.379910;
#SAMPLELENGTH:15.000000;
#LASTBEATHINT:0.370216;
#SELECTABLE:YES;
#BPMS:0.000000=162.000000
;
#STOPS:104.000000=1.100000,
165.000000=1.120000,
226.000000=1.120000,
287.000000=1.100000
;
#BGCHANGES:;
#KEYSOUNDS:;
#ATTACKS:;

//---------------dance-single - Copied from Blank----------------
#NOTES:
     dance-single:
     Copied from Blank:
     Hard:
     7:
     0.326594,0.469664,0.186484,0.324621,0.000000,331.000000,304.000000,27.000000,47.000000,0.000000,0.000000,0.326594,0.469664,0.186484,0.324621,0.000000,331.000000,304.000000,27.000000,47.000000,0.000000,0.000000:
0000
0000
0000
0000
,
0000
0000
0000
0000
,
0000
0000
0000
0000
,
2000
0000
0000
0000
0001
0000
0000
0001
,
3000
1000
0010
0000
,
0020
0000
0000
0000
0100
0000
0000
0230
,
0000
1000
0001
0000
,
0302
0000
0000
0000
1000
0000
0000
1000
,
0003
0001
0001
0000
0100
0000
0000
0000
,
0020
0000
0000
0000
0100
0000
0000
0230
,
0000
1000
0001
0000
,
0302
0000
0010
0000
1000
0000
0000
1000
,
0003
0001
0001
0000
0100
0000
0000
0000
,
0200
0000
0001
0000
0010
0000
0000
0320
,
0000
0100
0100
0000
0100
0000
0000
0000
,
2030
0000
0010
0000
0001
0000
0000
0001
,
3000
1000
1000
0000
0001
0000
0000
0000
,
2000
0000
0000
0000
0001
0000
0000
3020
,
0000
0100
0100
0000
0001
0000
0000
0000
,
0230
0001
0010
0010
,
0310
1000
0001
0000
1001
0000
0000
0000
,
0002
0010
1000
1000
,
1003
0001
0100
0000
0101
0000
0000
0000
,
0200
1000
0001
0001
,
0301
0100
0010
0000
0110
0000
0000
0000
,
0020
0000
0001
0000
1000
0000
0100
0030
,
0000
2010
0010
0010
,
0010
3100
0100
0100
,
0100
0210
1000
1000
,
1000
2300
0010
0010
,
0010
3002
0010
0010
,
0010
0103
0100
0100
,
0100
0002
0010
0010
,
0010
2003
0010
0010
,
0010
0000
3010
0000
1000
0100
1000
0000
,
1010
0000
0100
0001
0100
0000
0010
0000
,
1000
0100
0010
0000
0001
1000
0001
0000
,
0011
0000
0001
0010
0001
0000
1000
0000
,
0100
1000
0010
0000
1000
0000
1000
0000
,
1000
0000
1000
0010
1000
0010
1000
0010
,
1000
0010
2000
0001
0001
0001
0001
0001
,
0001
0001
3001
0000
1010
0000
1100
0000
,
0100
0010
0100
0010
0000
0001
0100
0010
,
0000
1000
0100
0000
0011
0000
0101
0000
,
0010
1000
0010
1000
0000
0100
0010
0001
,
0000
0001
0100
0000
0110
0000
1001
0000
,
0001
1000
0001
1000
0000
0010
1000
0001
,
0000
0100
0010
0000
1010
0000
1100
0000
,
0001
0100
0010
1000
0100
0010
0001
0100
,
0010
1000
0100
0010
0002
0000
0000
0000
,
0000
0000
0000
0000
,
0000
0000
0203
0000
,
0000
0000
0320
0000
,
0000
0000
2030
0000
,
0000
0000
0000
0000
,
0000
0000
3002
0000
,
0000
0000
0003
0002
,
0000
0203
0000
2300
,
0000
3200
0000
0302
,
0000
2003
0000
3020
,
0000
0032
0000
0023
,
0000
2030
0000
3002
,
0000
0023
0000
2030
,
0000
3200
0000
0302
,
0000
0003
0000
2010
,
0010
0010
0010
0000
3010
0000
1000
0100
,
0010
0000
0011
0000
0001
0100
0201
0000
,
0001
0001
0001
0000
0301
0000
0100
0010
,
0100
0000
1010
0000
0010
0100
0001
0000
,
0001
0000
0001
0000
0001
0000
0100
0010
,
0100
0010
0100
0010
0100
0010
0200
0010
,
0010
0010
0010
0010
0010
0010
0310
0000
,
1010
0000
1001
0000
0001
0100
0010
1000
,
0000
1000
0100
0010
0001
0100
0001
0000
,
0101
0000
1010
0000
0001
0010
0100
1000
,
0000
0010
1000
0010
0100
0001
0100
0000
,
0011
0000
1100
0000
0010
0100
1000
0001
,
0000
1000
0001
0100
0010
0100
0001
0000
,
0110
0000
1001
0000
0001
0100
0010
1000
,
0200
0000
0000
0000
,
0300
0000
0000
0000
;

//---------------dance-single - ----------------
#NOTES:
     dance-single:
     :
     Medium:
     5:
     0.267393,0.354665,0.103602,0.393689,0.000000,271.000000,256.000000,15.000000,57.000000,0.000000,0.000000,0.267393,0.354665,0.103602,0.393689,0.000000,271.000000,256.000000,15.000000,57.000000,0.000000,0.000000:
0000
0000
0000
0000
,
0000
0000
0000
0000
,
0000
0000
0000
0000
,
2000
0000
0000
0000
0001
0000
0000
0001
,
3000
0001
0101
0000
,
0200
0000
0000
0000
0010
0000
0000
0010
,
0000
0310
1010
0000
,
0002
0000
0000
0000
0010
0000
0000
0010
,
0003
0001
0011
0000
,
0200
0000
0000
0000
0010
0000
0000
0010
,
0300
0010
0110
0000
,
1000
1000
1001
0001
,
0100
0010
0110
0000
,
0100
0100
0101
0001
,
0100
0010
1010
0000
,
1000
0100
1100
0100
,
0010
0001
1001
0000
,
0001
0100
0101
0001
,
0100
0010
1010
1000
,
0001
0010
0001
0000
2000
0000
0100
0000
,
0010
3100
0110
0000
,
1000
0100
1000
0000
0002
0000
0100
0000
,
0010
0103
1001
0000
,
0010
0100
0010
0000
2000
0000
0001
0000
,
0010
3001
0101
0000
,
0001
1000
0001
0000
1000
0000
0010
0000
,
0020
0100
0100
0100
,
0130
0000
0100
0000
,
0100
0002
1000
1000
,
1003
2000
0001
0001
,
3001
0200
0010
0010
,
0310
0000
0010
0000
,
0010
2000
0100
0100
,
3100
0020
0001
0001
,
0031
1000
1000
0001
,
0001
0100
0100
0010
,
0010
1000
1000
0100
,
0100
0001
0001
0100
,
0100
1000
0100
1000
,
0100
0010
0001
0010
,
0001
0000
0001
1000
0001
1000
0001
1000
,
0001
1000
0001
0000
0200
0000
0310
0000
,
2000
0000
3001
0001
0000
0000
0100
0000
,
0010
0100
0002
1003
,
0020
0000
0130
0100
0000
0000
0001
0000
,
0100
0001
2000
3001
,
0200
0000
0301
0001
0000
0000
1000
0000
,
0100
1000
0020
0130
,
0002
0000
1003
1000
0020
0000
0100
0000
,
0100
0100
0230
0000
,
0000
0000
0320
0000
,
0000
0000
0230
0000
,
0000
0000
0320
0000
,
0000
0000
2030
0000
,
0000
0000
3002
0000
,
0000
0000
2003
0000
,
0000
0000
3000
0002
,
0000
0023
0000
0230
,
0000
2300
0000
3020
,
0000
0230
0000
0302
,
0000
0023
0000
0230
,
0000
2300
0000
3020
,
0000
0230
0000
0302
,
0000
0023
0000
0230
,
0000
2300
0000
3002
,
1000
1000
1003
0000
,
0100
0000
0100
0020
,
0001
0001
0031
2000
,
0100
0100
3100
0002
,
0010
0010
0013
0100
,
0010
0000
0100
0000
0010
0000
0100
0010
,
0100
0010
0100
0010
0100
0010
0100
0000
,
0002
0000
1003
0000
0200
0000
0310
0010
,
0000
0001
1000
0001
,
2000
0000
3100
0000
2000
0000
3010
0010
,
0000
0010
0100
0001
,
0200
0000
0301
0000
0200
0000
0301
0001
,
0000
1000
0100
1000
,
0020
1030
0020
1030
,
0001
0000
0000
0000
;

//---------------dance-single - ----------------
#NOTES:
     dance-single:
     :
     Easy:
     3:
     0.183524,0.272820,0.006907,0.124323,0.000000,186.000000,185.000000,1.000000,18.000000,0.000000,0.000000,0.183524,0.272820,0.006907,0.124323,0.000000,186.000000,185.000000,1.000000,18.000000,0.000000,0.000000:
0000
0000
0000
0000
,
0000
0000
0000
0000
,
0000
0000
0000
0000
,
2000
0000
0001
0000
,
0000
0000
3001
0000
,
0002
0000
1000
0000
,
0000
0000
1003
0000
,
0200
0000
0010
0000
,
0000
0000
0310
0000
,
0020
0000
0100
0000
,
0000
0000
0130
0000
,
0002
0000
0010
0000
,
0000
0000
0013
0000
,
2000
0000
0010
0000
,
0000
0000
3010
0000
,
0200
0000
0010
0000
,
0000
0000
0310
0000
,
0020
0000
0100
0000
,
0000
0000
0130
0000
,
0001
0001
0100
0000
,
0001
0001
0100
0000
,
0010
0010
1000
0010
,
0010
0100
0001
0000
,
1000
1000
0100
0000
,
1000
1000
0100
0000
,
1000
0100
1000
0100
,
0010
0001
0001
0001
,
0001
0000
0000
0000
,
0000
1000
1000
1000
,
1000
0010
0010
0010
,
0010
0100
0100
0100
,
0100
0000
0000
0000
,
0000
0001
0001
0001
,
0001
1000
1000
1000
,
1000
0010
0010
0010
,
0000
0100
0100
0100
,
0000
0001
0001
0001
,
0000
1000
1000
1000
,
0000
1000
0100
0010
,
0001
1000
0100
0010
,
0001
1000
0001
1000
,
0001
1001
0000
0001
,
0000
0001
0000
0001
,
0001
0001
1000
0000
,
1000
0000
1000
1000
,
1000
1000
0000
0010
,
0000
0010
0000
0010
,
0010
0010
0000
0100
,
0000
0100
0001
0100
,
0010
1000
0002
0000
,
0000
0000
0000
0000
,
0000
0000
2003
0000
,
0000
0000
0002
3000
,
0000
0000
2003
0000
,
0000
0000
0000
0000
,
0000
0000
3002
0000
,
0000
0000
0003
0100
,
0000
0100
0000
0100
,
0000
0100
0000
0100
,
0000
0100
0000
0100
,
0000
0100
0000
0100
,
0000
0100
0000
0100
,
0000
0100
0000
0100
,
0000
0100
0000
0100
,
0000
0000
0000
0020
,
0100
0100
0130
0001
,
0001
0001
0001
2000
,
0001
0001
3001
2000
,
0010
0010
3010
2000
,
0100
0100
3100
0010
,
0000
0001
0000
0200
,
0000
0000
0000
0310
,
0010
0000
0010
0010
,
1000
0000
0001
0001
,
1000
1000
0001
0000
,
1000
1000
0010
0010
,
0100
0000
0100
0000
,
0100
0100
0001
0001
,
0100
0000
0100
0000
,
0010
0000
0000
0000
;

//---------------dance-single - Copied from----------------
#NOTES:
     dance-single:
     Copied from:
     Beginner:
     2:
     0.127283,0.245538,0.000000,0.006907,0.000000,129.000000,129.000000,0.000000,1.000000,0.000000,0.000000,0.127283,0.245538,0.000000,0.006907,0.000000,129.000000,129.000000,0.000000,1.000000,0.000000,0.000000:
0000
0000
0000
0000
,
0000
0000
0000
0000
,
0000
0000
0000
0000
,
1000
0000
0000
0000
,
0000
0000
0000
0000
,
0001
0000
0000
0000
,
0100
0000
0000
0000
,
0010
0000
0000
0000
,
0000
0000
0000
0000
,
0100
0000
0000
0000
,
0100
0000
0000
0000
,
0001
0000
0000
0000
,
0000
0000
0000
0000
,
1000
0000
0000
0000
,
0010
0000
0000
0000
,
0100
0000
0000
0000
,
0000
0000
0100
0000
,
0000
0000
0010
0000
,
0000
0000
0010
0000
,
0010
0010
0010
0000
,
0000
0000
0010
0000
,
0100
0100
0100
0000
,
0100
0000
0100
0000
,
0010
0010
0010
0000
,
0010
0000
0010
0000
,
0001
0001
0001
0000
,
0000
1000
0000
0000
,
0000
0010
0010
0010
,
0000
0100
0000
0000
,
0000
0100
0000
0000
,
0000
0001
0000
0000
,
0000
1000
1000
1000
,
0000
0010
0000
0000
,
0000
0010
0000
0000
,
0000
0100
0100
0100
,
0000
0100
0000
0100
,
0000
0100
0100
0100
,
0000
0001
0000
0001
,
0000
1000
0000
0001
,
0000
1000
1000
1000
,
0001
0001
0001
1000
,
1000
0001
0000
0100
,
0000
0100
0000
0100
,
0100
0100
0001
0000
,
0001
0000
0001
0001
,
0001
0000
1000
0000
,
1000
0000
1000
1000
,
1000
0000
0010
0000
,
0010
0000
0020
0000
,
0000
0000
0030
0000
,
0000
0000
0000
0000
,
0000
0000
0000
0000
,
0000
0000
0000
0000
,
0000
0000
0000
0000
,
0000
0000
0000
0000
,
0000
0000
0000
0000
,
0000
0000
0000
0001
,
0000
0001
0000
0001
,
0000
0001
0000
0001
,
0000
0001
0000
0001
,
0000
0001
0000
1000
,
0000
1000
0000
1000
,
0000
1000
0000
1000
,
0000
1000
0000
1000
,
0000
0000
0000
1000
,
1000
1000
0000
0001
,
0000
0001
0000
0100
,
0100
0100
0000
0100
,
0000
0100
0000
0010
,
0000
0010
0000
0001
,
0000
0001
0000
0010
,
0000
0000
0000
0000
,
1000
0000
1000
0000
,
0001
0001
0001
0000
,
0100
0000
0100
0000
,
0001
0001
0001
0000
,
0010
0000
0010
0000
,
0100
0100
0100
0000
,
0010
0000
0010
0000
,
0001
0000
0000
0000
;
