#VERSION:0.83;
#TITLE:Meikyoushisui (Clear and Serene);
#SUBTITLE:;
#ARTIST:TOMOSUKE feat. Asaki;
#TITLETRANSLIT:;
#SUBTITLETRANSLIT:;
#ARTISTTRANSLIT:;
#GENRE:;
#ORIGIN:;
#CREDIT:;
#BANNER:;
#BACKGROUND:;
#PREVIEWVID:;
#JACKET:;
#CDIMAGE:;
#DISCIMAGE:;
#LYRICSPATH:;
#CDTITLE:;
#MUSIC:Meikyoushisui.mp3;
#OFFSET:-0.320000;
#SAMPLESTART:19.900000;
#SAMPLELENGTH:13.200000;
#SELECTABLE:YES;
#DISPLAYBPM:290.000000;
#BPMS:0.000=290.000,
545.500=267.000,
547.500=264.000,
549.500=235.000,
553.500=216.000,
557.500=208.000;
#STOPS:4.000=3.040,
208.000=1.330;
#DELAYS:;
#WARPS:;
#TIMESIGNATURES:0.000=4=4;
#TICKCOUNTS:0.000=4;
#COMBOS:0.000=1;
#SPEEDS:0.000=1.000=0.000=0;
#SCROLLS:0.000=1.000;
#FAKES:;
#LABELS:0.000=Song Start;
#BGCHANGES:;
#KEYSOUNDS:;
#ATTACKS:
;

//---------------dance-single - ----------------
#NOTEDATA:;
#CHARTNAME:;
#STEPSTYPE:dance-single;
#DESCRIPTION:;
#CHARTSTYLE:;
#DIFFICULTY:Challenge;
#METER:10;
#RADARVALUES:0.797905,0.947526,0.279655,0.334032,0.003884,719.000000,683.000000,36.000000,43.000000,0.000000,0.000000,0.000000,0.000000,0.000000,0.797905,0.947526,0.279655,0.334032,0.003884,719.000000,683.000000,36.000000,43.000000,0.000000,0.000000,0.000000,0.000000,0.000000;
#CREDIT:;
#DISPLAYBPM:290.000000;
#NOTES:
// measure 0
0000
0000
0000
0000
,  // measure 1
2002
3003
0000
0000
0000
0000
0000
0000
0000
0000
0000
0000
0000
0000
0000
0000
0000
0000
0000
0000
0000
0000
0000
0000
0000
0000
0000
0000
0000
0000
0000
0000
0000
0000
0000
0000
0000
0000
0000
0000
0000
0000
0000
0000
0000
0000
0000
0000
0000
0000
0000
0000
0000
0000
0000
0000
0000
0000
0000
0000
0000
0000
0000
0000
0000
0000
0000
0000
0000
0000
0000
0000
0000
0000
0000
0000
0000
0000
0000
0000
0000
0000
0000
0000
0000
0000
0000
0000
0000
0000
0000
0000
0000
0000
0000
0000
1000
0000
0000
0000
0000
0000
0000
0000
0000
0000
0000
0000
0000
0000
0000
0000
0000
0000
0000
0000
0000
0000
0000
0000
0001
0000
0000
0000
0000
0000
0000
0000
0000
0000
0000
0000
0000
0000
0000
0000
0000
0000
0000
0000
0000
0000
0000
0000
1000
0000
0000
0000
0000
0000
0000
0000
0000
0000
0000
0000
0000
0000
0000
0000
0000
0000
0000
0000
0000
0000
0000
0000
0000
0000
0000
0000
0000
0000
0000
0000
0000
0000
0000
0000
0000
0000
0000
0000
0000
0000
0000
0000
0000
0000
0000
0000
,  // measure 2
0100
0000
1000
0001
0000
0001
0100
0000
,  // measure 3
0010
0000
1000
0100
0000
0100
0010
0000
,  // measure 4
0001
0000
0100
1000
0000
1000
0001
0000
,  // measure 5
0100
0000
0010
1000
0000
1000
0001
0000
,  // measure 6
0100
0000
1000
0001
0000
0001
0100
0000
,  // measure 7
0010
0000
1000
0010
0000
0010
0100
0000
,  // measure 8
0001
0000
1000
0100
0000
0100
0010
0000
,  // measure 9
0001
0000
1000
0001
0000
0001
0100
0000
,  // measure 10
0010
0000
0100
0001
0000
1000
0001
0000
,  // measure 11
0100
0000
0001
0010
0000
0001
1000
0000
,  // measure 12
0100
0000
0010
1000
0000
0001
1000
0000
,  // measure 13
0100
0000
0001
1000
0000
0010
1000
0000
,  // measure 14
0001
0000
0100
0010
0000
1000
0010
0000
,  // measure 15
0001
0000
1000
0100
0000
0001
0100
0000
,  // measure 16
2002
0000
0000
0000
,  // measure 17
0000
0000
0000
3003
,  // measure 18
0220
0000
0000
0000
,  // measure 19
0330
0000
0100
0000
0010
0100
0000
0000
,  // measure 20
1000
0000
0100
0000
0010
1000
0000
0001
,  // measure 21
0100
0000
0001
0000
1000
0001
0000
0100
,  // measure 22
0001
0000
0010
0000
1000
0100
0000
0001
,  // measure 23
0100
0000
0010
0000
1000
0001
0000
0100
,  // measure 24
0010
0000
0001
0000
0100
0001
0000
1000
,  // measure 25
0010
0000
0100
0000
0001
1000
0000
0100
,  // measure 26
0010
0000
0100
0000
0001
0100
0000
1000
,  // measure 27
0010
0100
0010
0000
0010
0100
0001
0000
,  // measure 28
1000
0000
0001
0000
0100
0010
0000
1000
,  // measure 29
0100
0000
0001
0000
0010
0001
0000
1000
,  // measure 30
0100
0000
0010
0000
1000
0001
0000
0100
,  // measure 31
0010
0000
0001
0000
0100
1000
0000
0001
,  // measure 32
0010
0100
1000
0001
,  // measure 33
0101
0000
0000
1010
0000
0000
0101
0000
,  // measure 34
1001
0000
0100
0000
0010
0000
0001
0100
,  // measure 35
0001
0100
0000
0010
0001
0000
0010
1000
,  // measure 36
0001
0000
1000
0100
0001
0100
0010
0100
,  // measure 37
0001
1000
0000
0001
0000
1000
0100
0000
,  // measure 38
0001
0000
0100
0001
1000
0001
0010
0001
,  // measure 39
1000
0100
0000
0001
0000
0010
1000
0000
,  // measure 40
0001
0000
1000
0010
0100
0010
1000
0010
,  // measure 41
0100
0001
0000
1000
0000
0001
0100
0000
,  // measure 42
0001
0000
0010
0100
0001
0100
0001
0100
,  // measure 43
0010
1000
0000
0001
0000
1000
0100
0000
,  // measure 44
1000
0000
0001
0100
0001
1000
0001
0010
,  // measure 45
0001
1000
0000
0010
0000
0100
0001
0000
,  // measure 46
0100
0000
1000
0010
1000
0001
1000
0100
,  // measure 47
1000
0010
0000
0100
0000
0001
1000
0000
,  // measure 48
0001
0000
0100
0001
0100
0010
0100
1000
,  // measure 49
0100
0001
0000
0010
0000
1000
0100
0000
,  // measure 50
0001
0000
0010
1000
0010
0100
0010
0001
,  // measure 51
0010
1000
0100
0000
0001
0000
1000
0000
,  // measure 52
2002
3003
0000
0000
0000
0000
0000
0000
0000
0000
0000
0000
0000
0000
0000
0000
0000
0000
0000
0000
0000
0000
0000
0000
0000
0000
0000
0000
0000
0000
0000
0000
0000
0000
0000
0000
0000
0000
0000
0000
0000
0000
0000
0000
0000
0000
0000
0000
0010
0000
0000
0000
0000
0000
0000
0000
0000
0000
0000
0000
0000
0000
0000
0000
0000
0000
0000
0000
0000
0000
0000
0000
0100
0000
0000
0000
0000
0000
0000
0000
0000
0000
0000
0000
0000
0000
0000
0000
0000
0000
0000
0000
0000
0000
0000
0000
0000
0000
0000
0000
0000
0000
0000
0000
0000
0000
0000
0000
0000
0000
0000
0000
0000
0000
0000
0000
0000
0000
0000
0000
0001
0000
0000
0000
0000
0000
0000
0000
0000
0000
0000
0000
0000
0000
0000
0000
0000
0000
0000
0000
0000
0000
0000
0000
0000
0000
0000
0000
0000
0000
0000
0000
0000
0000
0000
0000
0000
0000
0000
0000
0000
0000
0000
0000
0000
0000
0000
0000
1000
0000
0000
0000
0000
0000
0000
0000
0000
0000
0000
0000
0000
0000
0000
0000
0000
0000
0000
0000
0000
0000
0000
0000
,  // measure 53
0000
0000
0001
0100
0001
0000
1000
0100
,  // measure 54
0000
0001
0100
0001
0000
0010
0000
1000
,  // measure 55
0100
0000
0001
0100
0000
1000
0000
0001
,  // measure 56
0100
0000
1000
0001
0000
0010
0000
1000
,  // measure 57
0100
0000
0001
1000
0000
0010
0000
0100
,  // measure 58
0001
0000
1000
0010
0000
0001
0000
0010
,  // measure 59
0100
0000
1000
0001
0000
0100
0000
1000
,  // measure 60
0100
0000
0001
1000
0000
0010
0000
0001
,  // measure 61
1000
0000
0100
0001
0100
0000
0010
0000
,  // measure 62
1000
0001
0100
0010
0000
0001
0000
1000
,  // measure 63
0100
0000
0001
0100
0000
0010
0000
1000
,  // measure 64
0010
0000
0001
0010
0000
0100
0000
1000
,  // measure 65
0001
0000
0010
0100
0000
0001
0000
1000
,  // measure 66
0001
0000
0001
1000
0000
0010
0000
0100
,  // measure 67
0000
0001
0000
1100
0000
0000
0110
0000
,  // measure 68
0000
0011
0000
1001
0000
1000
0100
0010
,  // measure 69
0001
0100
0010
1000
0001
0100
0010
1000
,  // measure 70
0001
0100
0001
1000
0000
0100
0000
0010
,  // measure 71
0000
0001
1000
0010
0000
0001
0000
0100
,  // measure 72
0000
0010
0000
0001
0000
0100
0000
0010
,  // measure 73
0000
1000
0001
1000
0010
0100
0000
0001
,  // measure 74
0100
0000
0010
1000
0000
0001
0000
0100
,  // measure 75
0000
0010
0001
1000
0000
0100
0000
0001
,  // measure 76
0000
1000
0000
0010
0100
0000
0001
0100
,  // measure 77
0000
0010
0001
0010
0100
0001
0000
1000
,  // measure 78
0010
0000
0100
0001
0000
1000
0000
0100
,  // measure 79
0000
0010
1000
0001
0000
0100
0000
0010
,  // measure 80
0001
1000
0000
0010
0100
0000
0001
1000
,  // measure 81
0000
0100
0001
0010
0001
1000
0000
0010
,  // measure 82
0001
0000
1000
0100
0000
0001
0000
1000
,  // measure 83
0000
0100
1000
0010
0000
0100
0000
0001
,  // measure 84
0000
1000
0000
0001
0100
0000
1000
0001
,  // measure 85
0000
0100
0001
0010
0001
0000
1000
0100
,  // measure 86
0000
1000
0000
1001
0000
0001
0000
0100
,  // measure 87
0010
0000
1000
0000
0010
0000
0100
0001
,  // measure 88
0010
0001
1000
0100
0001
1000
0000
0010
,  // measure 89
0100
0001
0000
0100
1000
0010
0100
0001
,  // measure 90
0000
0100
0000
0010
0000
0100
0000
0001
,  // measure 91
0100
0000
0001
1000
0100
0010
0001
0100
,  // measure 92
0010
1000
0001
0100
0010
0100
0000
0001
,  // measure 93
0010
0000
1000
0001
0000
0100
0010
0000
,  // measure 94
1000
0001
0000
2000
0000
3010
0000
0001
,  // measure 95
0100
0001
2000
0000
0000
3010
0000
0001
,  // measure 96
0100
0001
1000
0001
0100
0020
0000
2030
,  // measure 97
0000
3100
0000
0002
0000
1003
0010
0000
,  // measure 98
0100
0001
0000
2000
0000
3100
0000
0010
,  // measure 99
0100
0001
0200
0000
0000
0310
0000
0001
,  // measure 100
0100
0001
1000
0010
0000
0200
0000
0302
,  // measure 101
0000
0023
0030
2200
3300
0000
0202
0303
,  // measure 102
0000
1000
0000
1000
0100
1000
0100
0010
,  // measure 103
0100
0010
0100
0001
0010
0001
0010
0001
,  // measure 104
1000
0001
1000
0002
0000
0103
0000
0020
,  // measure 105
0000
1030
0000
0200
0000
0301
0000
2000
,  // measure 106
0000
3010
0000
0200
0000
0301
0000
0020
,  // measure 107
0000
0130
0000
0002
0000
1003
0000
0020
,  // measure 108
0000
0130
0000
0200
0000
0001
0000
0310
,  // measure 109
0000
1001
0000
0010
0000
1000
0000
0100
,  // measure 110
0000
0001
0000
0110
0000
1000
0000
0001
,  // measure 111
0100
0000
0000
0010
0001
0100
0001
0000
,  // measure 112
0010
1000
0000
2001
0000
3100
0000
0200
,  // measure 113
0000
0301
0000
0020
0000
1030
0000
0002
,  // measure 114
0000
0103
0000
0020
0000
1030
0000
0200
,  // measure 115
0000
0310
0000
2000
0000
3001
0000
0200
,  // measure 116
0000
0300
0100
0020
0000
1000
0000
1000
,  // measure 117
0000
0100
0000
0100
0000
0001
0000
0001
,  // measure 118
0000
0100
0000
0130
0000
0001
0000
1000
,  // measure 119
0000
0000
0010
0100
0000
0000
1000
0010
,  // measure 120
0000
0100
0000
0101
0000
0000
0101
0000
,  // measure 121
0001
0100
0100
0010
,  // measure 122
1000
0001
0000
0100
0000
0001
0000
0100
,  // measure 123
0001
1000
0001
0100
,  // measure 124
0010
1000
0000
1001
0000
0000
1001
0000
,  // measure 125
0001
1000
1000
0010
,  // measure 126
0100
0001
0000
0100
0000
0001
0100
0000
,  // measure 127
0100
0010
0001
0100
,  // measure 128
1000
0010
0000
0101
0000
0000
0101
0000
,  // measure 129
0001
0010
1000
0100
,  // measure 130
0001
0010
0000
1100
0000
0000
1100
0000
,  // measure 131
0100
0000
0001
0000
1000
0000
0010
0100
,  // measure 132
0010
0100
0000
1001
0000
0000
1001
0000
,  // measure 133
0100
0001
0010
1000
,  // measure 134
0001
1000
0000
1001
0000
0000
1001
0000
,  // measure 135
0010
0000
1000
0100
1000
0100
0010
0100
,  // measure 136
0010
0001
0010
0002
0000
0000
0000
0000
,  // measure 137
0000
0003
0000
1100
0000
0000
0000
0110
,  // measure 138
0000
0000
0000
0011
0000
0000
0000
0110
,  // measure 139
0000
0000
0000
1001
0000
0000
0000
1000
,  // measure 140
0000
0001
0000
2002
0000
0000
0000
0000
,  // measure 141
0000
0000
0000
0000
,  // measure 142
0000
0000
3003
0000
,  // measure 143
0000
0000
0000
0000
0000
0000
1000
0001
1000
0000
0000
0000
0000
0000
0000
0000
;
