#VERSION:0.83;
#TITLE:La La Love;
#SUBTITLE:;
#ARTIST:Ivi Adamou;
#TITLETRANSLIT:;
#SUBTITLETRANSLIT:;
#ARTISTTRANSLIT:;
#GENRE:Eurodance;
#ORIGIN:;
#CREDIT:;
#BANNER:[Stops] - La La Love.png;
#BACKGROUND:[Stops] - La La Love-bg.png;
#PREVIEWVID:;
#JACKET:[Stops] - La La Love-jacket.png;
#CDIMAGE:;
#DISCIMAGE:;
#LYRICSPATH:;
#CDTITLE:cdtitle.png;
#MUSIC:[Stops] - La La Love.ogg;
#OFFSET:-0.629000;
#SAMPLESTART:59.203999;
#SAMPLELENGTH:15.000000;
#SELECTABLE:YES;
#DISPLAYBPM:66.000000:131.000000;
#BPMS:0.000=131.000,
176.000=65.500,
184.000=131.000;
#STOPS:62.000=0.458,
123.000=1.374,
183.750=0.458;
#DELAYS:;
#WARPS:;
#TIMESIGNATURES:0.000=4=4,
184.000=3=4,
187.000=4=4;
#TICKCOUNTS:0.000=4;
#COMBOS:0.000=1;
#SPEEDS:0.000=1.000=0.000=0;
#SCROLLS:0.000=1.000;
#FAKES:;
#LABELS:0.000=Song Start;
#BGCHANGES:-1.500=[Stops] - La La Love.avi=1.000=0=0=0=StretchNoLoop==CrossFade_Fastest==,
99999=-nosongbg-=1.000=0=0=0 // don't automatically add -songbackground-
;
#KEYSOUNDS:;
#ATTACKS:
;

//---------------dance-single - ----------------
#NOTEDATA:;
#CHARTNAME:;
#STEPSTYPE:dance-single;
#DESCRIPTION:;
#CHARTSTYLE:;
#DIFFICULTY:Beginner;
#METER:1;
#RADARVALUES:0.084097,0.127578,0.022935,0.015290,0.000000,77.000000,74.000000,3.000000,2.000000,0.000000,0.000000,0.000000,0.000000,0.000000,0.084097,0.127578,0.022935,0.015290,0.000000,77.000000,74.000000,3.000000,2.000000,0.000000,0.000000,0.000000,0.000000,0.000000;
#CREDIT:;
#NOTES:
0000
0000
0000
0000
,
0000
0000
0000
0000
,
0000
0000
0000
0000
,
0000
0000
0000
0000
,
1000
0000
0000
0000
,
0001
0000
0000
0000
,
1001
0000
0000
0000
,
0000
0000
0000
0000
,
1000
0000
0000
0000
,
0001
0000
0001
0000
,
0001
0000
0000
0000
,
1000
0000
1000
0000
,
1000
0000
0000
0000
,
0010
0000
0000
0000
,
0100
0000
0000
0000
,
0001
0000
0001
0000
,
0000
0000
0000
1000
,
0000
1000
0000
1000
,
0000
0000
0000
0001
,
0000
0001
0000
0001
,
0000
0000
0000
0010
,
0000
0000
0000
0100
,
0000
0000
0000
1000
,
0000
0000
0000
0001
,
0000
0000
0000
0100
,
0000
0000
0000
0010
,
0000
0000
0000
1000
,
0000
0000
0000
0001
,
0000
0000
0000
0010
,
0000
0000
0000
0100
,
0000
0000
0000
1000
,
0000
0000
0001
0000
,
0001
0000
0000
0000
,
1000
0000
1000
0000
,
1000
0000
0000
0000
,
0010
0000
0010
0000
,
0010
0000
0000
0000
,
0100
0000
0100
0000
,
0100
0000
0000
0000
,
0001
0000
0000
0000
,
1000
0000
0000
0000
,
0100
0000
0000
0000
,
0010
0000
0000
0000
,
0001
0000
0000
0000
,
1001
0000
0000
0000
,
0000
0000
0000
0000
,
0000
0000
0000
0100
,
0000
0000
0000
0010
,
0000
0000
0000
1000
,
0000
0000
0000
0001
,
0000
0000
0000
0010
,
0000
0000
0000
0100
,
0000
0000
0000
1000
,
0000
0000
0000
0001
,
0000
0001
0000
0001
,
0000
0000
0000
1000
,
0000
1000
0000
1000
,
0000
0000
0000
0001
,
0000
0001
0000
0001
,
0000
0000
0000
1000
,
0000
1000
0000
1000
,
0000
0000
0000
0100
,
0000
0100
0000
0100
,
0000
0000
0000
0010
,
0000
0010
0000
0010
,
0000
0000
0000
2002
,
0000
0000
0000
3003
;

//---------------dance-single - ----------------
#NOTEDATA:;
#CHARTNAME:;
#STEPSTYPE:dance-single;
#DESCRIPTION:;
#CHARTSTYLE:;
#DIFFICULTY:Easy;
#METER:3;
#RADARVALUES:0.172562,0.255157,0.053516,0.114677,0.000000,158.000000,151.000000,7.000000,15.000000,0.000000,0.000000,0.000000,0.000000,0.000000,0.172562,0.255157,0.053516,0.114677,0.000000,158.000000,151.000000,7.000000,15.000000,0.000000,0.000000,0.000000,0.000000,0.000000;
#CREDIT:;
#NOTES:
0000
0000
0000
0000
,
0000
0000
0000
0000
,
0000
0000
0000
0000
,
0000
0000
0000
0000
,
1000
0000
1000
0000
,
0001
0000
0001
0000
,
1001
0000
0000
0000
,
0000
0000
0000
0000
,
1000
0000
0100
0000
,
1000
1000
1000
0000
,
0001
0000
0010
0000
,
0001
0001
0001
0000
,
2000
0000
3001
0000
,
0002
0000
1003
0000
,
0100
0100
0100
0000
,
0110
0000
1001
0001
,
0000
0100
0000
0001
,
1000
0001
0000
1000
,
0000
0010
0000
1000
,
0001
1000
0000
0002
,
0000
1003
0000
2000
,
0000
3001
0000
0100
,
0100
0100
0000
0010
,
0010
0010
0000
2000
,
0000
3000
0100
0200
,
0000
0300
0010
0020
,
0000
0030
0001
0002
,
0000
0003
1000
1000
,
0000
0100
0000
0010
,
0000
0001
0000
1000
,
0000
0001
0000
1001
,
1000
0100
0010
0001
,
1000
0010
0100
0001
,
1000
0000
0010
0000
,
0100
0000
0001
0000
,
0001
0100
0010
1000
,
0001
0010
0100
1000
,
0001
0000
0010
0000
,
0001
0000
1000
0000
,
0010
0000
0010
0000
,
0010
0000
0100
0000
,
0001
0000
1000
0000
,
1001
0000
0001
0000
,
1000
0000
0010
0000
,
0020
0000
0000
0030
,
0200
0000
0000
0300
,
0000
0000
0000
0001
,
0000
0010
0100
0010
,
0000
0100
1000
0100
,
0000
1000
0000
0001
,
0000
1000
0010
1000
,
0000
0010
0100
0010
,
0000
0100
0001
0100
,
0000
0001
0000
2000
,
0000
0100
3100
0200
,
0000
0010
0310
0020
,
0000
0001
0031
0001
,
1000
1001
0000
0001
,
0010
0100
1000
0001
,
0100
0010
1000
0001
,
0000
0100
0000
0010
,
0000
1000
0000
1000
,
0010
0100
0001
1000
,
0100
0010
0001
1000
,
0000
0100
0000
0010
,
0000
0001
0000
2002
,
0000
0000
0000
3003
;

//---------------dance-single - ----------------
#NOTEDATA:;
#CHARTNAME:;
#STEPSTYPE:dance-single;
#DESCRIPTION:;
#CHARTSTYLE:;
#DIFFICULTY:Medium;
#METER:5;
#RADARVALUES:0.300345,0.357219,0.168193,0.191129,0.064984,275.000000,253.000000,22.000000,25.000000,0.000000,0.000000,0.000000,0.000000,0.000000,0.300345,0.357219,0.168193,0.191129,0.064984,275.000000,253.000000,22.000000,25.000000,0.000000,0.000000,0.000000,0.000000,0.000000;
#CREDIT:;
#NOTES:
0000
0000
0000
0000
,
0000
0000
0000
0000
,
0000
0000
0000
0000
,
0000
0000
0000
0000
,
1000
0000
0001
0000
0100
0010
0100
0000
,
0001
0000
1000
0000
0100
0010
0100
0000
,
2002
0000
0000
0000
,
0000
0000
0000
3003
,
1000
0100
0010
0001
,
0100
0010
2002
3003
,
0001
0100
0010
1000
,
0100
0000
0000
0100
0000
0000
0100
0000
0000
0000
1000
0000
0001
0000
0000
0000
,
2000
0000
3010
1000
,
0002
0000
0103
0001
,
1000
0010
0100
0001
,
1001
0110
1001
1000
,
0010
0100
0001
1000
,
0001
1001
1000
0001
,
0010
0000
0000
0000
0100
0000
0000
0000
1000
0000
0000
0000
0010
0000
0000
0010
,
0000
0010
0000
1000
0001
0000
2000
0000
,
0100
3100
1000
0002
,
0010
0013
0001
0100
,
1000
0100
0001
0010
,
1000
0010
0001
2000
,
0000
3010
0100
0002
,
0000
0103
0010
0200
,
0000
0301
1000
0020
,
0000
1030
0001
1000
,
0100
0001
0010
1000
,
0010
0000
0001
0000
0100
0000
1000
0010
,
1000
0000
0001
0100
0001
0000
1001
0000
,
1000
0000
0000
1000
0000
0000
1000
0000
0000
0000
0100
0000
0010
0000
0000
0000
,
0001
0000
0000
0001
0000
0000
0001
0000
0000
0000
0010
0000
0100
0000
0000
0000
,
1000
0000
0000
1000
0000
0000
1000
0000
0000
0000
0001
0000
1000
0000
0001
0000
,
0010
0000
0000
0010
0000
0000
0010
0000
0000
0000
0100
0000
0000
0000
1000
0000
,
0001
0000
0000
0001
0000
0000
0001
0000
0000
0000
0100
0000
0010
0000
0000
0000
,
1000
0000
0000
1000
0000
0000
1000
0000
0000
0000
0010
0000
0100
0000
0000
0000
,
0001
0000
0000
0001
0000
0000
0001
0000
0000
0000
1000
0000
0001
0000
0000
0000
,
0011
0011
0001
1000
,
1010
1010
0010
0100
,
0101
0101
0001
1000
,
1100
1100
0100
0010
,
0002
0100
0100
1003
,
2000
0010
0010
3001
,
2002
0000
0000
3003
,
0220
0000
0000
0330
,
1001
1000
0010
0100
,
0100
0001
0010
0100
,
0100
1000
0010
0100
,
0100
0001
1000
0001
,
0001
0100
0010
1000
,
1000
0000
0100
0000
0010
0000
0001
0100
,
0001
0000
1000
0010
1000
0000
0001
0000
,
0100
0010
1000
0002
,
0010
0010
0013
0020
,
0100
0100
0130
0200
,
1000
1000
1300
1001
,
0110
0000
0000
0000
2002
0000
0000
0000
3003
0000
0000
0000
0001
0000
0000
0001
,
0000
0000
0001
0000
0000
0000
0010
0000
0100
0000
0000
0000
1000
0000
0000
1000
,
0000
0000
1000
0000
0000
0000
0100
0000
0010
0000
0000
0000
0001
0000
0000
0001
,
0000
0000
0001
0000
0000
0000
1000
0000
0001
0000
1000
0000
0100
0000
0000
0100
,
0000
0000
0100
0000
0000
0000
0010
0000
0000
0000
0001
0000
1000
0000
0000
1000
,
0000
0000
1000
0000
0000
0000
0010
0000
0100
0000
0000
0000
0001
0000
0000
0001
,
0000
0000
0001
0000
0000
0000
0100
0000
0010
0000
0000
0000
1000
0000
0000
1000
,
0000
0000
1000
0000
0000
0000
0001
0000
1000
0000
0001
0000
0100
0000
0000
0100
,
0000
0100
0000
0010
1000
0000
2002
0000
,
0000
0000
0000
3003
;

//---------------dance-single - ----------------
#NOTEDATA:;
#CHARTNAME:;
#STEPSTYPE:dance-single;
#DESCRIPTION:;
#CHARTSTYLE:;
#DIFFICULTY:Hard;
#METER:7;
#RADARVALUES:0.437957,0.510313,0.191129,0.152903,0.210241,401.000000,376.000000,25.000000,20.000000,0.000000,0.000000,0.000000,0.000000,0.000000,0.437957,0.510313,0.191129,0.152903,0.210241,401.000000,376.000000,25.000000,20.000000,0.000000,0.000000,0.000000,0.000000,0.000000;
#CREDIT:;
#NOTES:
// measure 0
0000
0000
0000
0000
,  // measure 1
0000
0000
0000
0000
,  // measure 2
0000
0000
0000
0000
,  // measure 3
0000
0000
0000
0000
,  // measure 4
1000
0000
0000
1000
0000
0000
0010
0000
0000
0000
1000
0000
0001
0000
0100
0000
,  // measure 5
0001
0000
0000
0001
0000
0000
0010
0000
0000
0000
0001
0000
1000
0000
0010
0000
,  // measure 6
2002
0000
0000
0000
,  // measure 7
0000
0000
0000
3003
,  // measure 8
0001
0000
0010
0000
1000
0100
0001
0000
,  // measure 9
1001
0110
2002
3003
,  // measure 10
1000
0000
0010
0000
0001
0100
1000
0000
,  // measure 11
0010
0000
0000
0100
0000
0000
0001
0000
0000
0000
1000
0000
0001
0000
0010
0000
,  // measure 12
0002
0000
0000
0100
0103
0001
1000
0010
,  // measure 13
2000
0000
0000
0100
0000
0000
0100
0000
3100
0000
1000
0000
0001
0000
0010
0000
,  // measure 14
0001
0000
0000
1000
0000
0000
0010
0000
0100
0000
0000
0001
0000
0000
1000
0000
,  // measure 15
1001
0000
0000
0000
0110
0000
0000
0000
1001
0000
0000
0000
0001
0000
0000
0001
,  // measure 16
0000
0000
0100
0000
1000
0000
0000
1000
0000
0000
0010
0000
0001
0000
0000
0000
,  // measure 17
0101
0000
0000
0000
1010
0000
0000
0000
1000
0000
0001
0000
1000
0000
0000
1000
,  // measure 18
0000
0000
0100
0000
0001
0000
0000
0001
0000
0000
0010
0000
1000
0000
0000
0100
,  // measure 19
0000
0000
0010
0000
0001
0000
0000
0100
0000
0000
0010
0000
2000
0000
0000
0001
,  // measure 20
0000
0000
0001
0000
3001
0000
1000
0000
0010
0000
0100
0000
0002
0000
0000
1000
,  // measure 21
0000
0000
1000
0000
1003
0000
0001
0000
0100
0000
0010
0000
1000
0000
0000
1000
,  // measure 22
0000
0000
0010
0000
0001
0000
0000
0001
0000
0000
0010
0000
1000
0000
0000
1000
,  // measure 23
0000
0000
0100
0000
0001
0000
0000
0001
0000
0000
0100
0000
1000
0000
0000
1000
,  // measure 24
0000
0000
0100
0000
0010
0000
0001
0000
0100
0000
1000
0000
0100
0000
0000
0100
,  // measure 25
0000
0000
0001
0000
0010
0000
1000
0000
0010
0000
0001
0000
1000
0000
0000
1000
,  // measure 26
0000
0000
0010
0000
0100
0000
0001
0000
0010
0000
1000
0000
0010
0000
0000
0010
,  // measure 27
0000
0000
0001
0000
1000
0000
0100
0000
0010
0000
0001
0000
1000
0000
0000
0100
,  // measure 28
0000
0000
1000
0000
0010
0000
0001
0000
0010
0000
1000
0000
0001
0000
0000
0010
,  // measure 29
0000
0001
0100
1000
0100
0001
1000
0100
,  // measure 30
0010
0000
0001
0000
1000
0001
1000
0001
1000
0001
1000
0001
1000
0000
0000
0000
,  // measure 31
0001
0000
0000
0001
0000
0000
0001
0000
0010
0000
1000
0000
0010
0000
0001
0000
,  // measure 32
1000
0000
0000
1000
0000
0000
1000
0000
0100
0000
0001
0000
0100
0000
1000
0000
,  // measure 33
0010
0000
0000
0010
0000
0000
0100
0000
0001
0000
0010
0000
1000
0000
0010
0000
,  // measure 34
0001
0000
0000
0100
0000
0000
1000
0000
0100
0000
0001
0000
0010
0000
0100
0000
,  // measure 35
1000
0000
0000
1000
0000
0000
1000
0000
0010
0000
0001
0000
0010
0000
1000
0000
,  // measure 36
0001
0000
0000
0001
0000
0000
0001
0000
0100
0000
1000
0000
0100
0000
0001
0000
,  // measure 37
0010
0000
0000
0010
0000
0000
0100
0000
1000
0000
0001
0000
0100
0000
0001
0000
,  // measure 38
0011
0000
0000
0000
1100
0000
0000
0000
1000
0000
0000
0001
0000
0000
0100
0000
,  // measure 39
0101
0000
0000
0000
1010
0000
0000
0000
1000
0000
0000
0001
1000
0000
0010
0000
,  // measure 40
0100
0000
0000
0000
1001
0000
0000
0000
0001
0000
0000
1000
0001
0000
0010
0000
,  // measure 41
0100
0000
1001
0000
1000
0001
0010
0100
,  // measure 42
0110
0000
0000
0000
1001
0000
0000
0000
1000
0000
0000
0001
1000
0000
0010
0000
,  // measure 43
0100
0000
1001
0000
0001
1000
0100
0010
,  // measure 44
0220
0000
0000
0000
0000
0330
0000
0000
,  // measure 45
2002
0000
0000
0000
0000
0000
0000
0000
0000
0000
3003
0000
0000
0100
0100
0100
,  // measure 46
1001
0000
0000
0000
0001
0000
0100
0000
0010
0000
1000
0000
0001
0000
0000
0001
,  // measure 47
0000
0000
0010
0000
1000
0000
0010
0000
0001
0000
0100
0000
0010
0000
0000
0010
,  // measure 48
0000
0000
1000
0000
0100
0000
0001
0000
0100
0000
1000
0000
0001
0000
0000
0100
,  // measure 49
0000
0000
1000
0000
0100
0000
0001
0000
0010
0000
0100
0000
1000
0000
0000
1000
,  // measure 50
0000
0000
0001
0000
1000
0000
0100
0000
0010
0000
0001
0000
1000
0000
0000
1000
,  // measure 51
0000
0000
0010
0000
0001
0000
0010
0000
1000
0000
0100
0000
0010
0000
0000
0010
,  // measure 52
0000
0001
0100
1000
0100
0001
1000
0100
,  // measure 53
0010
0001
1000
0010
0100
0001
2000
0000
,  // measure 54
0010
3020
0001
0032
,  // measure 55
0100
0203
1000
2300
,  // measure 56
0010
3020
0130
1001
,  // measure 57
0110
0000
0000
0000
1001
0000
0000
0000
0001
0000
0010
0000
0100
0000
0000
0100
,  // measure 58
0000
0000
1000
0000
0010
0000
0001
0000
0100
0000
1000
0000
0010
0000
0000
0010
,  // measure 59
0000
0000
1000
0000
0100
0000
0001
0000
0010
0000
1000
0000
0001
0000
0000
0001
,  // measure 60
0000
0000
1000
0000
0010
0000
0001
0000
1000
0000
0100
0000
0001
0000
0000
0010
,  // measure 61
0000
0000
1000
0000
0001
0000
0100
0000
1000
0000
0010
0000
0100
0000
0000
0100
,  // measure 62
0000
0000
0001
0000
0010
0000
1000
0000
0100
0000
0001
0000
0010
0000
0000
0010
,  // measure 63
0000
0000
0001
0000
0100
0000
1000
0000
0010
0000
0001
0000
1000
0000
0000
1000
,  // measure 64
0000
0000
0001
0000
0010
0000
1000
0000
0001
0000
0100
0000
1000
0000
0000
0010
,  // measure 65
0000
0001
1000
0100
0001
1000
2002
0000
,  // measure 66
0000
0000
0000
3003
;
