#TITLE:LA Hallucinations;
#SUBTITLE:;
#ARTIST:Carly Rae Jepsen;
#TITLETRANSLIT:;
#SUBTITLETRANSLIT:;
#ARTISTTRANSLIT:;
#GENRE:;
#CREDIT:hooky;
#BANNER:[Stops] - LA Hallucinations.png;
#BACKGROUND:[Stops] - LA Hallucinations-bg.png;
#LYRICSPATH:;
#CDTITLE:;
#MUSIC:[Stops] - LA Hallucinations.ogg;
#OFFSET:0.000000;
#SAMPLESTART:33.306000;
#SAMPLELENGTH:15.000000;
#SELECTABLE:YES;
#DISPLAYBPM:90.000000;
#BPMS:0.000000=180.000000
,4.000000=90.000000
;
#STOPS:48.000000=2.000000,
109.000000=2.000000
;
#BGCHANGES:;
#KEYSOUNDS:;
#ATTACKS:;

//---------------dance-single - ----------------
#NOTES:
     dance-single:
     :
     Easy:
     2:
     0.160785,0.229618,0.073938,0.115014,0.000000,137.000000,128.000000,9.000000,14.000000,0.000000,0.000000,0.160785,0.229618,0.073938,0.115014,0.000000,137.000000,128.000000,9.000000,14.000000,0.000000,0.000000:
0000
0000
0000
0000
,
0000
0000
0000
0000
,
0000
0000
0000
0000
,
1000
0000
0001
0000
,
0200
0000
0020
0330
,
0010
0000
1000
0000
,
0001
1000
0001
0001
,
0100
0000
0010
0000
,
1000
0100
1000
0001
,
0200
0310
0020
1030
,
1000
0001
0100
0101
,
0010
0010
1000
0010
,
0100
0010
0100
0010
,
0100
0000
0010
0000
0010
0000
1000
1000
,
1000
0001
0100
0010
,
1010
2000
0000
0100
,
3100
0001
0011
0100
,
0110
0000
0010
0000
1010
0000
0001
0001
,
0001
0100
0010
1000
,
1100
2000
0000
0001
,
3001
0002
0000
0100
,
0103
0200
0000
0010
,
0310
0020
0000
2030
,
0000
3001
1000
0001
,
0100
0001
0000
1000
,
0000
0001
0000
1000
,
0000
0001
0000
0100
,
0000
0110
0010
0000
,
1000
0000
0001
1000
,
0001
0001
0001
0000
0100
0000
0010
0000
,
0100
0100
0002
0000
,
0100
0103
0100
0010
,
1000
1000
0010
0100
,
0010
0010
0010
0000
1000
0000
0001
0000
,
1000
1000
0200
0000
,
0010
0310
0011
0100
,
0000
0110
0100
0001
,
0010
0000
0010
0001
,
1000
0000
1000
0001
,
1000
0000
0010
0000
,
0100
0000
0010
0000
,
1000
0000
0002
0000
,
0000
0000
2000
0000
,
3003
0000
0000
0000
;

//---------------dance-single - ----------------
#NOTES:
     dance-single:
     :
     Beginner:
     1:
     0.078632,0.139660,0.032861,0.000000,0.000000,67.000000,63.000000,4.000000,0.000000,0.000000,0.000000,0.078632,0.139660,0.032861,0.000000,0.000000,67.000000,63.000000,4.000000,0.000000,0.000000,0.000000:
// measure 0
0000
0000
0000
0000
,  // measure 1
0000
0000
0000
0000
,  // measure 2
0000
0000
0000
0000
,  // measure 3
1000
0000
0000
0000
,  // measure 4
0001
0000
0001
0000
,  // measure 5
1001
0000
0100
0000
,  // measure 6
0010
0000
1000
0000
,  // measure 7
0001
0000
1000
0000
,  // measure 8
0001
0000
0000
0000
,  // measure 9
0100
0000
0000
0000
,  // measure 10
0001
0000
0000
0000
,  // measure 11
1000
0000
0000
0000
,  // measure 12
0010
0100
0000
0100
,  // measure 13
0000
0100
0000
0000
,  // measure 14
0000
0001
0000
1000
,  // measure 15
0000
0001
0000
0000
,  // measure 16
0000
0010
0000
0001
,  // measure 17
0000
0100
0000
0000
,  // measure 18
0000
0010
0000
1000
,  // measure 19
0000
0100
0000
0000
,  // measure 20
0000
1000
1000
1000
,  // measure 21
0000
0001
0001
0001
,  // measure 22
0000
1001
0000
0000
,  // measure 23
0000
0100
0000
0100
,  // measure 24
0000
0110
0000
0000
,  // measure 25
0000
0000
0000
0000
,  // measure 26
0000
1000
0000
0001
,  // measure 27
0000
1001
0100
0000
,  // measure 28
0100
0000
0100
0000
,  // measure 29
0000
0000
0001
0000
,  // measure 30
1000
0000
0001
0000
,  // measure 31
0000
0000
0010
0010
,  // measure 32
0010
0000
1000
0000
,  // measure 33
0100
0000
1000
1000
,  // measure 34
1000
0000
0001
0000
,  // measure 35
0100
0000
0001
0000
,  // measure 36
0000
0000
1000
0000
,  // measure 37
0000
0000
0001
0000
,  // measure 38
0000
0000
0100
0000
,  // measure 39
0000
0000
0010
0000
,  // measure 40
0000
0000
1000
0000
,  // measure 41
0000
0000
1000
0000
,  // measure 42
0000
0000
0001
0000
;

//---------------dance-single - ----------------
#NOTES:
     dance-single:
     :
     Challenge:
     8:
     0.536342,0.528347,0.369689,0.057507,0.595610,457.000000,412.000000,45.000000,7.000000,0.000000,0.000000,0.536342,0.528347,0.369689,0.057507,0.595610,457.000000,412.000000,45.000000,7.000000,0.000000,0.000000:
0000
0000
0000
0000
,
0000
0000
0000
0000
,
0000
0000
0000
0000
,
1000
0001
1000
0001
0000
0000
0000
0000
0200
0000
0000
0000
0301
0000
0000
0000
,
0001
0100
1000
0100
0001
0000
0101
0000
0220
0000
0000
0000
0330
0000
0000
0000
,
0010
0010
0010
0010
1000
0100
1000
0010
0100
0000
0100
0000
0011
0000
0001
0100
,
0001
0000
0001
1000
0001
0000
1000
0000
1010
0000
0100
0010
0100
0000
0110
0000
,
0100
0100
0100
0100
0001
0001
0100
0010
0100
1000
0100
0000
0101
0000
0100
0001
,
0010
0000
0001
0010
0001
0000
1000
0001
1000
0010
0100
0001
0010
0001
0010
0001
,
0000
0100
0010
1000
1000
0000
0100
0000
1000
0000
1000
0001
0000
0100
0010
1000
,
0000
1000
0100
1000
0010
0010
0000
0010
0100
0001
0010
0001
0100
0000
0100
0010
,
0000
0010
1000
0100
1000
0000
0001
0000
0100
0000
0010
0100
0000
0001
0000
1001
,
0000
0000
1000
1000
1001
1001
0001
0001
,
0101
0000
0101
0000
1000
0010
0100
0000
0100
0010
0100
0000
0010
0000
0100
0010
,
0000
0000
0100
0001
0100
0001
0100
0000
0101
0000
0010
0001
0010
0000
0001
0100
,
0000
0100
0010
0000
2000
0000
0100
0000
3010
0000
0100
0001
0100
0010
0000
0010
,
1000
0100
1000
0001
1001
1001
0010
1000
,
1010
0000
1010
0000
0001
0100
0010
0000
0010
0100
0010
0000
1000
0000
0010
0100
,
0000
0000
0010
1000
0010
1000
0010
0000
1010
0000
0100
1000
0100
0000
1000
0010
,
0000
0010
0100
0000
0002
0000
0010
0000
0103
0000
0010
1000
0010
0100
0010
0100
,
0001
0100
0000
0000
0010
0000
0010
0000
0110
0000
0000
0000
0100
0000
0100
0000
,
0101
0000
0000
0000
0001
0000
1001
0000
1000
0000
1000
0010
0100
0000
0100
0000
,
0110
0100
0001
0010
0101
0000
0010
1000
,
1000
0001
0100
0001
0000
0010
0001
0100
0001
0010
0001
0100
0010
0000
0010
0000
,
0110
0000
0000
0000
0100
0000
0001
0000
0100
0001
0100
0001
0000
0001
0100
0000
,
0110
0000
0000
0000
0010
0000
1000
1000
0010
0000
0100
0010
0100
0010
1000
0001
,
0100
0000
0000
0000
0001
0001
0001
0001
0001
0001
0001
0001
1000
0000
0000
0001
,
1000
0000
1001
0000
0001
0001
0101
0101
,
1000
1000
1100
1100
1000
1000
1001
1001
,
0001
0000
0100
0001
0000
0000
0100
0001
0010
0001
0100
0000
0101
0000
0001
1000
,
0001
0000
0001
0100
0000
0100
0010
0000
1000
0100
1000
0000
0001
0000
0100
0001
,
0000
0002
0000
0000
1003
0000
0000
0000
1000
0010
1000
0000
1010
0000
1010
0000
,
0001
0010
0001
0000
0011
0000
0011
0000
0001
1000
0001
0000
1001
0000
1001
0000
,
1000
0000
0010
1000
0000
0000
0010
1000
0100
0001
0010
1000
0010
0000
1000
0001
,
1000
0000
1000
0010
0000
0010
0100
0000
0001
0010
0001
0000
1000
0000
0010
1000
,
0000
2000
0000
0001
0000
3001
0000
0000
0001
0100
0001
0100
0001
0100
0001
0010
,
0001
1000
0001
1000
0001
1000
0001
0100
0010
0100
0010
1000
0010
0000
0010
0100
,
0000
0010
1000
0100
1100
0000
1000
0000
0001
0100
0001
0100
0010
0000
0010
0000
,
0100
0010
1000
0100
1000
1000
1000
0001
0000
0100
0001
0010
0001
0100
0001
0100
,
0010
1000
1000
0010
0001
0010
1000
0000
0010
0000
1000
0000
0010
1000
0010
1000
,
0000
1000
0010
0000
0110
0000
0000
0000
0100
0000
0001
0001
0100
0000
0010
0100
,
0010
0100
0001
1000
0010
0000
0100
0000
0110
0000
0000
0110
0000
0000
1010
0000
,
1100
0000
0000
1100
0000
0001
0010
0001
0000
0100
0010
1000
0100
0000
1000
0000
;

//---------------dance-single - ----------------
#NOTES:
     dance-single:
     :
     Hard:
     5:
     0.274626,0.300269,0.262890,0.213598,0.000000,234.000000,202.000000,32.000000,26.000000,0.000000,0.000000,0.274626,0.300269,0.262890,0.213598,0.000000,234.000000,202.000000,32.000000,26.000000,0.000000,0.000000:
0000
0000
0000
0000
,
0000
0000
0000
0000
,
0000
0000
0000
0000
,
1000
1000
0000
0000
0001
0000
0001
0000
,
0200
0010
0020
0330
,
0010
0010
1010
0000
1000
1000
1100
0000
,
0001
1000
0001
0100
0010
0010
0100
0000
,
0001
0001
0011
0000
0100
0100
0101
0000
,
0200
0000
0002
0300
0020
0003
0130
0000
,
1000
1000
0001
0001
0101
0000
1010
0000
,
0010
0100
0001
0000
0010
0010
0010
0000
,
0001
0001
1000
1000
1100
0000
0011
0000
,
0100
0000
0010
0010
0110
0000
0100
0100
,
1100
0000
0100
0100
0101
0000
0001
0001
,
0011
0000
0100
0001
0100
0010
1000
0100
,
1000
1000
0002
0000
0103
0000
0002
0000
,
1003
0000
0100
0100
0110
0000
1000
1000
,
1010
0000
0010
0010
1100
0000
1000
1000
,
1001
0000
0010
1000
0010
0100
0001
0010
,
0001
0001
2000
0000
3010
0000
2000
0001
,
3001
0100
0010
1000
,
1000
0000
0002
0000
0100
0100
0103
0000
,
0101
0001
0010
0100
,
0100
0000
0020
0000
0001
0001
0031
0000
,
0110
0000
1010
0000
,
1100
0000
0011
0000
,
0101
0000
0001
0001
0001
0001
2000
0000
,
0020
3000
0130
0000
0100
0100
0110
0000
,
1000
1000
0011
0000
0010
0010
1010
0000
,
1000
1000
1100
0000
0010
1000
0010
0100
,
0001
0010
0001
0001
2000
0000
3010
0000
,
0200
0010
0310
0000
1000
1000
1001
0000
,
0010
0010
0011
0000
0001
0001
1010
0000
,
0010
0010
0110
0000
0001
0010
0001
1000
,
0001
0001
0100
0100
0020
0000
1030
0000
,
0020
0001
0031
0000
0010
0000
0100
0000
,
0001
0000
0001
0000
2000
0000
0010
0010
,
3010
1010
1000
0100
,
0010
0000
0010
0000
0200
0000
1000
1000
,
1300
0110
0200
0000
,
0002
0300
0020
0003
,
2030
0000
0020
3000
,
0002
0030
0200
0000
,
0303
0000
0000
0000
;

//---------------dance-single - ----------------
#NOTES:
     dance-single:
     :
     Medium:
     4:
     0.217119,0.264944,0.205383,0.164306,0.000000,185.000000,160.000000,25.000000,20.000000,0.000000,0.000000,0.217119,0.264944,0.205383,0.164306,0.000000,185.000000,160.000000,25.000000,20.000000,0.000000,0.000000:
0000
0000
0000
0000
,
0000
0000
0000
0000
,
0000
0000
0000
0000
,
1000
0000
0001
0000
,
0200
0000
0020
0330
,
0010
1000
0010
0010
,
0100
0000
0001
0000
0010
0010
0010
0000
,
0001
1000
0010
1000
,
0200
1000
0010
1300
,
2000
3001
0002
0013
,
0001
0100
0010
0000
0010
0100
0100
0000
,
0200
0301
0002
0013
,
1001
0100
0110
0010
,
1010
0000
1000
0000
1100
0000
0001
0001
,
0001
0000
0100
0100
0100
0000
0110
0000
,
1001
0000
0001
0000
0011
0000
0001
0001
,
0001
0100
0110
0010
,
1010
0000
1000
0000
1100
0000
0100
1000
,
0100
0000
1000
1000
0001
0000
0001
0001
,
0100
0100
0101
0002
,
0013
0010
0011
0100
,
1100
1000
0001
0100
,
0000
0100
0110
0010
,
1010
0000
1000
0000
0002
0100
0103
0000
,
0110
0000
0010
0000
,
0010
0000
0010
0000
,
0010
1000
0001
1000
,
0010
1100
0100
0110
,
0010
1010
1000
1100
,
0001
1000
0001
0000
0100
0000
0101
0000
,
0001
0011
0020
0031
,
0002
0100
0103
0000
0100
0000
1010
0000
,
0100
0101
1000
1010
,
0100
0100
0100
0000
1000
0000
0001
0000
,
0100
0100
0100
0000
0020
0000
1030
0000
,
2000
0100
3100
0000
2000
0000
3001
0000
,
0002
0103
0200
0310
,
0020
1030
2000
3001
,
0002
0103
0100
0001
,
0010
0010
0010
0000
0001
0000
0000
0000
,
1000
0000
0001
0000
,
0100
0000
0001
0000
,
0010
0000
0200
0000
,
0300
0000
0000
0000
;
