#VERSION:0.83;
#TITLE:HAT TRICK;
#SUBTITLE:;
#ARTIST:P*Light;
#TITLETRANSLIT:;
#SUBTITLETRANSLIT:;
#ARTISTTRANSLIT:;
#GENRE:Handz Style;
#ORIGIN:;
#CREDIT:;
#BANNER:[Stops] - HAT TRICK.png;
#BACKGROUND:[Stops] - HAT TRICK-bg.png;
#PREVIEWVID:;
#JACKET:[Stops] - HAT TRICK-jacket.png;
#CDIMAGE:;
#DISCIMAGE:;
#LYRICSPATH:;
#CDTITLE:cdtitle.png;
#MUSIC:[Stops] - HAT TRICK.ogg;
#OFFSET:-0.046848;
#SAMPLESTART:40.046848;
#SAMPLELENGTH:12.799999;
#SELECTABLE:YES;
#BPMS:0.000=150.000,
31.000=75.000,
39.000=150.000,
138.000=75.000,
139.000=150.000,
184.000=75.000,
190.000=150.000;
#STOPS:28.000=0.400,
83.000=1.200,
151.000=1.200,
190.000=1.200,
203.000=1.200;
#DELAYS:;
#WARPS:;
#TIMESIGNATURES:0.000=4=4;
#TICKCOUNTS:0.000=4;
#COMBOS:0.000=1;
#SPEEDS:0.000=1.000=0.000=0;
#SCROLLS:0.000=1.000;
#FAKES:;
#LABELS:0.000=Song Start;
#BGCHANGES:;
#KEYSOUNDS:;
#ATTACKS:
;

//---------------dance-single - ----------------
#NOTEDATA:;
#CHARTNAME:09-14;
#STEPSTYPE:dance-single;
#DESCRIPTION:;
#CHARTSTYLE:;
#DIFFICULTY:Challenge;
#METER:9;
#RADARVALUES:0.683527,0.819477,0.590376,0.105739,0.889970,543.000000,476.000000,67.000000,12.000000,36.000000,0.000000,2.000000,0.000000,0.000000,0.683527,0.819477,0.590376,0.105739,0.889970,543.000000,476.000000,67.000000,12.000000,36.000000,0.000000,2.000000,0.000000,0.000000;
#CREDIT:;
#OFFSET:-0.046848;
#BPMS:0.000000=150.000000
,31.000000=75.000000
,39.000000=150.000000
,138.000000=75.000000
,139.000000=150.000000
,184.000000=75.000000
,190.000000=150.000000
;
#STOPS:28.000000=0.400000
,83.000000=1.200000
,151.000000=1.200000
,190.000000=1.200000
,203.000000=1.200000
;
#DELAYS:;
#WARPS:;
#TIMESIGNATURES:0.000000=4=4
;
#TICKCOUNTS:0.000000=4
;
#COMBOS:0.000000=1
;
#SPEEDS:0.000000=1.000000=0.000000=0
;
#SCROLLS:0.000000=1.000000
,182.250000=0.937500
,182.500000=0.875000
,182.750000=0.812500
,183.000000=0.750000
,183.250000=0.687500
,183.500000=0.625000
,183.750000=0.562500
,184.000000=1.000000
;
#FAKES:;
#LABELS:0.000000=Song Start
;
#NOTES:
0000
0000
0000
0000
,
0000
0000
0000
0000
,
0000
0000
0000
0000
,
0000
0000
0000
0000
,
1010
0000
0000
0011
0000
0000
1100
0000
,
0101
0000
0000
1010
0000
0000
0011
0000
,
1000
0010
1000
0100
0000
0000
0001
0010
0001
0100
0000
0000
,
1001
0000
0000
0000
0040
0000
0000
0030
1001
0000
0000
0000
2000
0000
0000
0000
,
0000
3200
0000
0302
,
0000
0000
0000
0000
0023
0000
0000
0000
1030
0000
1001
0000
0001
0010
0000
1001
,
0000
0010
1000
0000
1010
0000
0000
0000
MMMM
0000
0000
0000
1000
0010
0000
1001
,
0000
0010
0001
0000
0011
0000
0000
0000
MMMM
0000
0000
0000
0001
0010
0000
1001
,
0000
0010
1000
0000
1010
0000
0000
0000
MMMM
0000
0000
0000
1000
0010
0000
1001
,
0000
0100
0001
0000
1001
0000
0000
0000
MMMM
0000
0000
0000
0001
0010
0000
0001
,
0000
0010
0100
0000
1000
0010
0000
1000
0000
0010
0100
0000
0010
1000
0000
0001
,
0000
1000
0100
0000
0110
0000
0000
0000
0010
0000
0001
0000
1001
0000
0000
0000
,
0101
0000
0000
0000
1000
0010
0000
0001
0000
0010
1000
0000
0100
0010
0100
0010
,
0100
0000
1000
0000
1001
0000
0000
0000
MMMM
0000
0000
0000
0101
0000
0000
0010
,
0000
1000
0010
0000
1010
0000
0000
0001
0000
0010
0001
0000
0011
0000
0000
0100
,
0000
1000
0100
0000
1100
0000
0000
0001
0000
0100
0001
0000
1000
0000
0001
0010
,
0001
0000
1000
0010
1000
0000
0001
0010
0001
0000
1000
0010
1000
0000
0000
0000
,
1001
1001
1001
MMMM
,
0001
0010
0000
0100
0000
0010
0001
0000
1000
0010
0000
0100
0000
0010
1000
0000
,
0100
0010
0000
0001
0000
1000
0010
0000
0110
0000
0000
0000
0001
0000
1000
0000
,
1100
0000
0000
0000
0101
0000
0000
0000
0001
0010
0000
1000
0000
0010
0001
0000
,
0100
0010
0100
0010
0100
0000
0010
0000
1001
0000
0000
0000
MMMM
0000
0000
0000
,
1000
0100
0000
0010
0000
0100
1000
0000
0001
0100
0000
0010
0000
0100
0001
0000
,
0010
0100
0000
1000
0000
0001
0100
0000
0110
0000
0000
0000
1000
0000
0010
0000
,
1010
0000
0000
0000
0011
0000
0000
0000
0001
0100
0000
1001
0000
0100
1000
0000
,
2002
0000
0000
3003
0000
0000
0001
1000
0001
1000
0000
0000
,
0001
0010
0000
0100
0000
1000
0001
1000
0010
0000
0001
0000
0010
0000
1000
0000
,
0100
0010
0000
0001
0000
1000
0010
0100
0001
1000
0001
1000
0001
0000
0100
0000
,
0010
1000
0000
0001
0000
1000
0100
1000
0100
1000
0000
0001
0000
1000
0010
1000
,
0001
0010
0001
0010
0001
0000
0100
0000
1001
0000
0000
0000
MMMM
0000
0000
0000
,
1000
0000
0010
0000
0000
0000
1001
0000
0000
0000
0010
0000
0001
0000
0000
0000
1000
0010
0000
1000
0000
0010
1000
0000
0001
0000
0100
0000
0000
0000
1001
0000
,
0000
0100
1000
0000
1001
0000
0000
0000
1000
0000
0010
0000
0101
0000
0000
0011
,
0000
0000
1100
0000
1000
0010
0000
0001
0000
0010
1000
0000
0100
0010
0001
1000
,
0100
0010
2002
0000
3003
0000
0110
0000
,
1100
0000
1100
0020
0001
0000
0001
0000
,
0031
0010
0001
0010
0001
0010
0100
0000
1000
0010
1000
0000
0001
0010
0001
0000
,
1001
0000
0000
0001
0100
0000
1000
0000
0100
0000
0001
0000
1000
0001
1000
0000
,
1001
0000
0000
1000
0100
0000
0001
0000
0100
0000
1000
0000
0001
1000
0001
0000
,
1000
0000
0101
0020
1000
0000
1000
0000
,
1030
0010
1000
0010
1000
0010
0100
0000
0001
0010
0001
0000
1000
0010
1000
0000
,
0001
0010
1000
0010
0001
0100
1000
0100
,
0001
0010
0100
1000
0001
0010
0100
1000
0004
0000
0000
0000
0000
0000
0000
0000
,
1003
0010
0000
1000
0000
0010
1000
0000
0001
0010
0000
0001
0000
0010
0001
0000
1000
0010
0000
0100
0000
0001
1000
0000
0100
0000
0000
0000
0001
0000
0100
0000
,
1000
0000
0000
0000
0010
0000
0000
0000
0001
0010
0000
1000
0000
0100
0010
0000
0110
0000
0000
0000
0000
0000
0000
0000
1100
0000
0000
0000
0000
0000
0010
0000
,
0000
0001
0010
0000
0011
0000
0000
1000
0000
0010
1000
0000
1010
0000
0000
0100
,
0000
0001
0100
0000
0101
0000
0000
1000
0000
0100
1000
0000
0001
0000
1000
0010
,
1000
0000
0001
0010
0001
0000
1000
0010
1000
0000
0001
0010
0001
0000
0000
0000
,
1001
1001
1001
1001
,
0001
0100
0000
0001
0000
0100
0001
0100
0010
1000
0000
0010
0000
1000
0010
1000
,
0001
0010
0000
0001
0000
0010
0001
0010
0100
1000
0100
1000
0001
0000
0000
0000
,
1000
0010
0000
0100
0000
0001
1000
0001
0010
0000
1000
0000
0010
0000
0001
0000
,
0100
0010
0000
1000
0000
0001
0010
0100
1000
0001
1000
0001
1000
0000
0100
0000
,
0010
0001
0000
1000
0000
0001
0100
0001
0100
0001
0000
1000
0000
0001
0010
0001
,
1000
0010
1000
0010
1000
0000
0100
0000
1001
0000
0000
0000
MMMM
0000
0000
0000
,
1000
0010
0000
0100
0000
0010
1000
0000
0001
0010
0000
0100
0000
0010
0001
0000
,
1000
0010
0000
0001
0000
0010
1000
0000
0110
0000
0000
0000
0001
0000
0010
0000
,
1100
0000
0000
1010
0000
0000
0101
0000
0001
0010
0000
1000
0000
0010
0001
0000
,
0100
0010
1000
0001
0100
0000
0010
0000
2002
0000
0000
0000
3003
0000
0000
0000
,
0110
0000
0000
0000
;

//---------------dance-single - ----------------
#NOTEDATA:;
#CHARTNAME:08-11;
#STEPSTYPE:dance-single;
#DESCRIPTION:;
#CHARTSTYLE:;
#DIFFICULTY:Hard;
#METER:8;
#RADARVALUES:0.493449,0.628266,0.449391,0.132174,0.308405,392.000000,341.000000,51.000000,15.000000,0.000000,0.000000,2.000000,0.000000,0.000000,0.493449,0.628266,0.449391,0.132174,0.308405,392.000000,341.000000,51.000000,15.000000,0.000000,0.000000,2.000000,0.000000,0.000000;
#CREDIT:;
#OFFSET:-0.046848;
#BPMS:0.000000=150.000000
,31.000000=75.000000
,39.000000=150.000000
,138.000000=75.000000
,139.000000=150.000000
,184.000000=75.000000
,190.000000=150.000000
;
#STOPS:28.000000=0.400000
,83.000000=1.200000
,151.000000=1.200000
,190.000000=1.200000
,203.000000=1.200000
;
#DELAYS:;
#WARPS:;
#TIMESIGNATURES:0.000000=4=4
;
#TICKCOUNTS:0.000000=4
;
#COMBOS:0.000000=1
;
#SPEEDS:0.000000=1.000000=0.000000=0
;
#SCROLLS:0.000000=1.000000
,182.250000=0.937500
,182.500000=0.875000
,182.750000=0.812500
,183.000000=0.750000
,183.250000=0.687500
,183.500000=0.625000
,183.750000=0.562500
,184.000000=1.000000
;
#FAKES:;
#LABELS:0.000000=Song Start
;
#NOTES:
0000
0000
0000
0000
,
0000
0000
0000
0000
,
0000
0000
0000
0000
,
0000
0000
0000
0000
,
1100
0000
0000
0110
0000
0000
0011
0000
,
0101
0000
0000
0110
0000
0000
1010
0000
,
0001
0010
0001
0010
0000
0000
1000
0010
1000
0010
0000
0000
,
1001
0000
0110
0002
,
0000
0203
0000
2300
,
0000
0000
0000
0000
3020
0000
0000
0000
0031
0000
1001
0000
1000
0010
0000
1000
,
0000
0010
1000
0000
0001
0000
0000
0000
0000
0000
0000
0000
0001
0100
0000
0001
,
0000
0100
0001
0000
1000
0000
0000
0000
0000
0000
0000
0000
1000
0100
0000
1000
,
0000
0100
1000
0000
0001
0000
0000
0000
0000
0000
0000
0000
0001
0010
0000
0001
,
0000
0010
0001
0000
1000
0000
0000
0000
0000
0000
0000
0000
1000
0000
0000
0010
,
0000
0000
0100
0000
0001
0000
0000
0010
0000
0000
0100
0000
1000
0000
0000
0010
,
0000
1000
0100
0000
0001
0100
1000
0000
,
0010
0000
0000
0000
0001
0000
0000
0010
0000
0000
1000
0000
0100
0000
0010
0000
,
0001
0000
0100
0000
0020
0000
0000
0000
0030
0000
0000
0000
1010
0000
0000
0001
,
0000
0000
0001
0000
0011
0000
0000
1000
0000
0000
1000
0000
1100
0000
0000
0001
,
0000
0000
0001
0000
0101
0000
0000
1000
0000
0000
1000
0000
1100
0000
0000
0000
,
0011
0101
1010
1001
,
1001
1001
1001
0110
,
0001
0000
0000
0010
0000
0000
0100
0000
0001
0000
0000
0100
0000
0000
0010
0000
,
0001
0000
0000
0100
0000
0000
0010
0000
1000
0000
0000
0000
0001
0000
0100
0000
,
1000
0000
0000
0000
0100
0000
0000
0000
0001
0000
0000
0010
0000
0000
1000
0000
,
0010
0001
1000
0001
0100
0000
0110
0000
,
1000
0000
0000
0010
0000
0000
0100
0000
1000
0000
0000
0100
0000
0000
0010
0000
,
1000
0000
0000
0100
0000
0000
0010
0000
0001
0000
0000
0000
1000
0000
0100
0000
,
0001
0000
0000
0000
0100
0000
0000
0000
1000
0010
0000
1000
0000
0010
1000
0000
,
0200
0000
0000
0300
0000
0000
1000
0001
1000
0001
0000
0000
,
1000
0000
0000
0010
0000
0000
0100
0000
0001
0000
1000
0000
0001
0000
0010
0000
,
0100
0000
0000
0010
0000
0000
0001
0000
0100
0000
1000
0000
0100
0000
0001
0000
,
0010
0000
0000
1000
0000
0000
1000
0000
0010
0000
0000
0001
0000
0000
0001
0000
,
1000
0010
0001
0010
1000
0000
0110
0000
,
0001
0010
0000
0001
0000
0010
0001
0000
2000
0000
0000
0000
3001
0100
0000
0001
,
0000
0100
0001
0000
1000
0000
0000
0000
0001
0000
0010
0000
1100
0000
0000
1001
,
0000
0000
0101
0000
0100
0000
0010
0000
0100
0000
0001
0000
1000
0100
1000
0100
,
1000
0001
0200
0000
0300
0000
1001
0000
,
0001
0000
0001
0200
1000
0000
0010
0000
,
0301
0100
0001
0100
0001
1000
0001
0010
,
0100
0000
0000
0100
0000
0000
0100
0000
0010
0000
0001
0000
1000
0000
0001
0000
,
0100
0000
0000
0100
0000
0000
0100
0000
0010
0000
1000
0000
0001
0000
1000
0000
,
0100
0000
1000
0200
0001
0000
0010
0000
,
1300
0100
1000
0100
1000
0001
1000
0010
,
0100
0100
0001
0001
1000
1000
0100
0100
,
0040
0400
0000
0000
0000
0000
0000
0000
0330
0000
0000
0000
0000
0000
0000
0000
,
0001
0000
0101
0000
1000
0000
1100
0000
0001
0000
1000
0010
0100
0000
0001
0010
,
0100
0000
1001
0000
1000
0010
0001
0010
1000
0000
0000
0000
0011
0000
0000
1000
,
0000
0000
1000
0000
1010
0000
0000
0001
0000
0000
0001
0000
0101
0000
0000
1000
,
0000
0000
1000
0000
1100
0000
0000
0001
0000
0000
0001
0000
0101
0000
0000
0000
,
1010
1100
0011
1001
,
1001
1001
1001
1001
,
0202
0303
2200
3300
,
1000
0010
1000
0010
1000
0001
0010
0000
,
0001
0000
0000
0010
0000
0000
0100
0000
1000
0000
0001
0000
1000
0000
0010
0000
,
0100
0000
0000
0010
0000
0000
1000
0000
0100
0000
0001
0000
0100
0000
1000
0000
,
0010
0000
0000
0001
0000
0000
0001
0000
0010
0000
0000
1000
0000
0000
1000
0000
,
0001
0010
1000
0010
0001
0000
0110
0000
,
1000
0000
0000
0010
0000
0000
0001
0000
1000
0000
0000
0100
0000
0000
0001
0000
,
1000
0000
0000
0100
0000
0000
0010
0000
0001
0000
0000
0000
1000
0000
0010
0000
,
0101
0000
0000
1001
0000
0000
1100
0000
0100
0000
0010
0000
0100
0000
1000
0000
,
0001
0100
0001
0100
0001
0000
1000
0000
0200
0000
0000
0000
0300
0000
0000
0000
,
1001
0000
0000
0000
;

//---------------dance-single - ----------------
#NOTEDATA:;
#CHARTNAME:06-08;
#STEPSTYPE:dance-single;
#DESCRIPTION:;
#CHARTSTYLE:;
#DIFFICULTY:Medium;
#METER:6;
#RADARVALUES:0.407850,0.464370,0.352463,0.176232,0.039652,324.000000,284.000000,40.000000,20.000000,0.000000,0.000000,0.000000,0.000000,0.000000,0.407850,0.464370,0.352463,0.176232,0.039652,324.000000,284.000000,40.000000,20.000000,0.000000,0.000000,0.000000,0.000000,0.000000;
#CREDIT:;
#OFFSET:-0.046848;
#BPMS:0.000000=150.000000
,31.000000=75.000000
,39.000000=150.000000
,183.000000=75.000000
,190.000000=150.000000
;
#STOPS:28.000000=0.400000
,83.000000=1.200000
,152.000000=1.200000
,190.000000=1.200000
,203.000000=1.200000
;
#DELAYS:;
#WARPS:;
#TIMESIGNATURES:0.000000=4=4
;
#TICKCOUNTS:0.000000=4
;
#COMBOS:0.000000=1
;
#SPEEDS:0.000000=1.000000=0.000000=0
;
#SCROLLS:0.000000=1.000000
;
#FAKES:;
#LABELS:0.000000=Song Start
;
#NOTES:
0000
0000
0000
0000
,
0000
0000
0000
0000
,
0000
0000
0000
0000
,
0000
0000
0000
0000
,
1001
0000
0000
0100
0000
0000
0100
0000
,
1001
0000
0000
0010
0000
0000
0010
0000
,
2002
3003
0220
0330
,
1001
0000
0110
2000
,
0000
3200
0000
0320
,
0000
0000
0000
0000
0032
0000
0000
0000
0103
0000
1001
0000
1000
0000
0000
0010
,
0000
0000
1000
0000
0010
0000
0000
0000
0000
0000
0000
0000
0001
0000
0000
0010
,
0000
0000
0001
0000
0010
0000
0000
0000
0000
0000
0000
0000
0001
0000
0000
0100
,
0000
0000
0001
0000
0100
0000
0000
0000
0000
0000
0000
0000
1000
0000
0000
0100
,
0000
1000
0100
0000
0000
0000
1000
0000
,
0001
1000
0100
0000
1000
0001
0100
0000
,
0001
1000
0100
0000
0010
0001
0100
0000
,
1001
0000
0100
1000
0010
0000
1000
0100
,
0010
0001
2000
0000
3000
0000
1010
0000
,
0001
0011
1000
1100
,
0001
0000
0101
0000
1000
0000
0100
0010
,
0100
0010
0100
0010
0100
0010
0100
0000
,
1001
1001
1001
0110
,
0001
0000
0100
0010
1000
0000
0100
0010
,
0001
0000
0100
0010
1000
0000
0100
1000
,
0010
0000
1001
0000
0100
0001
0010
0000
,
0001
0100
0010
1000
0001
0000
0110
0000
,
1000
0000
0100
0010
0001
0000
0100
0010
,
1000
0000
0100
0010
0001
0000
0100
0001
,
0010
0000
0000
0000
1001
0000
0000
0000
0100
0000
0000
1000
0000
0000
0010
0000
,
0100
0001
1000
0000
2002
0000
3003
0000
,
1000
0000
0100
0000
0001
0010
1000
0000
,
0001
0000
0100
0000
1000
0010
0001
0000
,
1000
0010
1000
0000
0001
0010
0001
0000
,
1000
0010
0100
0001
1000
0000
1001
0000
,
0001
0000
0000
0100
0000
0000
0001
0000
1000
0000
0000
0000
0000
0000
0000
0000
,
1000
0000
0000
0100
0000
0000
1000
0000
0001
0000
0000
0000
1000
0000
0010
0000
,
1000
0000
0000
0001
0000
0000
0001
0000
0010
0000
0000
0000
1001
0000
0000
0000
,
1000
0100
0001
0100
2000
0000
3000
0000
,
0110
1000
1000
0010
,
0010
0000
0001
0010
0001
0000
0010
0001
,
0010
0000
1000
0000
1000
0000
0100
0010
,
0100
0000
1000
0000
1000
0000
0010
0100
,
0001
0000
0001
0010
,
0010
0000
1000
0010
1000
0000
0010
1000
,
0010
0001
0100
1000
,
0010
0000
0001
0100
0001
0100
0020
0000
,
1030
0100
1000
0100
0001
1000
0010
0001
,
0100
1000
0100
0001
1001
0000
0011
0000
,
1000
1010
0001
0101
,
1000
0000
1100
0000
0001
0000
0100
0010
,
0100
0010
0100
0010
0100
0010
0100
0000
,
1001
1001
1001
1001
,
2020
3030
0022
0033
,
1100
1001
0202
0303
,
0001
0000
0100
0000
1000
0010
0001
0000
,
1000
0000
0100
0000
0001
0010
1000
0000
,
0001
0010
0001
0000
1000
0010
1000
0000
,
0001
0010
0100
1000
0001
0000
1001
0000
,
1000
0000
0001
0010
1000
0000
1000
0010
,
0001
0000
0100
0010
1000
0000
0001
0010
,
0001
0000
0000
1000
0000
0000
1000
0000
0010
0000
0000
0000
1001
0000
0000
0000
,
0001
0100
1000
0100
0002
0000
0003
0000
,
0110
0000
0000
0000
;

//---------------dance-single - ----------------
#NOTEDATA:;
#CHARTNAME:04-05;
#STEPSTYPE:dance-single;
#DESCRIPTION:;
#CHARTSTYLE:;
#DIFFICULTY:Easy;
#METER:4;
#RADARVALUES:0.308405,0.382423,0.405333,0.414144,0.000000,245.000000,199.000000,46.000000,47.000000,0.000000,0.000000,0.000000,0.000000,0.000000,0.308405,0.382423,0.405333,0.414144,0.000000,245.000000,199.000000,46.000000,47.000000,0.000000,0.000000,0.000000,0.000000,0.000000;
#CREDIT:;
#OFFSET:-0.046848;
#BPMS:0.000000=150.000000
,31.000000=75.000000
,39.000000=150.000000
,183.000000=75.000000
,190.000000=150.000000
;
#STOPS:28.000000=0.400000
,83.000000=1.200000
,152.000000=1.200000
,190.000000=1.200000
,203.000000=1.200000
;
#DELAYS:;
#WARPS:;
#TIMESIGNATURES:0.000000=4=4
;
#TICKCOUNTS:0.000000=4
;
#COMBOS:0.000000=1
;
#SPEEDS:0.000000=1.000000=0.000000=0
;
#SCROLLS:0.000000=1.000000
;
#FAKES:;
#LABELS:0.000000=Song Start
;
#NOTES:
// measure 0
0000
0000
0000
0000
,  // measure 1
0000
0000
0000
0000
,  // measure 2
0000
0000
0000
0000
,  // measure 3
0000
0000
0000
0000
,  // measure 4
1000
0000
0000
1000
0000
0000
1000
0000
,  // measure 5
0001
0000
0000
0001
0000
0000
0001
0000
,  // measure 6
2002
3003
0220
0330
,  // measure 7
1001
0000
0110
0002
,  // measure 8
0000
0203
0000
0320
,  // measure 9
0000
2030
3002
1003
,  // measure 10
0010
1010
0000
0001
,  // measure 11
0010
0011
0000
1000
,  // measure 12
0100
1100
0000
0001
,  // measure 13
0100
0101
0000
1000
,  // measure 14
0010
1000
0010
1000
,  // measure 15
0001
0010
1000
0010
,  // measure 16
0001
0100
0010
1000
,  // measure 17
0001
0020
0030
0022
,  // measure 18
0033
2200
3300
2020
,  // measure 19
3030
0202
0303
0011
,  // measure 20
1100
1010
0101
1001
,  // measure 21
0100
0100
0100
0000
,  // measure 22
0001
0010
0001
0010
,  // measure 23
0001
1000
0001
0100
,  // measure 24
1000
0100
0001
0010
,  // measure 25
0100
1000
0002
0003
,  // measure 26
1000
0010
1000
0010
,  // measure 27
1000
0001
1000
0100
,  // measure 28
0001
0100
1000
0010
,  // measure 29
0220
0330
1001
1001
,  // measure 30
1000
0100
0001
0001
,  // measure 31
1000
0010
0001
0001
,  // measure 32
1000
0010
1000
0010
,  // measure 33
0100
0001
2002
3003
,  // measure 34
0001
0010
0011
0000
,  // measure 35
1000
0010
1010
0001
,  // measure 36
2002
3003
0110
1001
,  // measure 37
0010
0010
2002
0000
,  // measure 38
3003
1000
1000
1000
,  // measure 39
1000
0010
0001
0010
,  // measure 40
1000
0100
0100
0010
,  // measure 41
0001
0100
0100
0010
,  // measure 42
1000
0000
0001
0001
,  // measure 43
0001
0010
1000
0010
,  // measure 44
0001
0100
1000
0010
,  // measure 45
0001
0100
0100
0200
,  // measure 46
0301
0000
1000
0000
0001
1000
0001
0000
,  // measure 47
1000
0100
0010
0001
1001
0000
2020
0000
,  // measure 48
3030
0202
0303
0022
,  // measure 49
0033
2200
3300
1010
,  // measure 50
0101
0011
1100
1001
,  // measure 51
0100
0100
0100
0100
,  // measure 52
2002
3003
0220
0330
,  // measure 53
1001
0110
2002
3003
,  // measure 54
0001
0100
1000
1000
,  // measure 55
0001
0010
1000
1000
,  // measure 56
0001
0010
0001
0010
,  // measure 57
0100
1000
0020
0030
,  // measure 58
1000
0100
0001
0100
,  // measure 59
1000
0010
0100
0001
,  // measure 60
2002
3003
0110
1001
,  // measure 61
0010
0010
2002
0000
,  // measure 62
3003
0000
0000
0000
;

//---------------dance-single - ----------------
#NOTEDATA:;
#CHARTNAME:02-03;
#STEPSTYPE:dance-single;
#DESCRIPTION:;
#CHARTSTYLE:;
#DIFFICULTY:Beginner;
#METER:2;
#RADARVALUES:0.231619,0.425599,0.308405,0.105739,0.000000,184.000000,149.000000,35.000000,12.000000,0.000000,0.000000,0.000000,0.000000,0.000000,0.231619,0.425599,0.308405,0.105739,0.000000,184.000000,149.000000,35.000000,12.000000,0.000000,0.000000,0.000000,0.000000,0.000000;
#CREDIT:;
#OFFSET:-0.046848;
#BPMS:0.000000=150.000000
;
#STOPS:;
#DELAYS:;
#WARPS:;
#TIMESIGNATURES:0.000000=4=4
;
#TICKCOUNTS:0.000000=4
;
#COMBOS:0.000000=1
;
#SPEEDS:0.000000=1.000000=0.000000=0
;
#SCROLLS:0.000000=1.000000
;
#FAKES:;
#LABELS:0.000000=Song Start
;
#NOTES:
0000
0000
0000
0000
,
0000
0000
0000
0000
,
0000
0000
0000
0000
,
0000
0000
0000
0000
,
2000
0000
0000
3000
0000
0000
0000
0000
,
0002
0000
0000
0003
0000
0000
0000
0000
,
1001
0000
0110
0000
,
1001
0000
0000
0000
,
2000
0000
3000
0000
,
0200
0000
0300
0000
,
0020
0000
0030
0000
,
0002
0000
0003
0000
,
1000
1000
1000
0000
,
0001
0001
0001
0000
,
1000
1000
1000
0000
,
0001
0001
0001
0000
,
1000
0000
1000
0000
,
0010
0010
0010
0000
,
0100
0000
0001
0000
,
1000
1000
1000
0000
,
1001
0000
1001
0000
,
1001
0000
1001
0000
,
1001
1001
1001
1001
,
1001
0000
0000
0000
,
0100
0100
0100
0000
,
0001
0000
0001
0000
,
0010
0010
0010
0000
,
0100
0000
1000
0000
,
0010
0010
0010
0000
,
1000
0000
1000
0000
,
0010
0010
0010
0000
,
0100
0000
0001
0000
,
2002
0000
3003
0000
,
1000
1000
1000
0000
,
0100
0100
0100
0000
,
0001
0000
0001
0000
,
0010
0010
0010
0000
,
1000
1000
1000
0000
,
0001
0001
0001
0000
,
1001
0000
0110
0000
,
1001
1001
2002
0000
,
3003
0000
0000
0000
,
1000
0000
1000
0000
,
0001
0000
1000
0000
,
0100
0100
0100
0000
,
0100
0100
0100
0000
,
0000
0001
0001
0000
,
1000
0000
0001
0000
,
0100
0100
0100
0000
,
0100
0100
0100
0000
,
1000
0000
1000
0000
,
0001
0000
0001
0000
,
1000
0000
0001
0000
,
0100
0000
0000
0000
,
1001
0000
1001
0000
,
1001
0000
1001
0000
,
1001
1001
1001
1001
,
1001
0000
0000
0000
,
0010
0010
0010
0010
,
0010
0000
0010
0000
,
1001
1001
1001
0000
,
0001
0001
0001
0000
,
0100
0100
0100
0000
,
1000
0000
1000
0000
,
0010
0010
0010
0000
,
0001
0000
1000
0000
,
0001
0001
0001
0000
,
1001
0000
0110
0000
,
1001
1001
2002
0000
,
3003
0000
0000
0000
;
