#VERSION:0.83;
#TITLE:Dying Galaxies;
#SUBTITLE:;
#ARTIST:The Speed Freak;
#TITLETRANSLIT:;
#SUBTITLETRANSLIT:;
#ARTISTTRANSLIT:;
#GENRE:;
#ORIGIN:;
#CREDIT:;
#BANNER:dyinggalaxies_bn.png;
#BACKGROUND:dyinggalaxies_bg.png;
#PREVIEWVID:;
#JACKET:dyinggalaxies_jacket.png;
#CDIMAGE:;
#DISCIMAGE:;
#LYRICSPATH:;
#CDTITLE:cdtitle.png;
#MUSIC:dyinggalaxies.ogg;
#OFFSET:0.000000;
#SAMPLESTART:82.285713;
#SAMPLELENGTH:18.285713;
#SELECTABLE:YES;
#DISPLAYBPM:210.000000;
#BPMS:0.000=210.000,
160.000=105.000,
180.000=420.000,
213.000=52.500,
223.000=840.000,
249.000=210.000,
361.000=105.000;
#STOPS:180.000=2.143,
223.000=5.001;
#DELAYS:;
#WARPS:;
#TIMESIGNATURES:0.000=4=4;
#TICKCOUNTS:0.000=4;
#COMBOS:0.000=1;
#SPEEDS:0.000=1.000=0.000=0;
#SCROLLS:0.000=1.000;
#FAKES:;
#LABELS:0.000=Song Start;
#BGCHANGES:;
#KEYSOUNDS:;
#ATTACKS:
;

//---------------dance-single - ----------------
#NOTEDATA:;
#CHARTNAME:;
#STEPSTYPE:dance-single;
#DESCRIPTION:;
#CHARTSTYLE:;
#DIFFICULTY:Hard;
#METER:9;
#RADARVALUES:0.555979,0.782094,0.221969,0.466135,0.229368,526.000000,496.000000,30.000000,63.000000,77.000000,0.000000,1.000000,0.000000,0.000000,0.555979,0.782094,0.221969,0.466135,0.229368,526.000000,496.000000,30.000000,63.000000,77.000000,0.000000,1.000000,0.000000,0.000000;
#CREDIT:;
#DISPLAYBPM:210.000000;
#NOTES:
0000
0000
0000
0000
,
0000
0000
0000
0000
,
0000
0000
0000
0000
,
0000
0000
0000
0000
,
0000
0000
0000
0000
,
0000
0000
0000
0000
,
0000
0000
0000
0000
,
0000
0000
0000
0000
,
0011
1001
1100
1000
,
0010
0100
0001
0010
,
0011
0001
0100
0010
,
1000
0100
1000
0010
,
1010
1001
0101
0001
,
0100
0010
1000
0100
,
2100
0000
0000
0000
3001
0002
0000
0000
,
1003
2000
0000
0000
0001
0001
3001
0001
,
1000
0100
1000
0010
0100
0001
0100
0010
,
1000
0100
0010
0001
0010
0001
1000
0010
,
0100
0010
2000
3010
1000
0001
0020
0031
,
0010
0000
0000
0000
0001
1000
0001
1000
0001
0000
0000
0000
0010
0100
0010
0100
,
0010
0100
1000
0100
0010
0001
0100
0010
,
0100
0000
0001
0000
1000
0000
0010
0000
0100
0000
0001
0000
1000
0000
0100
1000
,
0100
0100
0100
0100
,
0200
0000
0320
0000
0001
0001
0031
0000
,
0001
0100
1000
0100
0010
0100
0001
1000
,
0100
0001
0100
0010
0100
1000
0010
1000
,
0002
0000
1000
0000
1003
1000
1000
1000
,
0020
0000
0000
0000
0130
0000
0000
0000
0100
0001
1000
0010
0100
0000
0000
0000
,
0110
0000
0010
1000
0100
1000
0001
0010
,
0001
0000
0100
0000
0010
0000
0100
0001
0100
0000
0001
1000
0100
0000
0000
0000
,
2000
3020
0230
0302
,
1003
0001
1000
0001
1000
0000
0000
0000
0200
0000
0000
0000
0000
0000
0000
0000
,
1300
0100
0010
0100
0001
0100
0010
0001
,
1000
0010
0100
1000
0100
0010
0100
0001
,
1000
0001
0010
0100
0001
0100
0010
0001
,
0100
0010
1000
0010
0001
0010
1000
0100
,
0010
1000
0001
0100
0010
0001
0100
0010
,
1000
0001
0100
1000
0001
0010
1000
0001
,
0010
0100
0001
0100
1000
0010
0100
0001
,
0100
1000
0001
0010
1000
0100
0010
0100
,
1000
0001
0000
0100
0000
0010
0100
0001
0000
1000
0000
0100
0000
0000
0000
0010
,
0001
0100
0000
0010
0000
0100
0010
1000
0000
0100
0000
1000
0100
0000
0000
1000
,
0010
0100
0000
0001
0000
1000
0010
0100
0000
0001
0000
0010
0000
0000
0000
0010
,
0001
0100
0010
0100
0001
1000
0010
0100
0002
0000
0000
0000
0003
0000
0001
0000
,
2000
0000
0000
0000
,
3000
MMMM
0MM0
M00M
,
0000
0000
0000
0000
,
0000
0000
0000
0000
,
0000
0000
0000
0000
,
0000
0000
0000
0000
,
0000
0000
0000
0000
,
0000
0000
0000
0000
,
0000
0000
0000
0000
,
0000
0000
M002
0M00
M0M0
0000
0M00
0MM0
,
MM00
M000
0203
M320
0000
0M0M
0000
MM00
,
003M
0MM0
2002
0MM0
00M0
0M00
3M03
0000
,
0000
0000
0000
0000
,
0000
0000
0000
0000
,
0000
0000
0000
0000
,
0000
0000
000M
0000
00M0
000M
0M00
00M0
,
M000
0M00
000M
M000
00M0
000M
0M00
00M0
,
M000
0M00
000M
M000
00M0
000M
0M00
00M0
,
M000
0M00
0001
0100
1000
0100
0010
1000
,
0100
0001
0100
0010
0001
1000
0010
0001
,
1000
0100
0010
1000
0100
0010
0100
1000
,
0010
0000
0100
0000
0001
0000
0010
0000
1000
0000
0002
0000
0203
0000
0310
0001
,
0100
0200
0310
1000
0010
0001
1000
0100
,
0010
1000
0001
0010
0100
0001
0100
1000
,
0001
1000
0020
0130
0002
0103
2000
3100
,
0020
1030
0200
0310
0002
0203
0320
0230
,
0310
1000
0100
1000
0010
0000
0100
0000
1000
0000
0100
0000
0010
0000
0100
0000
,
0001
0100
0010
1000
0200
0310
0200
0302
,
0203
0320
0130
1000
0010
0100
1000
0001
,
0010
0000
1000
0000
0100
0000
0010
0000
0100
0010
0100
0000
0010
0000
0100
0000
,
1000
0000
0001
0000
0100
0001
0100
0000
0001
0100
0001
0000
0100
0000
0100
0000
,
0010
0010
1000
1000
0001
0001
0010
0010
,
0100
0000
0100
0000
1000
0100
1000
0000
0100
1000
0100
0000
1000
0000
1000
0000
,
0010
0000
0010
0000
0020
0000
0000
0000
2030
0000
0000
0000
3001
0010
0001
0010
,
0001
0000
0011
0001
0100
0010
0110
0010
,
1000
0100
1100
1000
0001
0100
0101
0001
,
0010
0100
0110
0100
1000
0010
1010
1000
,
0010
0100
0010
0010
0010
0010
1000
0001
,
0020
0030
0110
0100
1000
0010
0110
0100
,
0001
0010
0110
0100
1000
0010
0110
0100
,
0040
0000
0000
1030
0000
0100
0000
0010
0000
0011
0000
0001
,
0000
0100
0000
1010
0000
0001
0000
1000
0000
1010
0000
0100
,
0000
0000
0101
0001
0010
0100
0110
0010
,
1000
0010
1010
0010
0001
0100
0101
0001
,
0100
1000
1100
0100
0001
1000
1100
1000
,
0001
0100
0201
0301
0100
0010
2000
3200
,
0320
0000
0032
0000
2003
0000
3200
0000
0020
0030
0002
0003
0320
0000
0032
0000
,
0200
0300
0020
0030
2003
0000
3020
0000
0200
0300
0002
0003
0230
0000
0320
0000
,
0002
0003
2000
3000
0032
0000
0000
0000
0000
0000
0000
0000
0000
0000
0000
0000
,
0000
MMM3
0000
0000
,
0000
0000
0000
0000
,
0000
0000
0000
0000
0000
0000
0000
0000
0000
0000
0000
0000
0000
0000
0000
0000
0000
0000
0000
0000
0000
0000
0000
0000
0000
0000
0000
0000
0000
0000
0000
0000
0000
0000
0000
0000
0000
0000
0000
0000
0000
0000
0000
0000
0000
0000
0000
0000
0000
0000
0000
0000
0000
0000
0000
0000
0000
0000
0000
0000
0000
0000
0000
0000
0000
0000
0000
0000
0000
0000
0000
0000
0000
0000
0000
0000
0000
0000
0000
0000
0000
0000
0000
0000
0000
0000
0000
0000
0000
0000
0000
0000
0000
0000
0000
0000
0000
0000
0000
0000
0000
0000
0000
0000
0000
0000
0000
0000
0000
0000
0000
0000
0000
0000
0000
0000
0000
0000
0000
0000
0000
0000
0000
0000
0000
0000
0000
0000
0000
0000
0000
0000
0000
0000
0000
0000
0000
0000
0000
0000
0000
0000
0000
0000
0MM0
0000
0000
0000
0000
0000
0MM0
0000
0000
0000
0000
0000
0MM0
0000
0000
0000
0000
0000
0MM0
0000
0000
0000
0000
0000
0000
0000
0MM0
0000
0000
0000
0000
0000
0000
0000
0MM0
0000
0000
0000
0000
0000
0000
0000
0MM0
0000
0000
0000
0000
0000
,
0000
0000
0MM0
0000
0000
0000
0000
0000
0000
0000
0MM0
0000
0000
0000
0000
0000
0000
0000
0MM0
0000
0000
0000
0000
0000
0000
0000
0000
0000
0000
0000
0000
0000
0000
0000
0000
0000
0000
0000
0000
0000
0000
0000
0000
0000
0000
0000
0000
0000
0000
0000
0000
0000
0000
0000
0000
0000
0000
0000
0000
0000
0000
0000
0000
0000
0000
0000
0000
0000
0000
0000
0000
0000
0000
0000
0000
0000
0000
0000
0000
0000
0000
0000
0000
0000
0000
0000
0000
0000
0000
0000
0000
0000
0000
0000
0000
0000
0000
0000
0000
0000
0000
0000
0000
0000
0000
0000
0000
0000
0000
0000
0000
0000
0000
0000
0000
0000
0000
0000
0000
0000
0000
0000
0000
0000
0000
0000
0000
0000
0000
0000
0000
0000
0000
0000
0000
0000
0000
0000
0000
0000
0000
0000
0000
0000
0000
0000
0000
0000
0000
0000
0000
0000
0000
0000
0000
0000
0000
0000
0000
0000
0000
0000
0000
0000
0000
0000
0000
0000
0000
0000
0000
0000
0000
0000
0000
0000
0000
0000
0000
0000
0000
0000
0000
0000
0000
0000
0000
0000
0000
0000
0000
0000
;

//---------------dance-single - ----------------
#NOTEDATA:;
#CHARTNAME:;
#STEPSTYPE:dance-single;
#DESCRIPTION:;
#CHARTSTYLE:;
#DIFFICULTY:Easy;
#METER:4;
#RADARVALUES:0.283275,0.482968,0.184974,0.310757,0.000000,268.000000,243.000000,25.000000,42.000000,27.000000,0.000000,0.000000,0.000000,0.000000,0.283275,0.482968,0.184974,0.310757,0.000000,268.000000,243.000000,25.000000,42.000000,27.000000,0.000000,0.000000,0.000000,0.000000;
#CREDIT:;
#DISPLAYBPM:210.000000;
#NOTES:
0000
0000
0000
0000
,
0000
0000
0000
0000
,
0000
0000
0000
0000
,
0000
0000
0000
0000
,
0000
0000
0000
0000
,
0000
0000
0000
0000
,
0000
0000
0000
0000
,
0000
0000
0000
0000
,
2000
0000
3000
0000
,
0002
0000
0103
0000
,
0020
0000
0030
0000
,
0200
0000
0301
0000
,
2000
0000
3000
0000
,
0002
0000
0013
0000
,
0110
0000
0110
0000
,
0110
0000
0000
0000
,
0001
0100
0010
0100
,
0001
1000
0100
1000
,
0001
0200
0310
0200
,
0310
2000
3001
0002
,
1003
0100
1000
0010
,
0100
0001
0010
0001
,
0100
0010
0100
0010
,
0200
0000
0000
0000
,
0301
0100
1000
0100
,
0001
0010
1000
0010
,
0001
0001
0001
2000
,
3020
0000
0130
0100
,
0001
1000
0100
0001
,
0100
0020
0031
1000
,
0001
0100
0010
0100
,
0010
1000
0200
0000
,
1300
1000
0010
0100
,
0001
0001
0010
0001
,
0100
0100
0010
1000
,
0100
0100
0010
0001
,
0010
0010
0001
1000
,
0010
0010
0100
1000
,
0100
0100
0001
0010
,
0100
0100
0001
0100
,
1000
0000
0010
0100
0000
0000
0001
0000
,
1000
0000
0100
0010
0000
0001
1000
0000
,
0010
0000
0100
0001
0000
0000
1000
0000
,
0001
1000
0200
0000
,
0300
0000
0000
0000
,
0000
0000
MMMM
0MM0
M00M
0000
0000
0000
,
0000
0000
0000
0000
,
0000
0000
0000
0000
,
0000
0000
0000
0000
,
0000
0000
0000
0000
,
0000
0000
0000
0000
,
0000
0000
0000
0000
,
0000
0000
0000
0000
,
0000
0002
0000
0000
,
0000
0000
0203
0320
0000
0000
0000
0000
,
0030
2002
0000
3003
,
0000
0000
0000
0000
,
0000
0000
0000
0000
,
0000
0000
0000
0000
,
0000
0000
0000
0000
,
0M00
00M0
0M00
00M0
0M00
00M0
0M00
00M0
,
0M00
00M0
0M00
00M0
0M00
00M0
0M00
00M0
,
0M00
0001
0010
0001
,
1000
0100
0001
0100
,
1000
0010
0100
0001
,
0100
1000
0100
0001
,
0010
0001
1000
0100
,
1000
0100
0001
0100
,
0010
0001
0100
1000
,
0100
0000
0010
0000
1000
0000
0100
0010
,
0100
0010
0100
0000
1000
0000
0010
0000
,
0100
0010
0001
0010
,
0100
0001
0010
0100
,
0001
0000
0100
0000
1000
0000
0010
0100
,
0010
0020
2030
3002
,
0023
0230
0320
0032
,
2003
3020
0230
0302
,
2003
3100
0100
0010
,
0010
0011
0001
0101
,
0100
0110
0010
1010
,
1000
1100
0100
0110
,
0010
0001
0001
1000
,
0010
0110
0100
0101
,
0001
0011
0010
0110
,
0100
1100
0000
0110
,
0000
0011
0000
1001
,
0000
0101
0100
0110
,
0010
1010
1000
1001
,
0001
0011
0010
0110
,
0010
0011
0001
1000
,
0010
2000
3200
0320
,
0032
0203
0320
2030
,
3002
2000
0000
0000
,
0000
3MM3
0000
0000
;

//---------------dance-single - ----------------
#NOTEDATA:;
#CHARTNAME:;
#STEPSTYPE:dance-single;
#DESCRIPTION:;
#CHARTSTYLE:;
#DIFFICULTY:Medium;
#METER:7;
#RADARVALUES:0.375233,0.605328,0.229368,0.318156,0.118383,355.000000,324.000000,31.000000,43.000000,46.000000,0.000000,0.000000,0.000000,0.000000,0.375233,0.605328,0.229368,0.318156,0.118383,355.000000,324.000000,31.000000,43.000000,46.000000,0.000000,0.000000,0.000000,0.000000;
#CREDIT:;
#DISPLAYBPM:210.000000;
#NOTES:
// measure 0
0000
0000
0000
0000
,  // measure 1
0000
0000
0000
0000
,  // measure 2
0000
0000
0000
0000
,  // measure 3
0000
0000
0000
0000
,  // measure 4
0000
0000
0000
0000
,  // measure 5
0000
0000
0000
0000
,  // measure 6
0000
0000
0000
0000
,  // measure 7
0000
0000
0000
0000
,  // measure 8
1000
0100
1000
0010
,  // measure 9
0100
0001
0010
0001
,  // measure 10
0100
0010
1000
0001
,  // measure 11
1000
0100
0010
0001
,  // measure 12
0010
0100
1000
0010
,  // measure 13
0100
0001
0100
0010
,  // measure 14
0110
0000
1001
0000
,  // measure 15
1001
0000
0000
0000
,  // measure 16
0001
1000
0010
0100
,  // measure 17
0001
1000
0100
1000
,  // measure 18
0001
0101
1000
1100
,  // measure 19
0010
0000
1000
0100
0010
0000
0001
0100
,  // measure 20
0010
1000
0100
0001
,  // measure 21
0100
0000
0010
0000
0001
0000
0100
0010
,  // measure 22
0100
0100
0100
0100
,  // measure 23
0200
0020
0000
0330
,  // measure 24
0101
0101
1001
1001
,  // measure 25
1100
1100
1001
1001
,  // measure 26
0001
0000
0100
0000
0010
1000
0100
0000
,  // measure 27
0210
1000
0001
0310
,  // measure 28
0100
1100
0110
0011
,  // measure 29
0101
0000
0110
0000
0001
1000
0001
0000
,  // measure 30
0020
0230
0302
0203
,  // measure 31
1300
0010
0001
0000
0020
0000
0000
0000
,  // measure 32
1030
0000
0100
0000
1000
0100
0010
0000
,  // measure 33
0100
0000
1000
0000
0010
1000
0100
1000
,  // measure 34
0010
0000
0100
0000
0001
0010
0100
0000
,  // measure 35
0010
0000
0001
0000
0100
0001
0010
0001
,  // measure 36
0100
0000
0010
0000
1000
0010
0100
0000
,  // measure 37
0001
0000
0010
0000
0001
0010
0100
1000
,  // measure 38
0100
0000
1000
0000
0010
0100
0001
0000
,  // measure 39
1000
0000
0010
0000
1000
0010
0100
0001
,  // measure 40
1000
0001
0000
0100
0000
0010
0000
1000
0000
0001
0000
1000
0000
0000
0000
1000
,  // measure 41
0100
1000
0000
0100
0000
0010
0000
0001
0000
1000
0000
0010
0000
0000
0000
0010
,  // measure 42
0100
0010
0000
0100
0000
0001
0000
1000
0000
0100
0000
0010
0000
0000
0000
0001
,  // measure 43
1000
0010
0100
0001
0000
0000
0000
1000
,  // measure 44
0002
0000
0000
0000
,  // measure 45
0003
0000
MMMM
0000
0000
0MM0
0000
0000
,  // measure 46
M00M
0000
0000
0000
,  // measure 47
0000
0000
0000
0000
,  // measure 48
0000
0000
0000
0000
,  // measure 49
0000
0000
0000
0000
,  // measure 50
0000
0000
0000
0000
,  // measure 51
0000
0000
0000
0000
,  // measure 52
0000
0000
0000
0000
,  // measure 53
0000
2000
0000
0000
,  // measure 54
0000
0000
3020
0230
0000
0000
0000
0000
,  // measure 55
0300
2002
0000
3003
,  // measure 56
0000
0000
0000
0000
,  // measure 57
0000
0000
0000
0000
,  // measure 58
0000
0000
0000
0000
,  // measure 59
0000
0000
0000
0000
,  // measure 60
M000
000M
M000
000M
M000
000M
M000
000M
,  // measure 61
M000
000M
M000
000M
M000
000M
M000
000M
,  // measure 62
M000
0010
0001
1000
,  // measure 63
0010
0100
0001
0010
,  // measure 64
0100
0000
1000
0010
0100
0000
0001
0000
,  // measure 65
0100
0000
0010
1000
0010
1000
0001
0010
,  // measure 66
0100
1000
0001
0000
1000
0000
0010
0000
,  // measure 67
0001
0000
0010
0000
0100
0000
0010
1000
,  // measure 68
0100
0010
0100
0000
1100
0000
0001
0000
,  // measure 69
0101
0000
0010
0000
1000
0100
0010
0001
,  // measure 70
0100
0010
1000
0000
0010
0000
0100
0000
,  // measure 71
0001
0000
0010
0000
1000
0000
0010
0100
,  // measure 72
1000
0010
0100
0000
0010
0000
0100
0000
,  // measure 73
0001
0000
0100
0010
1000
0000
1010
0000
,  // measure 74
0101
0002
0023
2030
,  // measure 75
3200
2300
3020
0032
,  // measure 76
2003
3020
0032
0203
,  // measure 77
0302
0013
0010
0010
,  // measure 78
0010
0000
0010
0100
0000
0000
0001
0100
,  // measure 79
0000
0000
0010
1000
0000
0000
1000
0001
,  // measure 80
0000
0000
0100
0010
0000
0000
1000
0001
,  // measure 81
0000
0000
0001
0010
0100
0010
0001
0010
,  // measure 82
0100
0000
1000
0100
0000
0000
0100
0001
,  // measure 83
0000
0000
0001
0010
0000
0000
0010
1000
,  // measure 84
0100
0000
0000
1000
0000
0010
0000
0100
0000
0001
0000
0010
,  // measure 85
0000
0100
0000
1000
0000
0001
0000
0100
0000
0010
0000
0100
,  // measure 86
0000
0000
0101
0100
0000
0000
1001
0001
,  // measure 87
0000
0000
1100
1000
0000
0000
1001
0001
,  // measure 88
0010
0000
0110
0100
0000
0000
1100
1000
,  // measure 89
0000
0000
1010
0010
0000
0000
0100
0001
,  // measure 90
0100
0010
0200
0320
2030
3200
0320
0032
,  // measure 91
0203
0320
2030
3020
0032
0203
2300
3002
,  // measure 92
0203
0320
0230
0000
0000
0000
0000
0000
,  // measure 93
0000
M3MM
0000
0000
,  // measure 94
0000
0000
0000
0000
,  // measure 95
0000
0000
0000
0000
0000
0000
0000
0000
0000
0000
0000
0000
0MM0
0MM0
0MM0
0MM0
,  // measure 96
0MM0
0MM0
0MM0
0MM0
0MM0
0000
0000
0000
0000
0000
0000
0000
0000
0000
0000
0000
;
