#VERSION:0.83;
#TITLE:Diamonds;
#SUBTITLE:;
#ARTIST:Afrojack & Jay Karama;
#TITLETRANSLIT:;
#SUBTITLETRANSLIT:;
#ARTISTTRANSLIT:;
#GENRE:;
#ORIGIN:;
#CREDIT:;
#BANNER:Diamonds-bn.png;
#BACKGROUND:Diamonds-bg.png;
#PREVIEWVID:;
#JACKET:Diamonds-jk.png;
#CDIMAGE:;
#DISCIMAGE:;
#LYRICSPATH:;
#CDTITLE:;
#MUSIC:Diamonds.ogg;
#OFFSET:0.000000;
#SAMPLESTART:25.623987;
#SAMPLELENGTH:12.800001;
#SELECTABLE:YES;
#BPMS:0.000=150.000,
60.000=75.000,
62.000=150.000,
63.000=75.000,
69.500=150.000,
71.000=75.000,
77.000=150.000,
80.000=75.000,
86.500=112.500,
88.000=75.000,
95.000=150.000,
190.000=75.000,
204.000=150.000,
236.000=75.000,
238.000=150.000,
239.000=75.000,
245.500=150.000,
247.000=75.000,
253.000=150.000,
256.000=75.000,
263.000=150.000,
264.000=75.000;
#STOPS:62.000=0.400,
69.500=0.200,
70.000=0.200,
70.500=0.200,
77.000=0.050,
77.125=0.050,
77.250=0.050,
77.375=0.050,
77.500=0.050,
77.625=0.050,
77.750=0.050,
77.875=0.050,
86.500=0.400,
181.000=0.400,
238.000=0.400,
245.500=0.200,
246.000=0.100,
246.250=0.100,
246.500=0.200,
253.000=0.050,
253.125=0.050,
253.250=0.050,
253.375=0.050,
253.500=0.050,
253.625=0.050,
253.750=0.050,
253.875=0.050,
263.000=0.400;
#DELAYS:;
#WARPS:149.000=32.000;
#TIMESIGNATURES:0.000=4=4;
#TICKCOUNTS:0.000=4;
#COMBOS:0.000=1;
#SPEEDS:0.000=1.000=0.000=0;
#SCROLLS:0.000=1.000;
#FAKES:;
#LABELS:0.000=Song Start;
#BGCHANGES:;
#KEYSOUNDS:;
#ATTACKS:
;

//---------------dance-single - ----------------
#NOTEDATA:;
#CHARTNAME:;
#STEPSTYPE:dance-single;
#DESCRIPTION:;
#CHARTSTYLE:;
#DIFFICULTY:Hard;
#METER:8;
#RADARVALUES:0.474800,0.910815,0.291282,0.164313,0.283813,445.000000,406.000000,39.000000,22.000000,0.000000,0.000000,0.000000,0.000000,27.000000,0.474800,0.910815,0.291282,0.164313,0.283813,445.000000,406.000000,39.000000,22.000000,0.000000,0.000000,0.000000,0.000000,27.000000;
#CREDIT:;
#NOTES:
0000
0000
0000
0000
,
0000
0000
0000
0000
,
0000
0000
0000
0000
,
0000
0000
0000
0000
,
0010
1000
0010
1000
0100
0000
0010
0001
,
0010
0001
0100
0000
0010
1000
0010
1000
,
0001
0100
0001
0100
0010
0000
1000
0100
,
1000
0000
0100
0000
0010
0000
0000
0000
0001
0000
0100
0001
0100
0000
0001
0000
,
1000
0010
1000
0010
0100
0000
0001
1000
,
0001
0010
0001
0010
0100
0000
1000
0001
,
0100
0010
0100
0010
1000
0000
0001
1000
,
0100
0000
0010
0000
0100
0000
0010
0000
0001
0000
0000
1000
0001
0000
0100
0000
,
0010
1000
0010
1000
0001
0100
0001
0100
,
0001
0010
0001
0010
0100
1000
0100
1000
,
0010
0000
0010
0000
0100
0000
0100
0000
0001
0000
0001
0000
1000
0001
1000
0001
,
0100
0000
0000
0010
1001
0000
1010
1001
,
0001
0000
1001
0000
0011
0000
0100
0000
2000
0000
0001
0001
3001
0010
0001
0010
,
0100
0010
0100
0000
0100
0000
0020
0030
1001
0000
0110
0000
0011
0000
1001
0000
,
1000
0000
1001
0000
1010
0000
0100
0000
0002
0000
1000
1000
1003
0010
0100
0010
,
0100
0000
0000
0000
0000
0000
0000
0000
0001
0100
0010
0100
0001
1000
0010
1000
,
0100
0000
0010
0100
0010
0000
0000
0000
0001
0000
1000
0010
1000
0000
0001
0010
0001
0000
0000
0000
0010
0000
0100
0000
0000
0000
0100
0000
0010
0100
0010
0000
,
0001
0000
0000
0000
1000
0000
0010
0100
0010
0000
0100
0001
0100
0000
0001
1000
0001
0000
0000
0000
0200
0000
0000
0000
0300
0000
0000
0000
0000
0000
0000
0000
,
0011
0000
1001
0000
0001
0000
1001
0000
0101
0000
0100
0000
0020
0000
1030
0100
,
0020
0000
0032
0000
0013
0100
2000
0000
3020
0000
0000
0000
0030
0000
0000
0000
,
0000
0000
0000
0000
,
0000
0000
0000
0110
,
0000
0000
0000
0000
,
0000
0000
0000
0001
,
0100
0010
1000
0001
,
0010
0000
0100
0000
1000
0000
0001
0100
,
0010
1000
0001
0010
0100
1000
1001
0000
,
0000
0000
0000
0000
0000
0000
1000
0000
0100
1000
0100
0000
0011
0000
0010
0000
,
0001
0010
0100
0010
1000
0010
0100
0010
,
0001
0010
0100
0000
0012
0000
0103
0010
,
1000
0010
0100
0010
0001
0010
0100
0010
,
1000
0000
0010
0000
0100
0000
0001
1000
0001
0000
1000
0000
0010
0000
0100
0000
,
0001
0100
0010
0100
1000
0100
0010
0100
,
0001
0100
0010
0100
1000
0100
0001
1000
,
0001
1000
0010
0100
0010
0100
0001
0000
,
1001
0110
1001
1010
,
0101
0011
1100
0000
,
0000
0000
0000
0000
,
0000
0000
0000
0000
,
0000
0000
0000
0000
,
0000
0000
0000
0000
,
0000
0010
1000
1100
,
0101
0000
0011
0000
1010
0000
0100
0100
,
1001
0000
0010
0001
0002
0000
1003
0020
,
0000
0030
0010
0000
0100
0001
0000
0001
2000
0000
3000
1000
0010
0100
0100
0000
,
0000
0000
0001
0000
1000
0000
0100
0000
0010
0000
0100
0010
0001
0000
1000
0000
2000
0000
0000
0000
0000
0000
0000
0000
3010
0000
0000
0000
0200
0000
0000
0000
,
0000
0300
0100
0000
0001
0000
0000
0000
0010
0000
0000
0000
0000
0000
0000
0000
,
0100
0100
1000
0001
,
0110
0000
0000
0000
,
0000
0000
0000
0000
,
0100
0100
0100
0100
,
1000
0100
0001
0100
,
1000
0001
0100
0010
1000
0001
0010
0100
,
1000
0010
0100
0001
1000
0100
0010
0001
,
0100
0100
0010
0010
1000
1000
0001
0001
,
1001
0000
0000
0010
0101
0000
1010
1001
,
1000
0000
0001
1000
0100
0000
0110
0000
0002
0000
0100
0100
1003
0001
1000
0100
,
0010
0100
0010
0000
0010
0000
0001
0000
1010
0001
0101
0000
0011
0000
1001
0000
,
1000
0000
1000
0001
0100
0000
0110
0000
1000
0100
0001
0100
0010
0000
1000
0010
,
0001
0000
0000
0000
0000
0000
0000
0000
1000
0010
0100
0010
1000
0001
0100
0001
,
1000
0000
0100
0010
0100
0000
0000
0000
0010
0000
0001
0100
0001
0000
1000
0010
1000
0000
0000
0000
0100
0000
1000
0000
0000
0000
0010
0000
0100
0010
0100
0000
,
0001
0000
0000
0000
0100
0000
0010
0100
0010
0000
1000
0001
1000
0000
0100
1000
0100
0000
0000
0000
0020
0000
0000
0000
0031
0000
0000
0000
0000
0000
0000
0000
,
1010
0000
0011
0000
0001
0000
0101
0000
1100
0000
0010
0000
0002
0000
1003
0100
,
0020
0000
0032
0000
0013
0100
2000
0000
3020
0000
0000
0000
0130
0000
0000
0000
;

//---------------dance-single - ----------------
#NOTEDATA:;
#CHARTNAME:;
#STEPSTYPE:dance-single;
#DESCRIPTION:;
#CHARTSTYLE:;
#DIFFICULTY:Medium;
#METER:6;
#RADARVALUES:0.362768,0.632511,0.164313,0.261407,0.089625,340.000000,318.000000,22.000000,35.000000,0.000000,0.000000,0.000000,0.000000,19.000000,0.362768,0.632511,0.164313,0.261407,0.089625,340.000000,318.000000,22.000000,35.000000,0.000000,0.000000,0.000000,0.000000,19.000000;
#CREDIT:;
#NOTES:
0000
0000
0000
0000
,
0000
0000
0000
0000
,
0000
0000
0000
0000
,
0000
0000
0000
0000
,
1000
0010
1000
0000
0010
0100
0010
0000
,
0100
0001
0100
0000
0001
1000
0001
0000
,
1000
0100
1000
0000
0001
0010
0001
0000
,
0100
0001
0100
0000
0010
1000
0010
0000
,
0100
0000
0100
0001
0100
0000
0010
0000
,
0010
0000
0010
0100
0010
0000
1000
0000
,
1000
0000
1000
0100
1000
0000
0001
0000
,
0001
0000
0001
0010
0001
0000
1000
0000
,
0010
0100
0010
0000
1000
0001
1000
0000
,
0100
0010
0100
0000
1000
0001
1000
0000
,
0010
1000
0010
1000
0001
0100
0001
0100
,
0010
0000
0000
0100
0110
0000
2010
0010
,
0000
0010
0001
3100
1001
0200
0302
1000
,
0000
0000
0000
0000
1000
0000
0000
0000
0103
0000
0000
0000
0020
0030
0000
0000
1001
0000
0000
0000
0110
0000
0000
0000
1002
0000
0000
0000
0010
0000
0000
0000
,
0000
0010
1000
0103
0001
0001
1000
1000
,
0100
0000
0000
0000
1000
0001
1000
0001
,
0100
0100
0010
0000
1000
1000
0001
0001
1000
0000
0010
1000
0000
0001
0010
0010
,
0100
0000
1000
1000
0001
0001
0010
0010
0100
0000
0020
0000
0030
0000
0000
0000
,
2001
0010
0000
0010
0001
3100
0002
0023
,
2030
3002
0203
2300
3020
0000
0130
0000
,
0000
0000
0000
0000
,
0000
0000
0000
1001
,
0000
0000
0000
0000
,
0000
0000
0000
1000
,
1000
0001
0001
0100
,
0100
0010
0010
1000
,
0100
0010
0001
1001
,
0000
0000
0000
0000
1000
0000
1000
0010
,
1000
0010
1000
0100
1000
0100
1000
0001
,
1000
0001
1000
0000
0110
0000
0001
0010
,
0001
0010
0001
0100
0001
0100
0001
1000
,
0001
1000
0001
0100
0010
0000
1000
0100
,
1000
0100
0010
0100
0010
0100
0001
0100
,
0001
0100
0010
0100
1000
0001
0100
0000
,
0110
1001
0110
0011
,
1100
1010
1001
0000
,
0000
0000
0000
0000
,
0000
0000
0000
0000
,
0000
0000
0000
0000
,
0000
0000
0000
0000
,
0000
0000
0000
0000
,
0000
0000
0100
1100
,
1001
0000
0101
0000
0110
0000
0001
1000
,
0010
0000
0100
0000
0002
0000
1003
0200
,
0000
0310
0110
0000
0002
0000
1003
0020
,
0000
0130
0010
0010
2000
0000
3100
0002
,
0000
0103
0020
0000
0030
0000
0000
0000
,
0100
0100
0010
0010
,
1001
0000
0000
0000
,
0000
0000
0000
0000
,
1000
1000
1000
1000
,
0001
0001
0001
0001
,
1000
0100
1000
0000
0001
0100
0001
0000
,
1000
0010
1000
0000
0001
0010
0001
0000
,
1000
0100
1000
0100
0010
0001
0010
0001
,
1000
0000
0000
0010
0101
0000
0012
1000
,
0000
0000
1000
1000
1000
0000
0103
0000
0110
0000
0001
0000
1000
0010
1000
0010
,
1000
0000
0001
0000
1000
0000
0000
0000
1000
0000
0000
0000
0200
0300
0000
0000
0010
0000
0010
0000
0010
0000
0000
0000
2001
0000
0000
0000
0010
0000
0000
0000
,
0000
0000
0010
0010
0010
0000
3100
0000
0001
0000
0000
0000
1001
0000
1000
0000
,
0100
0000
0000
0000
0001
1000
0001
1000
,
0010
0010
0100
0000
0001
0001
1000
1000
0001
0000
0100
0001
0000
1000
0100
0100
,
0010
0000
0000
0000
0001
0000
0001
0000
1000
0000
1000
0000
0010
0000
0010
0000
0200
0000
0000
0000
0320
0000
0000
0000
2030
3000
0000
0000
0000
0000
0000
0000
,
0021
0001
0100
1000
0100
0031
2000
3020
,
0032
2003
3200
0302
0023
0000
0130
0000
;

//---------------dance-single - ----------------
#NOTEDATA:;
#CHARTNAME:;
#STEPSTYPE:dance-single;
#DESCRIPTION:;
#CHARTSTYLE:;
#DIFFICULTY:Easy;
#METER:4;
#RADARVALUES:0.233666,0.328906,0.052281,0.268875,0.000000,219.000000,212.000000,7.000000,36.000000,0.000000,0.000000,0.000000,0.000000,18.000000,0.233666,0.328906,0.052281,0.268875,0.000000,219.000000,212.000000,7.000000,36.000000,0.000000,0.000000,0.000000,0.000000,18.000000;
#CREDIT:;
#NOTES:
// measure 0
0000
0000
0000
0000
,  // measure 1
0000
0000
0000
0000
,  // measure 2
0000
0000
0000
0000
,  // measure 3
0000
0000
0000
0000
,  // measure 4
1000
1000
0010
0010
,  // measure 5
0100
0100
0001
0001
,  // measure 6
1000
1000
0100
0100
,  // measure 7
0010
0010
0001
0001
,  // measure 8
1000
0010
1000
1000
,  // measure 9
0001
0010
0001
0001
,  // measure 10
1000
0100
1000
1000
,  // measure 11
0001
0100
0001
0010
,  // measure 12
0100
1000
0100
0010
,  // measure 13
0001
0010
1000
0010
,  // measure 14
0001
0100
1000
0100
,  // measure 15
0010
0000
0000
0000
0110
0000
2000
0001
,  // measure 16
0000
3001
1000
0000
0110
0000
0002
1000
,  // measure 17
0000
1003
0001
0000
0100
0100
0020
1000
,  // measure 18
0000
1030
0010
0000
0100
0000
0001
0000
,  // measure 19
1000
0000
0001
1000
,  // measure 20
0020
0100
0000
0130
0010
0010
1000
0000
,  // measure 21
0002
0010
0000
0013
0001
0000
0000
0000
,  // measure 22
2000
0100
0000
3100
1000
0000
0020
2030
,  // measure 23
3020
0000
0230
0302
0023
0000
0030
0000
,  // measure 24
0000
0000
0000
0000
,  // measure 25
0000
0000
0000
0100
,  // measure 26
0000
0000
0000
0000
,  // measure 27
0000
0000
0000
0001
,  // measure 28
0001
0100
0100
0010
,  // measure 29
0010
1000
1000
0001
,  // measure 30
0010
0100
1000
0001
,  // measure 31
0000
0000
0000
2100
,  // measure 32
0100
0100
0100
0100
,  // measure 33
0100
3100
0010
0102
,  // measure 34
0100
0100
0100
0100
,  // measure 35
0100
0103
1000
0012
,  // measure 36
0010
0010
0010
0010
,  // measure 37
0010
0010
0013
2010
,  // measure 38
0010
0010
0010
0001
,  // measure 39
0001
3001
0110
1001
,  // measure 40
0110
1001
0000
0000
,  // measure 41
0000
0000
0000
0000
,  // measure 42
0000
0000
0000
0000
,  // measure 43
0000
0000
0000
0000
,  // measure 44
0000
0000
0000
0000
,  // measure 45
0000
0010
2000
0010
,  // measure 46
0010
3010
0001
0010
,  // measure 47
1000
0010
0200
1300
,  // measure 48
0002
0103
2000
3100
,  // measure 49
0002
0013
2000
3010
,  // measure 50
0002
1003
0010
0000
,  // measure 51
0100
0100
0100
0100
,  // measure 52
0010
0000
0000
0000
,  // measure 53
0000
0000
0000
0000
,  // measure 54
1000
1000
0100
0100
,  // measure 55
0010
0010
0001
0001
,  // measure 56
0100
0001
1000
0100
,  // measure 57
0010
0001
1000
0010
,  // measure 58
0100
0100
0010
0010
,  // measure 59
1001
0000
0000
0000
0110
0000
2000
0010
,  // measure 60
0000
3001
1000
0000
0100
0000
0002
0010
,  // measure 61
0000
1003
0001
0000
0200
0300
0020
1000
,  // measure 62
0000
0130
0010
0000
1000
0000
0001
0000
,  // measure 63
0100
0000
0001
1000
,  // measure 64
0020
1000
0000
1030
0001
0100
0001
0000
,  // measure 65
0020
0001
0000
0031
1000
0200
0300
0000
,  // measure 66
0020
1000
0000
0031
0010
0000
2000
3200
,  // measure 67
2300
0000
3002
0203
0320
0000
0130
0000
;
