#TITLE:DRAGONLADY;
#SUBTITLE:;
#ARTIST:Nankumo;
#TITLETRANSLIT:;
#SUBTITLETRANSLIT:;
#ARTISTTRANSLIT:;
#GENRE:;
#CREDIT:;
#BANNER:;
#BACKGROUND:;
#LYRICSPATH:;
#CDTITLE:;
#MUSIC:DRAGONLADY.ogg;
#OFFSET:0.000000;
#SAMPLESTART:19.200001;
#SAMPLELENGTH:12.799999;
#SELECTABLE:YES;
#BPMS:0.000000=150.000000
,29.750000=300.000000
,31.750000=150.000000
,124.000000=300.000000
,127.750000=150.000000
;
#STOPS:29.750000=0.150000,
30.500000=0.150000,
31.250000=0.100000,
124.000000=0.150000,
124.750000=0.050000,
125.000000=0.150000,
125.750000=0.050000,
126.000000=0.100000,
126.500000=0.100000,
127.000000=0.100000,
127.500000=0.050000,
127.750000=0.400000,
159.000000=0.200000,
160.500000=0.200000,
162.000000=0.200000,
163.500000=0.200000,
165.000000=0.200000,
166.500000=0.200000,
176.750000=0.200000,
178.250000=0.200000
;
#BGCHANGES:;
#KEYSOUNDS:;
#ATTACKS:;

//---------------dance-single - ----------------
#NOTES:
     dance-single:
     :
     Challenge:
     11:
     0.900759,0.808844,0.000000,0.200877,1.467519,565.000000,565.000000,0.000000,18.000000,0.000000,0.000000,0.900759,0.808844,0.000000,0.200877,1.467519,565.000000,565.000000,0.000000,18.000000,0.000000,0.000000:
// measure 0
0000
0000
0000
0000
,  // measure 1
0000
0000
0000
0000
,  // measure 2
0000
0000
0000
0000
,  // measure 3
0000
0000
0000
0000
,  // measure 4
1000
0000
0100
0000
0010
0001
0010
0001
0010
0000
0100
0000
1000
0010
1000
0010
,  // measure 5
1000
0000
0001
0000
0010
0100
0010
0100
0010
0000
0001
0000
1000
0001
1000
0001
,  // measure 6
1000
0000
0010
0000
0100
0010
0100
0010
0100
0000
0010
0000
1000
0100
1000
0100
,  // measure 7
1000
0000
0001
0000
0100
0010
0100
0010
0000
0000
1000
0000
0000
0100
0000
1000
,  // measure 8
0001
0000
0010
0000
0100
1000
0100
1000
0001
0000
0100
0000
0010
1000
0010
1000
,  // measure 9
0001
0000
0010
0000
0100
0010
0100
0010
0001
0000
1000
0000
0010
1000
0010
1000
,  // measure 10
0100
0000
0010
0000
0001
0010
0001
0010
0100
0000
1000
0000
0100
0010
0100
0010
,  // measure 11
0001
0000
0010
0000
0001
0010
0001
0010
0100
0000
0010
0000
0001
1000
0001
1000
,  // measure 12
0010
0000
0100
0000
0001
0100
0010
0100
0001
0000
1000
0000
0010
0100
0010
1000
,  // measure 13
0010
0000
0100
0000
0001
1000
0100
1000
0001
0000
0100
0000
0010
1000
0001
1000
,  // measure 14
0010
0000
1000
0000
0100
0010
0001
0010
0100
0000
1000
0000
0010
0001
0010
0100
,  // measure 15
0010
0000
1000
0000
0100
0010
0100
1000
0100
0000
0000
0100
1000
0001
1000
0000
,  // measure 16
0001
0010
0000
0100
0000
0100
1000
0100
0010
0100
1000
0100
0010
0100
0000
0000
,  // measure 17
0010
0000
0001
0010
0001
0010
0001
0010
0100
0010
0001
0010
1000
0000
0010
0001
,  // measure 18
1000
0000
1000
0000
0010
0100
0010
0100
0001
0100
0010
0100
0001
1000
0000
0000
,  // measure 19
0002
0000
0000
0000
1003
0100
0010
0100
1000
0001
1000
0001
2000
0000
0000
0000
,  // measure 20
3100
1000
0100
1000
0100
1000
0000
1000
0001
0010
0100
0010
0001
1000
0000
0000
,  // measure 21
1000
0000
0100
0010
0100
0010
0100
0010
0001
1000
0000
0000
1000
0000
0001
0100
,  // measure 22
0001
0000
0001
0000
0010
0000
0010
0000
0100
1000
0100
1000
0100
0000
0100
0000
,  // measure 23
0020
0000
0030
0010
0000
0010
0000
0010
0001
0010
0100
1000
0001
0100
0010
1000
,  // measure 24
0001
0010
0000
0100
0000
0010
0000
0001
0000
1000
0100
1000
0100
0000
0000
0000
,  // measure 25
1000
0010
0000
0100
0000
0001
0000
0010
0000
0100
0010
0100
0010
0000
0000
0000
,  // measure 26
0100
1000
0000
0001
0000
0010
0000
0100
0000
0010
0001
0010
0001
0000
0000
0000
,  // measure 27
1000
0010
0000
0100
0000
0010
0000
0001
0000
0010
1000
0010
1000
0100
0010
0001
,  // measure 28
1000
0100
0000
1000
0000
0010
0000
0100
0000
0010
0001
0010
0100
0000
0000
0000
,  // measure 29
0001
0010
0000
0100
0000
0010
0000
1000
0000
0010
0100
1000
0100
0000
0000
0000
,  // measure 30
0010
0001
0000
0010
0000
0100
0000
0010
1000
0010
0000
0001
0000
1000
0000
0001
,  // measure 31
1000
0000
0000
0001
1000
0000
0000
0001
1000
0000
0001
0000
1000
0000
0001
2000
,  // measure 32
3001
0010
0000
0001
0010
0001
0010
0100
0000
0010
0000
0001
1000
0010
0000
0100
,  // measure 33
0000
0010
0000
1000
0001
1000
0001
0010
0000
0100
0000
0010
0001
0100
0000
0010
,  // measure 34
0000
0100
0000
0001
0010
0001
0010
0100
0000
0010
0000
0001
1000
0100
0000
0010
,  // measure 35
0000
0001
0000
0100
1000
0100
1000
0100
0001
0010
0100
1000
0001
0100
0000
0010
,  // measure 36
0000
0100
0000
1000
0100
0010
0100
0010
0000
1000
0000
0001
0010
0001
0000
0100
,  // measure 37
0000
0010
0000
0100
0001
0100
0001
0010
0000
1000
0000
0010
0001
1000
0000
0100
,  // measure 38
0000
1000
0000
0010
0100
0010
0100
0001
0000
0010
0000
0100
0010
0100
0000
0001
,  // measure 39
0000
0100
0000
1000
0010
1000
0010
0100
0001
0010
0100
1000
0002
0000
1003
0001
,  // measure 40
0000
0001
0020
0000
0031
1000
0000
1000
0200
0000
0310
0001
0000
0001
2000
0000
,  // measure 41
3001
0010
0000
0010
0200
0000
1300
0001
0000
0001
0020
0000
0130
0010
0000
0010
,  // measure 42
0002
0003
2000
3000
0002
0003
2000
3000
0002
0003
2000
3000
0002
0003
2000
3000
,  // measure 43
0001
1000
0001
1000
0001
1000
0001
1000
0001
1000
0001
1000
0001
1000
0001
1000
,  // measure 44
0001
0000
0001
0010
0000
0000
1000
0000
1000
0100
0000
0000
0001
0000
0010
0100
,  // measure 45
0010
0000
0001
0010
0001
0010
0001
0010
0001
0010
0001
0010
0001
0000
1000
0000
,  // measure 46
0100
0010
0100
0010
0100
0000
1000
0000
0001
0010
0001
0010
0001
0000
0010
0000
,  // measure 47
0100
1000
0100
1000
0100
0000
0001
0000
0100
0010
0100
0010
0100
0000
1000
0000
,  // measure 48
0010
0001
0010
0001
0010
0000
0100
0000
0001
1000
0001
1000
0001
0000
0010
0000
,  // measure 49
0100
1000
0100
1000
0100
0000
0010
0000
0001
0100
0001
0100
0001
0000
1000
0000
,  // measure 50
0100
0010
0001
0010
0100
0000
1000
0000
0001
0010
0100
0010
0001
0000
0100
0000
,  // measure 51
0010
1000
0010
0100
0010
0000
1000
0000
0010
0100
0001
0100
0010
0000
0100
0000
,  // measure 52
1000
0100
0010
0100
0010
0000
1000
0000
0100
0010
0100
1000
0100
0000
0010
0000
,  // measure 53
0001
0100
0010
1000
0001
0000
0000
1000
0100
0010
0001
1000
0000
0000
0000
0000
;
