#VERSION:0.81;
#TITLE:Coming Home;
#SUBTITLE:;
#ARTIST:Darude feat. Mahan Moin;
#TITLETRANSLIT:;
#SUBTITLETRANSLIT:;
#ARTISTTRANSLIT:;
#GENRE:;
#ORIGIN:;
#CREDIT:;
#BANNER:Coming Home - Darude feat. Mahan Moinbn.PNG;
#BACKGROUND:Coming Home - Darude feat. Mahan Moinbg.PNG;
#PREVIEWVID:;
#JACKET:Coming Home - Darude feat. Mahan Moinjacket.PNG;
#CDIMAGE:;
#DISCIMAGE:;
#LYRICSPATH:Coming Home - Darude feat. Mahan Moin.lrc;
#CDTITLE:encorerebirth.png;
#MUSIC:Coming Home - Darude feat. Mahan Moin.ogg;
#OFFSET:-1.877;
#SAMPLESTART:62.247;
#SAMPLELENGTH:15.000;
#SELECTABLE:YES;
#DISPLAYBPM:128.000;
#BPMS:0.000=128.000,
89.000=256.000,
92.000=128.000;
#STOPS:60.250=3.281,
89.000=0.117,
89.500=0.117,
90.000=0.117,
90.500=0.117,
91.000=0.059,
91.250=0.059,
91.500=0.059,
91.750=0.059;
#DELAYS:;
#WARPS:;
#TIMESIGNATURES:0.000=4=4;
#TICKCOUNTS:0.000=4;
#COMBOS:0.000=1;
#SPEEDS:0.000=1.000=0.000=0;
#SCROLLS:0.000=1.000;
#FAKES:;
#LABELS:0.000=Song Start;
#BGCHANGES:;
#KEYSOUNDS:;
#ATTACKS:
;

//---------------dance-single - Spork!----------------
#NOTEDATA:;
#CHARTNAME:Spork! - Beginner;
#STEPSTYPE:dance-single;
#DESCRIPTION:Spork!;
#CHARTSTYLE:;
#DIFFICULTY:Beginner;
#METER:1;
#RADARVALUES:0.099,0.095,0.070,0.101,0.000,52.000,7.000,10.000,0.000,0.000,0.000,0.000,0.000,0.099,0.095,0.070,0.101,0.000,52.000,7.000,10.000,0.000,0.000,0.000,0.000,0.000;
#CREDIT:Spork!;
#DISPLAYBPM:128.000;
#NOTES:
0000
0000
0000
0000
,
0000
0000
0000
0000
,
0000
0000
0000
0000
,
0000
0000
0000
0000
,
0001
0000
0000
0000
,
1000
0000
0000
0000
,
0200
0000
0000
0000
,
0300
0000
0000
0000
,
0000
0000
1001
0000
,
0000
0000
0110
0000
,
0000
0000
1001
0000
,
0000
0000
0000
0000
,
0000
0000
0110
0000
,
0000
0000
1001
0000
,
0000
0000
0110
0000
,
0000
2000
0000
0000
,
0000
3000
0000
0000
,
0000
0002
0000
0000
,
0000
0003
0000
0000
,
0000
2000
0000
0000
,
0000
3000
0000
0000
,
0000
0002
0000
0000
,
0000
0003
0000
0000
,
0000
0001
0000
0010
,
0000
0100
0000
0000
,
0000
1000
0000
0010
,
0000
0100
0000
0000
,
0000
0001
0000
1000
,
0000
0010
0000
0000
,
0000
1000
0000
0001
,
0000
0010
0000
0000
,
0000
0002
0000
0100
,
0000
1003
0000
0000
,
0000
2000
0000
0010
,
0000
3001
0000
0000
,
0000
1000
0000
0100
,
0000
0010
0000
0010
,
0000
0001
0000
0100
,
0000
0010
0000
0000
,
0000
0020
0000
1000
,
0000
0130
0000
0000
,
0000
0200
0000
0001
,
0000
0320
0000
0030
,
0000
1000
0000
0001
,
0000
0100
0000
0100
,
0000
0001
0000
1000
,
0000
0010
0000
0000
,
0000
1001
0000
0000
;

//---------------dance-single - Spork!----------------
#NOTEDATA:;
#CHARTNAME:Spork! - Light;
#STEPSTYPE:dance-single;
#DESCRIPTION:Spork!;
#CHARTSTYLE:;
#DIFFICULTY:Easy;
#METER:3;
#RADARVALUES:0.220,0.240,0.101,0.121,0.000,131.000,10.000,12.000,0.000,0.000,0.000,0.000,0.000,0.220,0.240,0.101,0.121,0.000,131.000,10.000,12.000,0.000,0.000,0.000,0.000,0.000;
#CREDIT:Spork!;
#DISPLAYBPM:128.000;
#NOTES:
0000
0000
0000
0000
,
0000
0000
0000
0000
,
0000
0000
0000
0000
,
0000
0000
0000
0000
,
0001
1000
0100
0000
,
0100
1000
0001
0000
,
2000
0000
0100
0000
,
3002
0000
0010
0000
,
1003
0000
0100
1000
,
0010
0000
0100
0001
,
1000
0000
0010
1000
,
0200
0000
0320
0000
,
0031
0000
0010
0001
,
0100
0000
0010
1000
,
0001
0000
0100
0001
,
0010
0120
0000
0000
,
0000
0130
0000
1000
,
0000
2100
0000
0000
,
0000
3010
0000
0100
,
0000
0120
0000
0000
,
0000
0130
0000
0001
,
0000
0012
0000
0000
,
0000
1003
0001
1001
,
0000
0001
0010
0100
,
0100
1000
0100
0010
,
0001
1000
0010
0100
,
0100
0001
0100
0010
,
1001
0001
0100
0010
,
0010
1000
0010
0100
,
0001
1000
0100
0010
,
0010
0001
0020
0200
,
0330
1001
1000
0100
,
0000
1000
0010
0100
,
0100
1001
0001
0010
,
0000
0001
0100
0010
,
0010
1000
0100
0001
,
1000
0001
0100
1000
,
1000
0010
1000
0100
,
0010
0000
0010
0001
,
0001
0110
0010
0001
,
0000
0100
0010
1000
,
1000
0110
0010
1000
,
0000
2000
0000
3000
,
0000
0001
0010
1000
,
0001
1000
0010
0001
,
0001
0100
0001
0010
,
0100
0000
0100
1000
,
1000
0002
0000
0003
;

//---------------dance-single - Spork!----------------
#NOTEDATA:;
#CHARTNAME:Spork! - Standard;
#STEPSTYPE:dance-single;
#DESCRIPTION:Spork!;
#CHARTSTYLE:;
#DIFFICULTY:Medium;
#METER:5;
#RADARVALUES:0.314,0.312,0.221,0.191,0.020,177.000,22.000,19.000,0.000,0.000,0.000,0.000,0.000,0.314,0.312,0.221,0.191,0.020,177.000,22.000,19.000,0.000,0.000,0.000,0.000,0.000;
#CREDIT:Spork!;
#DISPLAYBPM:128.000;
#NOTES:
0000
0000
0000
0000
,
0000
0000
0000
0000
,
0000
0000
0000
0000
,
0000
0000
0000
0000
,
1000
0000
0010
0000
0100
0000
0000
0100
,
0001
0000
0001
1000
0100
0000
0010
0000
,
0001
0100
0010
0100
,
1000
0000
0100
0000
0001
1000
0001
0000
,
0010
0011
0000
1010
,
0000
1100
0000
0101
,
0000
1010
0000
0011
,
0000
0101
0000
1100
,
2000
3100
0200
0310
,
0020
0031
0002
1003
,
0001
0000
0100
0000
0010
0100
0010
0100
,
0000
0201
0001
0010
,
0300
0010
1000
0000
0100
0000
0010
0000
,
0100
1200
1000
0010
,
0300
0010
0001
0000
1000
0000
0010
0000
,
0100
0120
1000
0100
,
0030
0100
0001
0000
0001
0000
0010
0000
,
0100
0120
0100
0100
,
0130
0000
1000
0001
1000
0001
1000
0001
,
1000
0000
0000
0000
0001
0000
0000
0000
0001
0000
0000
0001
0000
0000
0001
0000
,
0000
0001
0010
0000
0001
0000
0100
0000
,
0010
0000
0000
0000
1000
0000
0000
0000
1000
0000
0000
1000
0000
0000
1000
0000
,
0000
1000
0100
0000
1000
0000
0010
0000
,
1001
0000
0000
0000
0010
0000
0000
0000
0010
0000
0000
0010
0000
0000
0010
0000
,
0000
0010
0002
0000
2003
0000
3002
0000
,
2003
0000
0000
0000
3100
0000
0000
0000
0100
0000
0000
0100
0000
0000
0100
0000
,
0000
0100
0010
0000
0002
0000
2000
0000
,
3003
0101
0100
0010
,
0100
1000
0100
0001
,
1000
1100
0100
0010
,
0100
0001
0100
1000
,
0010
0000
0100
0000
0100
0010
0100
0000
,
0010
0000
0010
0100
0001
0000
0000
0000
,
0101
0000
1100
0000
1000
0100
0010
0001
,
1000
0000
2000
0002
,
3003
1010
0010
0100
,
0010
0001
0010
1000
,
0001
0011
0010
0001
,
1000
0200
0000
0300
,
0010
0000
0001
0000
0100
0010
0100
0000
,
0010
0000
0010
1000
0100
0000
0000
0000
,
1100
0000
0101
0000
0001
0010
0100
1000
,
0001
0000
0100
0100
,
0010
2002
0000
3003
;

//---------------dance-single - Spork!----------------
#NOTEDATA:;
#CHARTNAME:Spork! - Heavy;
#STEPSTYPE:dance-single;
#DESCRIPTION:Spork!;
#CHARTSTYLE:;
#DIFFICULTY:Hard;
#METER:7;
#RADARVALUES:0.446,0.433,0.282,0.221,0.076,260.000,28.000,22.000,0.000,0.000,0.000,0.000,0.000,0.446,0.433,0.282,0.221,0.076,260.000,28.000,22.000,0.000,0.000,0.000,0.000,0.000;
#CREDIT:Spork!;
#DISPLAYBPM:128.000;
#NOTES:
// measure 0
0000
0000
0000
0000
,  // measure 1
0000
0000
0000
0000
,  // measure 2
0000
0000
0000
0000
,  // measure 3
0000
0000
0000
0000
,  // measure 4
1010
0000
0110
0000
0101
0000
0010
0001
,  // measure 5
1000
0000
1000
0001
0010
0000
0100
1000
,  // measure 6
0010
0000
1100
0000
0100
0000
0010
0001
,  // measure 7
0100
0000
0010
0000
1000
1000
0001
0001
,  // measure 8
1000
0000
1010
0000
1000
0100
0001
0100
,  // measure 9
1000
0000
0101
0000
0001
0010
1000
0010
,  // measure 10
0001
0000
1100
0000
1000
0010
0001
0100
,  // measure 11
1000
0000
0010
0000
1000
1000
0001
0001
,  // measure 12
1000
0000
0101
0100
0001
0010
1000
0010
,  // measure 13
0000
0001
1010
0010
1000
0100
0001
0100
,  // measure 14
0000
1000
0011
0010
0001
0100
1000
0010
,  // measure 15
0000
0000
0000
0000
0210
0000
0000
0000
0010
0000
0000
0010
0000
0000
0010
0000
,  // measure 16
0300
0000
0010
0000
1000
0000
0000
0000
0100
0000
0000
0010
0000
0000
0001
0000
,  // measure 17
0000
0000
0002
0000
0100
0000
0000
0000
1000
0000
0000
1000
0000
0000
1000
0000
,  // measure 18
0003
0000
1000
0000
0100
0000
0000
0000
0010
0000
0000
0100
0000
0000
1000
0000
,  // measure 19
0000
0000
0020
0000
1000
0000
0000
0000
0100
0000
0000
0100
0000
0000
0100
0000
,  // measure 20
0030
0000
0100
0000
0001
0000
0000
0000
0010
0000
0000
0001
0000
0000
1000
0000
,  // measure 21
0000
2000
0100
0000
0001
0000
0010
0000
,  // measure 22
3010
0000
0000
0000
1000
0000
0100
0000
0010
0000
0001
0000
1000
0001
1000
0001
,  // measure 23
1000
0000
0000
0000
0101
0000
0000
0000
1100
0000
0000
0110
0000
0000
0011
0000
,  // measure 24
0000
0000
0001
0000
0010
0000
0000
0000
0110
0000
0000
0010
0000
0000
0001
0000
,  // measure 25
1000
0000
0001
0000
1100
0000
0000
0000
0101
0000
0000
0110
0000
0000
1010
0000
,  // measure 26
0000
0000
0010
0000
1000
0000
0100
0000
0010
0000
0001
0000
0100
0000
0000
0100
,  // measure 27
0000
0000
0100
0000
1010
0000
0000
0000
0011
0000
0000
0110
0000
0000
1100
0000
,  // measure 28
0000
1000
0100
0100
0010
0010
0100
0100
,  // measure 29
1000
0000
1000
0000
0011
0000
0000
0000
1010
0000
0000
0110
0000
0000
0101
0000
,  // measure 30
0000
0100
0020
0000
0100
0000
1030
0001
,  // measure 31
0000
0001
1000
0100
0010
0100
0001
0100
,  // measure 32
1000
0100
0020
0000
0100
0000
0031
1000
,  // measure 33
0000
1000
0001
0100
0010
0100
1000
0100
,  // measure 34
0001
0000
0100
0000
0010
0000
0010
0000
0100
0000
0100
0000
0001
0000
0000
0001
,  // measure 35
1000
0001
0000
0001
0010
0001
0100
0000
,  // measure 36
0010
0100
0001
1000
0010
0000
1000
0000
,  // measure 37
0100
1000
0010
0000
0100
0010
1000
0001
,  // measure 38
0100
0000
0200
0000
0010
0000
0301
1000
,  // measure 39
0000
1000
0001
0020
0130
0020
1030
0020
,  // measure 40
0031
0020
0230
0000
0010
0000
1300
0001
,  // measure 41
0000
0001
1000
0020
0130
0020
0031
0020
,  // measure 42
1030
0020
0230
0000
0010
0000
0301
0000
,  // measure 43
1000
0001
0010
0000
0010
0001
0100
0000
,  // measure 44
0010
0100
0001
1000
0100
0000
1000
0000
,  // measure 45
0100
1000
0010
0010
0100
0001
1000
1000
,  // measure 46
0001
0010
0100
2000
0000
3200
0000
0320
,  // measure 47
0000
0032
2000
0000
0000
0000
3003
0000
;
