#TITLE:Bring Me The Fire;
#SUBTITLE:;
#ARTIST:Pitch;
#TITLETRANSLIT:;
#SUBTITLETRANSLIT:;
#ARTISTTRANSLIT:;
#GENRE:Raggacore;
#CREDIT:;
#BANNER:Bring Me The Fire.png;
#BACKGROUND:Bring Me The Fire-bg.png;
#LYRICSPATH:;
#CDTITLE:;
#MUSIC:Bring Me The Fire.ogg;
#OFFSET:-0.233894;
#SAMPLESTART:54.182201;
#SAMPLELENGTH:15.000000;
#SELECTABLE:YES;
#BPMS:0.000000=102.500000
,80.000000=205.000000
;
#STOPS:104.000000=2.049000,
289.000000=2.049000
;
#BGCHANGES:;
#KEYSOUNDS:;
#ATTACKS:;

//---------------dance-single - ----------------
#NOTES:
     dance-single:
     :
     Hard:
     9:
     0.512502,0.627815,0.397652,0.475454,0.138314,415.000000,369.000000,46.000000,55.000000,0.000000,0.000000,0.512502,0.627815,0.397652,0.475454,0.138314,415.000000,369.000000,46.000000,55.000000,0.000000,0.000000:
0000
0000
0000
0000
,
0000
0000
0000
0000
,
0000
0000
0000
0000
,
0000
0000
0000
0000
,
0200
0010
0300
0000
0100
0010
0000
0000
,
0100
0010
0000
0000
1000
0010
0000
0000
,
2000
0001
3000
0000
1000
0001
0000
0000
,
1000
0001
0000
0000
0100
0001
0000
0001
,
1001
0000
2200
0000
0000
3300
0000
0000
,
1000
0000
0010
0000
0000
0000
0000
0000
0100
0000
0000
0010
1000
0000
0000
0010
,
0200
0000
0002
0000
0303
0010
0100
2000
,
0000
0000
0020
0000
3000
0000
0000
0000
1030
0000
0001
0000
0010
0001
0010
0000
,
0011
0000
0000
0220
0000
0000
0000
0000
0000
0000
0330
0000
0000
0000
0000
0000
,
1000
0000
0000
0000
0010
0000
0000
0000
0010
0000
0000
0000
1000
0000
0000
0000
0000
0000
0000
0000
0001
0000
0000
0000
0010
0000
0000
0000
0000
0000
0000
0000
0000
0100
0000
0000
1000
0000
0000
0000
0000
0000
0000
0000
0000
0100
0000
0000
,
0020
0000
0200
0000
0330
1000
0001
0200
,
0000
0000
0002
0000
0300
0000
0000
0000
1003
0100
1000
0010
1000
0000
0001
0000
,
0210
0000
0301
0000
2001
0000
3010
0100
,
0201
0000
0000
0000
0301
0000
0010
0000
0120
0000
0000
1000
0030
1000
0010
0000
,
2100
0000
3001
0100
0120
0000
1030
0000
,
2001
0001
3100
0010
0012
0010
1003
1100
,
1010
0100
0001
0010
,
0110
1000
0010
0100
,
0001
0000
0000
0010
0001
0000
0000
0010
0100
0000
0000
0010
0100
0000
0000
0000
,
1000
0000
1000
0000
0100
0000
0100
0000
0010
0100
0010
0100
0020
0000
0000
0000
,
0031
0001
1000
1000
,
0010
0000
0010
0000
0100
0010
1000
0001
,
1001
0000
0100
0001
0100
0010
1000
0001
,
0100
0010
1000
0001
0010
0100
0010
0001
,
0100
0010
1000
0001
0100
0001
1000
0010
,
0100
0000
0010
0000
1000
0000
0100
0000
1000
0000
0001
0000
0100
0000
0000
0001
,
0100
0000
0000
0001
1000
0000
0010
0000
1000
0000
0001
0000
0100
0000
0010
0000
,
0100
0001
1000
0010
0100
0001
1000
0100
,
0010
0010
0100
1000
0100
0001
0100
0010
,
0100
1000
0002
0000
0003
0000
0220
0000
,
0330
0000
1000
0001
0100
0001
0100
0010
,
1000
0010
1000
0100
0010
0100
1000
0001
,
0100
0001
0010
0100
0010
0001
1000
0100
,
1000
0000
0010
0000
0100
0000
0001
0000
0100
0000
0010
0000
1000
0000
0000
0010
,
1000
0000
0000
0010
0100
0000
0010
0000
0100
0000
0010
0000
1000
0000
0010
0000
,
1000
0010
1000
0001
1000
0001
0100
0001
,
0100
0001
1100
0000
1100
0000
0101
0000
,
0101
2001
0100
3100
,
0001
1001
1000
1200
,
1000
0010
1300
0010
,
1000
0000
0000
1000
0001
0000
0000
0000
1000
0000
0000
0000
0100
0000
0000
0000
,
1000
0000
0010
0000
0100
0000
0010
0010
,
1000
1000
2100
0000
3100
0000
1020
0000
,
1000
0000
0000
0030
0100
0000
0000
0000
0002
0000
0000
0000
0203
0000
0000
0000
,
0320
0100
2030
0001
,
0010
0010
3020
0000
0030
0000
2002
0000
,
3003
0000
0101
0000
1000
0002
1000
0000
,
1000
0013
1000
0100
,
1000
0000
0000
1000
0001
0000
0000
0000
0010
0000
0001
0000
0010
0000
0000
0000
,
0100
0000
0000
0000
1100
0000
0000
0000
1000
0000
0000
0000
0001
0000
0000
0100
,
0010
0000
0000
0100
0002
0000
0000
0000
1003
0000
0000
0000
2100
0000
0000
0000
,
0010
3010
2000
3020
,
0230
0001
0320
1000
,
0100
0100
0130
0000
0001
1000
0000
1000
,
0001
0012
0000
1003
,
0000
1020
0000
0130
,
0001
0201
0000
0310
,
1000
0000
2100
0000
3001
0010
0000
0010
,
0001
1002
0000
0013
,
0100
0210
0000
1000
,
0300
1010
2010
3001
,
0011
0101
0102
0013
,
0100
1100
1000
0010
,
0100
0110
0100
0001
,
1000
0000
0000
0000
1001
0000
0000
0001
1000
0000
0000
0001
0010
0000
0000
0001
,
0010
0000
0000
0000
0100
0000
0100
0000
1000
0000
1000
0000
0010
0100
0010
0100
,
0002
1003
0100
1000
,
0010
0000
0100
0000
0001
0000
0100
0010
,
1000
0010
1000
0000
0110
0000
0000
0000
2002
0000
3003
0000
0000
0000
0000
0000
;

//---------------dance-single - ----------------
#NOTES:
     dance-single:
     :
     Medium:
     6:
     0.313676,0.344704,0.138314,0.198826,0.000000,254.000000,238.000000,16.000000,23.000000,0.000000,0.000000,0.313676,0.344704,0.138314,0.198826,0.000000,254.000000,238.000000,16.000000,23.000000,0.000000,0.000000:
0000
0000
0000
0000
,
0000
0000
0000
0000
,
0000
0000
0000
0000
,
0000
0000
0000
0000
,
1020
0000
1000
0000
,
1030
0000
0100
0000
,
0201
0000
0001
0000
,
0301
0000
1000
0000
,
0020
0000
0130
0000
,
0100
0000
0010
1000
,
2000
0000
3001
0000
,
0001
0000
0100
0010
,
0200
0000
0301
0000
,
0001
0000
0100
1000
,
0002
0000
1003
0000
,
1000
0000
0010
0000
,
1100
1000
0010
0100
,
0010
0000
0001
0000
1000
0000
0001
1000
,
0001
0100
0010
0100
,
1000
0100
0001
0100
,
0110
0000
0100
0001
,
0101
0000
0001
0010
,
0100
1000
0100
1000
,
0001
0100
0010
1000
,
0010
0010
1000
1000
,
0001
1000
0100
1000
,
0001
0010
0001
0010
,
0100
0010
0001
1000
,
0100
0010
0100
0010
,
1000
0001
0100
0010
,
1000
0001
1000
0000
0100
0000
0010
0000
,
1000
0001
0010
0001
,
0100
0010
0100
0000
0010
0000
0001
0000
,
1000
0001
0000
0110
,
0000
0100
0001
1000
,
0010
0100
0010
1000
,
0001
0100
0010
1000
,
0001
1000
0100
0010
,
0001
0010
0001
0000
0100
0000
0001
0000
,
1000
0010
0001
1000
,
0010
1000
0100
0010
,
0001
2000
0000
3000
,
0000
0100
0100
0010
,
0010
0100
0010
1000
,
0010
1000
1000
0001
,
0001
0000
1000
0000
0010
0000
0100
0001
,
1000
0001
0100
0000
0100
0000
0001
0000
,
0001
0010
0100
1000
,
0100
1000
1000
0010
,
0010
0100
0010
0000
0000
0000
1001
0000
,
0000
0001
0001
0100
,
0100
0001
0010
1000
,
0001
0010
0010
1000
,
1000
0000
0100
0000
0001
0000
1000
0010
,
0100
0010
1000
0000
0001
0000
0010
0000
,
0001
0100
1000
0010
,
0100
0010
0010
0100
,
0100
0000
0001
0000
0000
0010
0000
0000
,
0100
0220
0000
0330
,
0000
2020
0000
3030
,
0100
0202
0000
0303
,
0001
0000
2002
0000
3000
0010
0000
0010
,
0003
2200
0000
3300
,
1000
2020
0000
3030
,
0000
0210
0020
0330
,
0001
0021
0002
0033
,
0000
1000
0010
0001
,
0010
0100
0001
0010
,
0001
1000
1000
0010
,
0010
0000
0100
0000
0001
0000
1000
0010
,
1000
0001
0001
0100
,
0100
0010
0100
0001
,
1000
0100
0110
0000
;

//---------------dance-single - ----------------
#NOTES:
     dance-single:
     :
     Easy:
     4:
     0.233405,0.282030,0.146958,0.077802,0.000000,189.000000,172.000000,17.000000,9.000000,0.000000,0.000000,0.233405,0.282030,0.146958,0.077802,0.000000,189.000000,172.000000,17.000000,9.000000,0.000000,0.000000:
0000
0000
0000
0000
,
0000
0000
0000
0000
,
0000
0000
0000
0000
,
0000
0000
0000
0000
,
1001
0000
0001
0000
,
1000
0000
0001
0000
,
0110
0000
0100
0000
,
0010
0000
0100
0000
,
1100
0000
1000
0000
,
0100
0000
1000
0000
,
0101
0000
0100
0000
,
0001
0000
0100
0000
,
0011
0000
0001
0000
,
0010
0000
0001
0000
,
1010
0000
0010
0000
,
1000
0000
0010
0000
,
2000
3000
0002
0003
,
2000
3000
0010
0100
,
0020
0030
0200
0300
,
0020
0030
1000
0001
,
1000
0000
1000
0000
,
0001
0000
0001
0000
,
0010
0100
0001
0100
,
0010
0000
0010
0000
,
1000
0001
1000
0000
,
0100
0010
0100
0000
,
1001
0010
1000
0010
,
0000
0100
0010
0100
,
0000
0001
0100
0001
,
0000
1000
0010
1000
,
1000
0001
1000
0001
,
0000
0010
0001
0010
,
0000
0100
0010
1000
,
0100
2000
0000
3000
,
0000
0010
0001
0010
,
0000
1000
0010
1000
,
0000
0001
1000
0001
,
0000
0100
0010
0100
,
0100
1000
0100
1000
,
0000
0001
0010
0001
,
0000
0010
0001
0010
,
0100
0020
0000
0030
,
0000
1000
0000
1000
,
0000
0010
0000
0010
,
0000
0100
0000
0010
,
0000
1000
0010
0100
,
0010
0001
0000
0001
,
0000
1000
0000
1000
,
0000
0010
0000
0100
,
0000
0010
0001
1000
,
0001
0100
0000
0100
,
0000
0001
0000
0001
,
0000
0100
0000
0010
,
0000
0100
1000
0010
,
1000
0001
0000
0001
,
0000
0100
0000
0100
,
0000
0010
0000
1000
,
0000
0200
0000
0300
,
0000
0011
0000
0010
,
0000
1001
0000
1000
,
0000
0101
0000
0010
,
0000
0110
0000
0010
,
0000
1010
0000
1000
,
0000
1100
0000
0100
,
0000
0011
0000
0001
,
0000
0101
0000
0100
,
0000
0010
0100
0010
,
0000
1000
0010
1000
,
0000
0001
0100
1000
,
0100
0001
0000
0001
,
0000
0010
1000
0010
,
0000
0001
0100
0001
,
0000
0110
1001
0000
;

//---------------dance-single - ----------------
#NOTES:
     dance-single:
     :
     Beginner:
     2:
     0.145723,0.250694,0.060512,0.069157,0.000000,118.000000,111.000000,7.000000,8.000000,0.000000,0.000000,0.145723,0.250694,0.060512,0.069157,0.000000,118.000000,111.000000,7.000000,8.000000,0.000000,0.000000:
// measure 0
0000
0000
0000
0000
,  // measure 1
0000
0000
0000
0000
,  // measure 2
0000
0000
0000
0000
,  // measure 3
0000
0000
0000
0000
,  // measure 4
1000
0000
1000
0000
,  // measure 5
1000
0000
1000
0000
,  // measure 6
0001
0000
0001
0000
,  // measure 7
0001
0000
0001
0000
,  // measure 8
0100
0000
0100
0000
,  // measure 9
0100
0000
0100
0000
,  // measure 10
0010
0000
0010
0000
,  // measure 11
0010
0000
0010
0000
,  // measure 12
1000
0000
1000
0000
,  // measure 13
0010
0000
0010
0000
,  // measure 14
0001
0000
0001
0000
,  // measure 15
0100
0000
0100
0000
,  // measure 16
1001
0000
0001
0000
,  // measure 17
0110
0000
0100
0000
,  // measure 18
1001
0000
1000
0000
,  // measure 19
0110
0000
0010
0000
,  // measure 20
0001
0000
0000
0000
,  // measure 21
1000
0000
0000
0000
,  // measure 22
0010
0000
0000
0000
,  // measure 23
0100
0000
0000
0000
,  // measure 24
0001
0000
0001
0000
,  // measure 25
1000
0000
1000
0000
,  // measure 26
0001
0010
0000
0010
,  // measure 27
0000
0100
0000
0100
,  // measure 28
0000
0010
0000
0010
,  // measure 29
0000
0100
0000
0100
,  // measure 30
0000
1000
0000
1000
,  // measure 31
0000
0001
0000
0001
,  // measure 32
0000
1000
0000
1000
,  // measure 33
0000
0001
0000
0000
,  // measure 34
0000
0100
0000
0100
,  // measure 35
0000
0010
0000
0010
,  // measure 36
0000
0001
0000
0001
,  // measure 37
0000
1000
0000
1000
,  // measure 38
0000
0001
0000
0001
,  // measure 39
0000
0010
0000
0010
,  // measure 40
0000
0100
0000
0100
,  // measure 41
0000
0100
0000
0000
,  // measure 42
0000
1001
0000
0000
,  // measure 43
0000
0001
0000
0000
,  // measure 44
0000
1000
0000
0000
,  // measure 45
0000
0001
0000
0001
,  // measure 46
0000
0001
0000
0000
,  // measure 47
0000
0010
0000
0000
,  // measure 48
0000
0100
0000
0000
,  // measure 49
0000
0010
0000
0000
,  // measure 50
0000
0110
0000
0000
,  // measure 51
0000
0010
0000
0000
,  // measure 52
0000
0100
0000
0000
,  // measure 53
0000
0010
0000
0010
,  // measure 54
0000
0010
0000
0000
,  // measure 55
0000
0001
0000
0000
,  // measure 56
0000
1000
0000
0000
,  // measure 57
0000
0001
0000
0000
,  // measure 58
0000
0200
0000
0300
,  // measure 59
0000
0200
0000
0300
,  // measure 60
0000
0020
0000
0030
,  // measure 61
0000
0020
0000
0030
,  // measure 62
0000
2000
0000
3000
,  // measure 63
0000
2000
0000
3000
,  // measure 64
0000
0002
0000
0003
,  // measure 65
0000
0002
0000
0003
,  // measure 66
0000
0010
0000
0010
,  // measure 67
0000
1000
0000
1000
,  // measure 68
0000
0001
0000
0001
,  // measure 69
0000
0100
0000
0100
,  // measure 70
0000
0010
0000
0010
,  // measure 71
0000
0100
0000
0100
,  // measure 72
0000
0010
1001
0000
;
