#TITLE:Universe;
#SUBTITLE:;
#ARTIST:Hommarju;
#TITLETRANSLIT:;
#SUBTITLETRANSLIT:;
#ARTISTTRANSLIT:;
#GENRE:;
#CREDIT:;
#MUSIC:Universe.ogg;
#BANNER:Universe.png;
#BACKGROUND:Universe-bg.png;
#CDTITLE:;
#SAMPLESTART:67.199;
#SAMPLELENGTH:15.000;
#SELECTABLE:YES;
#OFFSET:-0.209;
#BPMS:0.000=169.986
,60.000=85.000
,92.000=170.000
;
#STOPS:;
#ORIGIN:;
#PREVIEWVID:;
#JACKET:Universe-jacket.png;
#CDIMAGE:;
#DISCIMAGE:;
#BGCHANGES:;
#FGCHANGES:;

//--------------- dance-single - ----------------
#NOTES:
     dance-single:
     :
     Beginner:
     2:
     0,0,0,0,0:
0000
0000
0000
0000
,
0000
0000
0000
0000
,
0000
0000
0000
0000
,
0000
0000
0000
0000
,
0000
0000
0000
0000
,
0000
0000
0000
0000
,
0000
0000
0000
0000
,
0000
0000
0000
0000
,
1000
0000
0000
0000
,
1000
0000
0000
0000
,
0001
0000
0000
0000
,
0001
0000
0000
0000
,
0100
0000
0100
0000
,
0010
0000
0010
0000
,
0100
0000
0010
0000
,
0110
0000
0002
0000
,
0003
0000
2000
0000
,
3000
0000
0002
0000
,
0000
0000
0003
0000
,
0000
0000
0020
0000
,
0030
0000
0200
0000
,
0300
0000
0020
0000
,
0000
0000
0030
0000
,
0000
0000
0000
0000
,
1001
0000
0000
0000
,
0001
0000
0000
0000
,
1000
0000
0000
0000
,
0001
0000
0000
0000
,
0100
0000
0000
0000
,
0010
0000
0000
0000
,
0100
0000
0000
0000
,
0010
0000
0000
0000
,
1000
0000
1000
0000
,
0001
0000
0001
0000
,
0010
0000
0010
0000
,
0100
0000
0100
0000
,
0001
0001
0001
0000
,
0010
0010
0010
0000
,
1000
1000
1000
0000
,
0200
0000
0300
0000
,
0010
0000
0010
0000
,
0020
0000
0030
0000
,
0001
0000
0001
0000
,
0002
0000
0003
0000
,
1000
0000
1000
0000
,
2000
0000
3000
0000
,
0100
0000
0100
0000
,
0100
0000
0110
0000
,
0000
0000
0001
0000
,
0002
0000
0003
0000
,
0100
0000
0100
0000
,
0200
0000
0300
0000
,
1000
0000
1000
0000
,
2000
0000
3000
0000
,
0010
0000
0010
0000
,
0010
0010
0010
0000
,
1000
0000
0001
0000
,
1000
1000
1000
0000
,
0100
0000
0010
0000
,
0100
0100
0100
0000
,
0001
0000
1000
0000
,
0002
0000
0003
0000
,
1000
0000
0010
0000
,
1000
1000
1000
0000
,
0100
0000
0001
0000
,
0100
0100
0100
0000
,
0010
0000
0001
0000
,
0010
0010
0010
0000
,
0100
0000
1000
0000
,
0200
0000
0300
0000
,
0001
0000
0001
0000
,
1000
0000
1001
0000
,
0110
0000
0000
0000
;

//--------------- dance-single - ----------------
#NOTES:
     dance-single:
     :
     Easy:
     4:
     0,0,0,0,0:
0000
0000
0000
0000
,
0000
0000
0000
0000
,
0000
0000
0000
0000
,
0000
0000
0000
0000
,
0000
0000
0000
0000
,
0000
0000
0000
0000
,
0000
0000
0000
0000
,
0000
0000
0000
0000
,
0100
0000
0010
0100
,
0001
0000
1000
0001
,
0010
0000
0001
0010
,
1000
0000
0100
1000
,
0100
0100
0001
0001
,
0010
0010
1000
1000
,
0001
1000
0010
0100
,
0110
0000
2000
3000
,
0002
2003
3020
0030
,
0200
0000
0000
0000
0300
0002
0000
0000
0203
0000
0000
0000
0300
0000
0000
0000
,
0020
0030
2002
0000
,
3003
0000
2000
3000
,
0200
0302
0023
0030
,
2000
0000
0000
0000
3000
0200
0000
0000
2300
0000
0000
0000
3000
0000
0000
0000
,
0002
0003
0220
0330
,
0010
0010
0010
0010
,
0000
0100
1000
0001
,
0000
0010
0001
0010
,
0000
0100
1000
0100
,
0000
0010
0100
0010
,
0000
1000
0001
0100
,
0000
0010
1000
0010
,
0000
1000
0001
1000
,
0000
0001
0010
0001
,
0100
1000
0010
0100
,
0001
0010
0100
0010
,
1000
0100
0010
0001
,
0010
0100
0001
0010
,
1000
1000
0001
0001
,
0100
0100
0010
0010
,
1000
0010
0100
0001
,
1001
1001
0100
0010
,
0100
0001
1000
2000
,
0000
3000
0010
1000
,
0010
0100
0010
0002
,
0000
0003
0010
0010
,
0100
0010
1000
0020
,
0000
0030
0000
0100
,
0001
1000
0001
0200
,
0000
0300
0010
1000
,
0000
1001
0001
0020
,
0000
0030
0100
1000
,
0100
0001
0010
0200
,
0000
0300
0001
0010
,
0001
0100
0010
2000
,
0000
3000
0000
0100
,
0010
0100
0001
2000
,
3001
0010
0001
0000
,
0100
0100
1000
0010
,
1000
0001
1000
0000
,
0010
0010
0001
0100
,
0010
1000
0010
0000
,
1000
1000
0001
0100
,
0001
0020
0030
0100
,
1000
0100
1000
0020
,
0130
0001
0100
0000
,
1000
0010
1000
0100
,
0010
0100
0001
0000
,
0001
1000
0100
0010
,
1000
0001
0010
0000
,
0001
0100
0001
0010
,
1000
0002
0003
0010
,
0100
0010
0001
0100
,
1000
1000
0001
1000
,
1001
0000
0000
0000
;

//--------------- dance-single - ----------------
#NOTES:
     dance-single:
     :
     Medium:
     7:
     0,0,0,0,0:
0000
0000
0000
0000
,
0000
0000
0000
0000
,
0000
0000
0000
0000
,
0000
0000
0000
0000
,
0000
0000
0000
0000
,
0000
0000
0000
0000
,
0000
0000
0000
0000
,
0000
0000
0000
0000
,
0010
1000
0010
0100
,
0001
1000
0100
0010
,
0100
0001
0010
0001
,
0100
0010
1000
0100
,
1000
0000
0001
1000
0001
0000
0010
0001
,
0010
0000
0100
0010
0100
0000
1000
0100
,
1000
0001
0010
0000
0100
0010
0000
0001
,
2001
0000
3000
0000
0010
0000
0100
0000
0010
0000
1000
0001
1000
0000
0020
0000
,
0030
0000
0000
0000
0001
0000
0100
0000
0001
0000
1000
0010
1000
0000
0002
0000
,
0003
0000
0000
0000
0100
0000
1000
0000
0001
0000
0100
0001
0100
0000
0100
0020
,
0000
0030
0220
0000
,
0330
0000
0000
0000
0001
0000
1000
0000
0010
0000
0100
0001
0100
0000
2000
0000
,
3000
0000
0000
0000
0100
0000
0001
0000
0010
0000
0100
0010
0100
0000
2000
0000
,
3000
0000
0000
0000
0001
0000
0010
0000
0001
0000
1000
0001
1000
0000
1000
0200
,
0000
0300
2002
3003
,
0010
0000
0010
0000
0010
0100
0001
0000
,
0000
0000
1000
0000
0001
0000
1000
0010
,
0000
0000
0100
0000
0010
0000
0100
0001
,
0000
0000
0010
0000
0001
0000
0010
0100
,
0000
0000
0100
0000
0001
0000
0100
0010
,
0000
0000
0001
0000
0100
0000
0001
1000
,
0000
0000
0010
0000
1000
0000
0010
0100
,
0000
0000
1000
0000
0001
0000
1000
0010
,
0000
0000
0100
0000
1000
0000
0100
0010
,
0001
0000
0100
0000
0010
0000
1000
0010
,
1000
0000
0100
0000
0001
0000
0010
0001
,
0010
0000
1000
0000
0001
0000
0100
1000
,
0100
0000
0010
0000
1000
0000
0001
1000
,
0001
0010
0001
0000
0010
0100
0010
0000
,
0100
1000
0100
0000
1000
0001
1000
0000
,
0100
0010
0100
1000
0001
1000
0010
0000
,
0100
0000
0110
0000
0010
1000
0010
0000
,
1000
0000
0001
0000
1000
0001
2000
0000
,
3010
0000
0100
0000
0001
0100
0001
0000
,
0010
0000
0001
0000
0100
1000
0200
0000
,
0310
0000
0001
0000
0010
1000
0010
0000
,
0100
0000
1000
0000
0001
0010
0002
0000
,
0103
0000
1000
0000
0010
0000
0100
0001
,
0000
1000
0000
0001
0100
0010
0200
0000
,
0301
0000
1000
0000
0001
0010
0100
0010
,
0000
0000
1001
0000
0010
0100
0020
0000
,
0031
0000
0100
0000
0001
1000
0001
0000
,
0100
0000
0010
0000
0100
0001
0200
0000
,
0310
0000
1000
0000
0010
0100
0010
0000
,
1000
0000
0001
0000
0010
0001
0020
0000
,
0130
0000
0001
0000
1000
0000
0001
0100
,
0000
0010
0000
0100
1000
0010
2000
0000
,
3100
0000
0100
0000
0001
0010
0001
0000
,
1000
0000
0100
0000
1000
0010
1000
0000
,
0001
0000
0001
0000
0010
0100
0010
0000
,
1000
0000
0001
0000
1000
0100
1000
0000
,
0010
0000
0010
0000
0001
1000
0001
0000
,
0100
0000
0010
0000
0100
0001
0100
0000
,
1000
2000
3010
0100
,
0100
0000
0010
0000
1000
0001
1000
0100
,
0001
0000
0010
0000
0001
1000
0010
1000
,
0100
0000
0010
0000
0100
0001
1000
0001
,
0010
0000
1000
0000
0010
0100
0001
0100
,
0001
0000
1000
0000
0001
1000
0010
1000
,
0100
0000
0001
0000
0100
0001
1000
0001
,
0010
0000
0100
0000
0010
0001
1000
0001
,
0100
0000
0200
0000
0310
0000
0001
1000
,
0000
0001
0000
0010
0100
0010
0001
0000
,
1000
0100
0001
0010
,
1001
0000
0000
0000
;

//--------------- dance-single - ----------------
#NOTES:
     dance-single:
     :
     Hard:
     10:
     0.578306,0.843084,0.100367,0.23419,0.305284,484,472,12,28,0,0,0,0,0,0.578306,0.843084,0.100367,0.23419,0.305284,484,472,12,28,0,0,0,0,0:
0000
0000
0000
0000
,
0000
0000
0000
0000
,
0000
0000
0000
0000
,
0000
0000
0000
0000
,
0000
0000
0000
0000
,
0000
0000
0000
0000
,
0000
0000
0000
0000
,
0000
0000
0000
0000
,
1000
0000
0000
0001
0000
0000
0100
0000
0010
0000
0000
1000
0000
0000
0100
0000
,
1000
0000
0000
0001
0000
0000
0010
0000
0100
0000
0000
1000
0000
0000
0010
0000
,
0100
0000
0000
0001
0000
0000
1000
0000
0001
0000
0000
0100
0000
0000
0010
0000
,
1000
0000
0000
0010
0000
0000
0100
0000
0010
0000
0000
1000
0000
0000
0001
0000
,
1000
0000
0100
0000
0010
0100
0010
0100
0010
0000
0001
0000
1000
0001
1000
0001
,
1000
0000
0010
0000
0100
0010
0100
0010
0100
0000
0001
0000
0010
0001
0010
0001
,
0010
0100
1000
0100
1000
0000
0001
0100
0001
0000
0010
0000
0000
0000
0100
0000
,
0220
0000
0330
0000
1000
0010
0010
1000
1001
0000
1000
0100
1000
0000
0002
0000
,
0003
0000
0000
0000
0100
0010
0010
0100
0101
0000
1000
0001
1000
0000
0020
0000
,
0030
0000
0000
0000
0100
0001
0001
0100
0110
0000
0010
1000
0010
0000
0100
0002
,
0000
0003
2002
0000
,
3003
0000
0000
0100
0010
1000
1000
0001
1001
0000
0010
1000
0010
0000
0200
0000
,
0300
0000
0000
0000
0001
0010
0010
0001
0101
0000
0010
1000
0010
0000
1000
0002
,
0000
0003
0000
0000
1000
0010
0010
1000
1100
0000
1000
0001
1000
0000
0010
0200
,
0000
0000
0300
0000
0220
0000
0000
0330
,
0001
1000
0001
1000
0001
0000
0010
0001
0010
0000
0001
0000
1000
0000
0100
0000
,
1100
1000
0001
0100
0010
0100
0010
1000
,
0000
0001
0000
1000
0100
0010
0001
1000
,
0000
0010
0100
0010
1000
0010
0100
0001
,
0000
0010
0000
0001
0010
0001
1000
0100
,
0000
1000
0010
0100
0001
1000
0001
0010
,
0000
0100
0000
0010
0001
0100
0010
1000
,
0000
0001
1000
0001
0100
0010
1000
0001
,
0000
0100
0000
0001
1000
0100
0010
0001
,
0010
0001
0100
0001
0010
0100
1000
0100
,
1000
0010
0100
0010
1000
0001
0010
0001
,
1000
0010
0100
0001
0010
0100
1000
0100
,
1000
0001
0010
0001
0100
0010
1000
0001
,
0100
0000
0010
0000
1000
0010
1000
0010
1000
0000
0001
0000
0010
0001
0010
0001
,
0010
0000
0100
0000
1000
0100
1000
0100
1000
0000
0001
0000
0100
0001
0100
0001
,
0100
0010
1000
0010
1000
0000
0001
1000
0001
0100
0010
0100
0010
1000
0010
0000
,
0100
0001
1000
0010
1000
0100
1000
0010
,
0200
0000
0301
0010
0100
0010
0002
1000
,
0000
1000
0003
0010
1000
0010
0100
0010
,
2000
0000
3100
0010
0001
0010
0200
1000
,
0000
1000
0300
0010
1000
0010
0100
0001
,
2000
0000
3010
0100
0001
1000
0020
0100
,
0000
0100
0030
0001
1000
0010
0100
0010
,
0000
1000
0000
0010
0100
0001
1000
0200
,
0000
0010
0000
0310
0001
1000
0001
0100
,
0000
0010
0110
0100
0001
1000
0020
0100
,
0000
0100
0030
0001
0010
0100
0010
0001
,
2000
0000
3010
0100
0001
0010
0200
1000
,
0000
1000
0300
0001
1000
0100
0010
0100
,
2000
0000
3001
0100
0010
0100
0002
1000
,
0000
1000
0003
0100
0010
0001
0100
0010
,
0000
0100
0000
0001
0010
0001
1000
0010
,
0100
0000
0000
0100
0000
0000
0001
0000
0010
0000
0002
0000
0000
0000
0003
0000
,
1000
0000
0000
1000
0000
0000
0010
0000
0100
0000
0001
0000
0010
0000
0100
0000
,
0010
0000
0000
0010
0000
0000
0001
0000
1000
0000
0002
0000
0000
0000
0003
0000
,
0100
0000
0000
0100
0000
0000
0010
0000
1000
0000
0001
0000
0010
0000
0100
0000
,
1000
0000
0000
1000
0000
0000
0010
0000
0100
0000
0020
0000
0000
0000
0030
0000
,
0100
0000
0000
0100
0000
0000
0001
0000
0010
0000
0100
0000
1000
0000
0010
0000
,
0100
0020
0000
0000
0030
0000
1000
0001
,
0000
0100
0000
0001
0100
0010
1000
0001
,
1000
0000
0000
1000
0000
0000
0010
0000
0100
0000
0010
0000
1000
0000
0010
0000
,
0100
0000
0000
0001
0100
0000
0010
0000
1000
0000
0100
0000
1000
0000
0001
0000
,
0010
0000
0000
0100
0010
0000
0001
0000
1000
0000
0010
0000
0100
0000
0010
0000
,
1000
0000
0000
0001
1000
0000
0010
0000
0100
0000
0001
0000
1000
0000
0010
0000
,
0100
0000
0000
0010
0100
0000
0001
0000
0010
0000
0001
0000
0100
0000
0010
0000
,
1000
0000
0000
0010
1000
0000
0010
0000
0100
0000
0001
0000
1000
0000
0010
0000
,
1000
2000
0000
0000
3000
0000
0100
0010
,
0000
0100
0000
1000
0010
0100
0001
1000
,
0010
0100
0010
0100
0010
1000
0100
0000
1000
0000
0001
0000
0010
0000
0100
0000
,
0110
0000
0000
0000
;
