#TITLE:OMG;
#SUBTITLE:;
#ARTIST:Arash Ft. Snoop Dogg;
#TITLETRANSLIT:;
#SUBTITLETRANSLIT:;
#ARTISTTRANSLIT:;
#CREDIT:SupremeX;
#BANNER:OMG-bn.png;
#BACKGROUND:OMG-bg.png;
#LYRICSPATH:;
#CDTITLE:cdtitle.png;
#MUSIC:OMG.ogg;
#OFFSET:-0.202;
#SAMPLESTART:41.420;
#SAMPLELENGTH:12.000;
#SELECTABLE:YES;
#BPMS:0.000=114.090;
#STOPS:;
#BGCHANGES:;

//---------------dance-single - ----------------
#NOTES:
     dance-single:
     :
     Hard:
     8:
     0.467,0.457,0.171,0.086,0.105: // measure 1
0000
0000
0000
0000
,  // measure 2
0000
0000
0000
0000
,  // measure 3
0000
0000
0000
0000
,  // measure 4
0000
0000
0000
0000
,  // measure 5
1000
0000
0000
1000
0000
0000
0100
0000
0010
0000
0001
0000
1000
0000
0010
0000
,  // measure 6
0100
0000
0000
0100
0000
0000
0100
0000
0001
0000
1000
0000
0010
0000
0100
0000
,  // measure 7
0001
0000
0000
0001
0000
0000
0001
0000
1000
0000
0100
0000
1000
0000
0100
0000
,  // measure 8
0010
0000
0000
0010
0000
0000
0010
0000
0001
0000
1000
0000
0010
0000
0000
0000
,  // measure 9
0010
1000
0100
0010
0001
0010
0011
0000
,  // measure 10
0100
1000
0100
0010
0001
0100
0110
0001
,  // measure 11
1000
0000
0010
0000
1000
0000
0001
0000
0010
0000
0100
0010
0000
0000
0100
0000
,  // measure 12
0001
1000
0100
0010
0001
1000
1100
0000
,  // measure 13
0010
0001
0010
0100
1000
0001
1100
0000
,  // measure 14
1000
1000
0100
0010
0001
1000
0100
1000
,  // measure 15
0001
0001
1010
0100
0001
0010
0100
1000
,  // measure 16
0100
0000
0000
0100
0000
0000
0100
0000
0010
0000
0001
0000
0011
0000
0100
0000
,  // measure 17
1000
0100
1000
0001
0100
0001
0100
0100
,  // measure 18
0100
0010
1000
0001
0100
0010
1000
1000
,  // measure 19
1000
0100
0010
0001
1000
0010
0100
0001
,  // measure 20
2000
0000
3020
0000
0130
0010
0100
0001
,  // measure 21
0010
0100
1000
1000
0000
0010
0100
0001
,  // measure 22
0100
0000
0010
0000
0100
0000
0100
0000
0001
0000
0000
0001
0010
0000
0100
0000
,  // measure 23
1000
0100
0010
0100
0000
1000
1000
0001
,  // measure 24
0200
0000
0010
0310
1000
0001
1000
0000
,  // measure 25
0010
0100
0010
2000
0000
3100
1000
0100
,  // measure 26
0010
0000
0001
0000
1000
0000
0001
0000
0010
0000
0000
0110
0000
0000
1000
0000
,  // measure 27
0100
1000
0100
0020
0000
0031
0010
0100
,  // measure 28
2000
0000
3010
0100
0010
1000
0010
0100
,  // measure 29
0001
0000
0000
0001
0000
0000
0001
0000
1000
0000
0100
0000
0010
0000
0100
0000
,  // measure 30
1000
0000
0000
1000
0000
0000
1000
0000
0100
0000
0010
0000
0001
0000
0010
0000
,  // measure 31
0001
0000
0000
0001
0000
0000
0001
0000
0100
0000
0010
0000
1000
0000
0010
0000
,  // measure 32
0100
0000
0000
0100
0000
0000
0100
0000
0010
0000
1000
0000
0001
0000
1000
0000
,  // measure 33
1100
0000
0110
0000
0001
1000
0100
1000
,  // measure 34
0100
0000
0000
0110
0000
0000
0001
0000
0100
0000
0001
0000
1000
0000
0001
0000
,  // measure 35
0100
0000
0010
0100
0010
0000
1000
0000
0100
0000
0010
0000
0001
0000
0010
0000
,  // measure 36
0100
1000
0010
0100
0010
1000
0100
0000
,  // measure 37
0011
0000
0000
0110
0000
0000
1000
0000
0100
0000
0010
0000
0001
0000
0010
0000
,  // measure 38
0100
0000
0000
1100
0000
0000
0110
0000
0001
0000
1000
0000
0100
0000
1000
0000
,  // measure 39
0101
0000
0000
1010
0000
0000
0101
0000
0010
0000
0010
0000
0010
0000
0000
0000
,  // measure 40
1000
1000
1000
0000
0010
1000
0001
1000
,  // measure 41
0200
0000
0310
0000
0100
0100
0100
0001
,  // measure 42
1000
0000
0010
0100
0010
0000
1000
0000
0010
0000
0100
0000
0001
0000
1000
0000
,  // measure 43
0100
0000
0010
0100
0010
0000
0001
0000
1000
0000
1000
0000
1000
0000
0000
0000
,  // measure 44
0010
0100
0010
1000
0100
0010
0100
1000
,  // measure 45
0001
0000
0000
0001
0000
0000
0001
0000
0010
0000
0100
0000
0010
0000
0001
0000
,  // measure 46
1000
0000
0000
1000
0000
0000
1000
0000
0010
0000
0100
0000
0001
0000
1000
0000
,  // measure 47
0010
0000
0000
0010
0000
0000
0010
0000
0100
0000
0001
0000
1000
0000
0010
0000
,  // measure 48
0100
0100
0100
0001
1000
0010
2002
0000
,  // measure 49
3003
0000
0000
0000
;

//---------------dance-single - ----------------
#NOTES:
     dance-single:
     :
     Medium:
     7:
     0.324,0.341,0.067,0.000,0.000:
0000
0000
0000
0000
,
0000
0000
0000
0000
,
0000
0000
0000
0000
,
0000
0000
0000
0000
,
1000
0100
0010
0100
1000
0001
0100
0001
,
1000
0000
1000
0000
0100
0010
0001
1000
,
0001
0000
0100
0000
0010
0100
0010
1000
,
0001
1000
0100
1000
,
0001
0000
0100
0000
0001
0010
0100
0000
,
1000
0000
1000
0000
0100
0010
0001
0000
,
1000
0000
0100
0000
1000
0001
1000
0000
,
0010
0000
0010
0000
0100
0001
1000
0000
,
1000
0000
0110
0000
0001
1000
0001
0000
,
0100
0000
1001
0000
0010
0100
0010
0000
,
1000
0000
0110
0000
1000
0001
0100
0000
,
0100
0000
0001
0000
1000
0010
0100
0000
,
0100
0001
1000
0001
0000
0000
1000
0000
,
1000
0100
0010
0001
0000
0000
1000
0000
,
0010
0100
0010
0100
0001
0000
1000
0000
,
0010
0100
0010
1000
,
0001
0000
0100
0010
0000
1000
0001
0000
,
1000
0000
0001
0100
0000
0100
0000
0000
,
0001
0001
1000
0100
,
1000
0000
0001
0010
0100
0000
1000
0000
,
0100
0000
0010
0001
0000
0001
0010
0000
,
0100
0000
1000
1000
0000
0001
0100
0000
,
0100
0000
0001
1000
0000
1000
0001
0000
,
0100
0000
0100
0010
0100
0000
0001
0000
,
1000
0000
1000
0000
0010
0100
0010
0100
,
0100
0000
0001
0000
1000
0001
1000
0010
,
0010
0000
0100
0000
0001
1000
0001
1000
,
1000
0010
0100
0001
,
1000
0000
1000
0000
0010
0100
0001
0000
,
1100
0000
0011
0000
1000
0100
0010
0000
,
1001
0000
0110
0000
1000
0001
1000
0000
,
0010
0100
0010
0000
1000
0001
0100
0000
,
0100
0000
0010
0000
0010
1000
0001
0010
,
0100
0000
0100
0000
1000
0001
0100
0001
,
1000
0000
1000
0000
0100
0010
0001
0000
,
0001
0010
0100
0000
1000
0100
1000
0000
,
0001
0000
0100
0000
0010
0010
0010
0000
,
1000
0000
0001
0000
0100
0100
0100
0000
,
0010
0000
1000
0000
0001
0001
0001
0000
,
0010
0000
0100
0000
1000
0100
1000
0000
,
0100
0000
0100
0000
0010
0001
0010
0100
,
0100
0000
1000
0000
0100
0010
0001
0010
,
0010
0000
0100
0000
1000
0100
1000
0001
,
0001
0000
0010
0000
0100
1000
0100
0000
;

//---------------dance-single - ----------------
#NOTES:
     dance-single:
     :
     Easy:
     3:
     0.227,0.227,0.038,0.029,0.000:
0000
0000
0000
0000
,
0000
0000
0000
0000
,
0000
0000
0000
0000
,
0000
0000
0000
0000
,
0100
0010
1000
1000
,
0001
0100
0010
0010
,
1000
0001
0100
0100
,
0001
1000
0001
0001
,
1000
1000
0010
0100
,
0001
1000
0010
0110
,
0001
1000
0010
0100
,
0001
1000
0001
1001
,
1000
1000
0010
0010
,
0100
0100
0001
0001
,
1000
0010
1000
1000
,
0001
0100
0001
0001
,
1000
0010
0100
0100
,
0010
0010
1000
0001
,
0100
0100
0010
0010
,
1000
0001
1001
0100
,
0010
0001
0001
1000
,
0010
0000
0100
0100
0000
0000
0000
0000
,
0001
1000
0010
0100
,
0001
0000
0000
1000
0000
0000
0010
0000
,
0100
0000
0001
0001
0000
0000
0000
0000
,
1000
0000
0010
0010
0000
0000
0000
0000
,
0100
0001
0010
0100
,
1000
0010
0100
0100
,
0002
0000
0000
0000
0000
0000
0000
0003
,
2000
0000
0000
0000
0000
0000
0000
3000
,
0020
0000
0000
0030
,
0100
0100
0100
0100
,
0100
0000
0001
0000
1000
1000
1000
0000
,
0000
0000
0000
0000
0010
0010
0010
0000
,
0000
0000
0000
0000
0100
0100
0100
0000
,
0001
0000
1000
0000
,
0001
0001
0010
0010
,
0100
0100
1000
1000
,
0001
0100
0010
0010
,
1000
1000
0001
0001
,
0100
0010
0100
0100
,
0001
1000
0010
0010
,
1000
0001
0100
0100
,
0001
1000
0010
0010
,
0100
0001
1000
1000
,
0010
0100
0001
0001
,
1000
0010
0100
0001
,
0010
0100
1000
1100
;

//---------------dance-single - Copied from----------------
#NOTES:
     dance-single:
     Copied from:
     Beginner:
     2:
     0.075,0.113,0.000,0.029,0.000:
0000
0000
0000
0000
,
0000
0000
0000
0000
,
0000
0000
0000
0000
,
0000
0000
0000
0000
,
0000
0001
0000
0000
,
0000
0100
0000
0000
,
0000
0001
0000
0000
,
0000
0100
0000
0000
,
0010
0000
0000
0000
,
1000
0000
0000
0000
,
0010
0000
0000
0000
,
1000
0000
0000
0000
,
0001
0000
0000
0000
,
0100
0000
0000
0000
,
0001
0000
0000
0000
,
0100
0000
0000
0000
,
0010
0000
0000
0000
,
0010
0000
0000
0000
,
1000
0000
0000
0000
,
0001
0000
0000
0000
,
0100
0000
0000
0000
,
0100
0000
0000
0000
,
0010
0000
0000
0000
,
0010
0000
0000
0000
,
1000
0000
0000
0000
,
1000
0000
0000
0000
,
0001
0000
0000
0000
,
0001
0000
0000
0000
,
2000
0000
0000
0000
,
0000
0000
0000
0000
0000
0000
0000
3000
,
0000
0000
0000
0000
,
0010
0000
0000
0000
,
0010
0000
0100
0000
,
0000
0000
0001
0000
,
0000
0000
0001
0000
,
0001
0000
0001
0000
,
1000
0000
1000
0000
,
1000
0000
1000
0000
,
0010
0000
0010
0000
,
0010
0000
0010
0000
,
0100
0000
0100
0000
,
0100
0000
0100
0000
,
0001
0000
0001
0000
,
0001
0000
0001
0000
,
2000
0000
0000
0000
,
3000
0000
0000
0000
,
0020
0000
0000
0000
0000
0000
0000
0030
,
0100
0000
0100
0000
;
