#VERSION:0.83;
#TITLE:O/D*20;
#SUBTITLE:;
#ARTIST:Ryu*;
#TITLETRANSLIT:;
#SUBTITLETRANSLIT:;
#ARTISTTRANSLIT:;
#GENRE:;
#ORIGIN:;
#CREDIT:;
#BANNER:[Starts with Vowels] - OD20.png;
#BACKGROUND:[Starts with Vowels] - OD20-bg.png;
#PREVIEWVID:;
#JACKET:[Starts with Vowels] - OD20-jacket.png;
#CDIMAGE:;
#DISCIMAGE:;
#LYRICSPATH:;
#CDTITLE:;
#MUSIC:OD20.mp3;
#OFFSET:-1.385000;
#SAMPLESTART:7.558548;
#SAMPLELENGTH:12.387098;
#SELECTABLE:YES;
#BPMS:0.000=155.000;
#STOPS:;
#DELAYS:;
#WARPS:;
#TIMESIGNATURES:0.000=4=4;
#TICKCOUNTS:0.000=4;
#COMBOS:0.000=1;
#SPEEDS:0.000=1.000=0.000=0;
#SCROLLS:0.000=1.000;
#FAKES:;
#LABELS:0.000=Song Start;
#BGCHANGES:;
#KEYSOUNDS:;
#ATTACKS:
;

//---------------dance-single - ----------------
#NOTEDATA:;
#CHARTNAME:;
#STEPSTYPE:dance-single;
#DESCRIPTION:;
#CHARTSTYLE:;
#DIFFICULTY:Hard;
#METER:8;
#RADARVALUES:0.435122,0.573596,0.351752,0.000000,0.059958,381.000000,337.000000,44.000000,0.000000,0.000000,0.000000,0.000000,0.000000,0.000000,0.435122,0.573596,0.351752,0.000000,0.059958,381.000000,337.000000,44.000000,0.000000,0.000000,0.000000,0.000000,0.000000,0.000000;
#CREDIT:;
#NOTES:
// measure 0
0000
0000
0000
0000
,  // measure 1
0000
0000
0000
0000
,  // measure 2
0000
0000
0000
0000
,  // measure 3
0000
0000
0000
0000
1001
0110
1001
0000
,  // measure 4
0001
0100
1000
0100
0000
0100
0010
1000
,  // measure 5
0000
1000
0010
0001
0000
0001
0010
0100
,  // measure 6
0000
0100
0010
0001
0000
0001
0100
1000
,  // measure 7
0000
0100
0000
0100
0000
0100
1001
0000
,  // measure 8
0001
0010
1000
0010
0000
0100
0010
0001
,  // measure 9
0000
0001
0100
1000
0000
1000
0100
0010
,  // measure 10
0000
1000
0010
0001
0000
0001
0010
0100
,  // measure 11
0000
0010
0000
0010
0110
1001
0110
0000
,  // measure 12
1001
0000
0000
0000
,  // measure 13
0001
0000
0000
0000
,  // measure 14
0001
0000
0000
0000
,  // measure 15
0001
0000
0000
0000
,  // measure 16
1000
0000
0000
0000
,  // measure 17
1000
0000
0000
0000
,  // measure 18
1010
0010
0010
0000
,  // measure 19
1010
0010
0010
0000
,  // measure 20
0100
0000
0000
0010
0000
0000
1000
0000
,  // measure 21
0000
0100
0000
0000
1000
0000
0001
0000
,  // measure 22
0100
0000
0000
0001
0000
0000
0010
0000
,  // measure 23
0000
0001
0000
0000
1100
0011
1100
0000
,  // measure 24
0100
0000
0010
0001
0000
0001
0100
0000
,  // measure 25
0100
0010
0000
0010
1000
0000
0001
0000
,  // measure 26
1000
0000
0001
0100
0000
0010
1000
0000
,  // measure 27
0001
1000
0000
1000
0010
0100
0001
1000
,  // measure 28
0010
0000
0100
0001
0000
0000
0000
1000
,  // measure 29
0000
0001
1000
0000
0000
0010
0000
0100
,  // measure 30
0010
0000
0010
1000
0000
0000
0000
0001
,  // measure 31
0000
1000
0001
1000
0010
0000
0100
0000
,  // measure 32
0001
1000
0010
0100
0000
0010
1000
0100
,  // measure 33
0000
1000
0100
0000
0000
0010
0100
0010
,  // measure 34
0001
0000
1000
0001
0000
1000
0010
0100
,  // measure 35
0000
0010
0100
0000
0000
0010
0100
0001
,  // measure 36
1001
0000
1001
0001
0000
1000
0010
1000
,  // measure 37
0000
0011
0010
0000
0000
0100
0010
0100
,  // measure 38
1100
0000
0011
0010
0001
1000
0010
0100
,  // measure 39
0000
0010
0100
0010
1001
0110
1001
0000
,  // measure 40
1000
0010
1000
0001
,  // measure 41
0100
0001
0010
0100
,  // measure 42
0110
0001
1000
0001
,  // measure 43
0110
0000
1000
0000
0001
0100
0010
1000
,  // measure 44
1001
0000
1001
0001
0000
0000
0000
1000
,  // measure 45
0000
0110
0100
0000
0000
0010
0100
0010
,  // measure 46
0110
0000
0110
0100
0000
0000
0000
0001
,  // measure 47
0000
1000
0010
1000
1010
1100
1010
0000
,  // measure 48
0101
0000
0000
0001
0010
0000
0100
0000
,  // measure 49
1100
0000
0101
0000
1001
0000
0000
1000
,  // measure 50
0001
0000
0000
1000
0001
0000
1000
0000
,  // measure 51
0100
0100
0100
0100
0100
0000
1001
0000
,  // measure 52
0001
0000
0000
1000
0000
0000
0010
0000
0000
1000
0000
0000
0001
0000
0010
0000
,  // measure 53
0100
0000
0000
0010
0000
0000
0001
0000
0000
0010
0000
0000
0100
0000
0010
0000
,  // measure 54
0001
0010
0100
1000
0001
0010
0100
1000
,  // measure 55
0001
0100
0010
1000
1001
0110
1001
0000
,  // measure 56
0001
0000
0100
0000
0000
0000
0100
0000
0010
0000
0000
1000
0000
0000
0100
0000
,  // measure 57
0010
0000
0100
0000
0000
0000
0010
0000
0100
0000
0000
0010
0000
0000
0001
0000
,  // measure 58
1000
0000
0010
0000
0000
0000
1000
0000
0010
0000
0000
0100
0000
0000
0001
0000
,  // measure 59
0010
0000
0100
0000
0000
0000
0010
0000
0100
0000
0000
0010
0000
0000
0001
0000
,  // measure 60
0100
0000
0010
0000
0000
0000
0100
0000
0010
0000
0000
1000
0000
0000
0001
0000
,  // measure 61
0010
0000
0100
0000
0000
0000
0010
0000
0100
0000
0000
0010
0000
0000
0001
0000
,  // measure 62
1000
0000
0010
0000
0000
0000
1000
0000
0010
0000
0000
0100
0000
0000
0001
0000
,  // measure 63
1000
1100
0000
1100
0100
0000
0010
0000
,  // measure 64
0001
0000
1000
0010
0000
0001
0010
0000
,  // measure 65
1000
0010
0000
0001
0010
0000
0100
0000
,  // measure 66
0001
0000
1000
0100
0000
0001
0100
0000
,  // measure 67
1000
0100
0000
0001
0100
0000
1000
0000
,  // measure 68
0001
0000
0000
0001
0000
0000
0100
0000
0000
0100
0000
0000
0010
0000
1000
0000
,  // measure 69
0100
0000
0000
0100
0000
0000
0010
0000
0000
0010
0000
0000
0001
0000
0100
0000
,  // measure 70
0010
1000
0100
0010
0001
0010
0100
0010
,  // measure 71
0001
1000
0100
0010
0110
1001
0110
0000
;

//---------------dance-single - ----------------
#NOTEDATA:;
#CHARTNAME:;
#STEPSTYPE:dance-single;
#DESCRIPTION:;
#CHARTSTYLE:;
#DIFFICULTY:Medium;
#METER:5;
#RADARVALUES:0.325485,0.430197,0.319775,0.000000,0.000000,285.000000,245.000000,40.000000,0.000000,0.000000,0.000000,0.000000,0.000000,0.000000,0.325485,0.430197,0.319775,0.000000,0.000000,285.000000,245.000000,40.000000,0.000000,0.000000,0.000000,0.000000,0.000000,0.000000;
#CREDIT:;
#NOTES:
0000
0000
0000
0000
,
0000
0000
0000
0000
,
0000
0000
0000
0000
,
0000
0000
0000
0000
0010
0010
0010
0000
,
0100
0000
0001
1000
0000
0000
1000
0001
,
0000
0000
0001
0100
0000
0000
0100
0010
,
0000
0000
0010
1000
0000
0000
1000
0001
,
0000
0100
0000
0100
0000
0100
0110
0000
,
0010
0000
0100
0001
0000
0000
0001
1000
,
0000
0000
1000
0100
0000
0000
0100
0010
,
0000
0000
0010
0001
0000
0000
0001
0100
,
0000
0010
0000
0010
0100
0100
0100
0000
,
0010
0000
0000
0000
,
0010
0000
0000
0000
,
0010
0000
0000
0000
,
0010
0000
0000
0000
,
0100
0000
0000
0000
,
0100
0000
0000
0000
,
0110
0010
0010
0000
,
0110
0010
0010
0000
,
1000
0000
0000
0001
0000
0000
0010
0000
,
0000
0001
0000
0000
1000
0000
0001
0000
,
1000
0000
0000
0100
0000
0000
1000
0000
,
0000
0001
0000
0000
0100
0100
0100
0000
,
0010
0000
0000
1000
0000
0000
0100
0000
,
0000
0010
0000
0000
0011
0000
1100
0000
,
1001
0000
0000
0001
0000
0000
0100
0000
,
0000
0010
0000
0000
1010
0000
0101
0000
,
1001
0000
0000
1000
0000
0000
0000
0001
,
0000
1000
0001
0000
0000
0100
0000
0010
,
0000
0000
0000
0100
0000
0000
0000
0010
,
0000
1000
0001
0010
0001
0000
0000
0000
,
1000
0000
0000
0001
0000
0000
0000
0100
,
0000
0010
1000
0000
0000
0100
0010
0100
,
0000
0000
0000
1000
0000
0000
0000
0001
,
0000
0100
0010
0000
0000
0100
0001
1000
,
1001
0000
1001
0001
0000
0000
0000
0100
,
0000
0010
1000
0000
0000
0100
0010
0100
,
0110
0000
0110
0010
0000
0000
0000
0001
,
0000
0100
0010
1000
0001
0001
0001
0000
,
1000
0001
0010
0001
,
1000
0010
1000
0001
,
1001
1001
1001
0010
,
1001
1001
1001
0100
,
0010
0000
0000
1000
0000
0000
0000
0001
,
0000
0010
0100
0000
0000
0010
0001
1000
,
0000
0000
0000
0100
0000
0000
0000
1000
,
0000
0001
0100
0010
1000
1000
1000
0000
,
0001
0000
0000
1000
0001
0000
0100
0000
,
0010
0000
0010
0000
0100
0000
0000
0010
,
1000
0000
0000
0010
1000
0000
0001
0000
,
0010
0100
0010
0100
0010
0000
1001
0000
,
1000
0001
0010
0001
,
1000
0010
1000
0001
,
1000
0100
0010
0001
,
1001
0000
0110
0000
0100
0100
0100
0000
,
1001
1000
0100
0010
,
0011
0001
0100
0010
,
1010
1000
0100
0010
,
0011
0001
0100
0010
,
1100
0100
0010
0001
,
0101
0001
1000
0100
,
1100
1000
0001
0100
,
0101
0001
0100
0100
,
0010
0000
0000
1000
0000
0000
0100
0000
,
0000
0001
0000
0000
0101
0000
0110
0000
,
0011
0000
0000
0001
0000
0000
0100
0000
,
0000
1000
0000
0000
1100
0000
0110
0000
,
1010
0000
0000
0010
0000
0000
0001
0000
,
0000
0010
0000
0000
0110
0000
1001
0000
,
1010
0000
0000
1000
0000
0000
0100
0000
,
0000
0000
0000
0000
0010
0100
1001
0000
;

//---------------dance-single - ----------------
#NOTEDATA:;
#CHARTNAME:;
#STEPSTYPE:dance-single;
#DESCRIPTION:;
#CHARTSTYLE:;
#DIFFICULTY:Easy;
#METER:4;
#RADARVALUES:0.292366,0.401517,0.231837,0.000000,0.000000,256.000000,227.000000,29.000000,0.000000,0.000000,0.000000,0.000000,0.000000,0.000000,0.292366,0.401517,0.231837,0.000000,0.000000,256.000000,227.000000,29.000000,0.000000,0.000000,0.000000,0.000000,0.000000,0.000000;
#CREDIT:;
#NOTES:
0000
0000
0000
0000
,
0000
0000
0000
0000
,
0000
0000
0000
0000
,
0000
0000
0000
0000
0001
1000
0001
0000
,
0000
0000
0000
0100
0000
0000
0000
0100
,
0000
0000
0000
0010
0000
0000
0000
0010
,
0000
0000
0000
1000
0000
0000
0000
1000
,
0000
0001
0000
0001
0000
0001
0100
0000
,
0000
0000
0000
0010
0000
0000
0000
0010
,
0000
0000
0000
1000
0000
0000
0000
1000
,
0000
0000
0000
0001
0000
0000
0000
0001
,
0000
0000
0000
0000
0100
0010
0100
0000
,
0010
0000
0000
0000
,
1000
0000
0000
0000
,
0100
0000
0000
0000
,
1000
0000
0000
0000
,
0001
0000
0000
0000
,
0100
0000
0000
0000
,
0010
0010
0010
0000
,
0010
0010
0010
0000
,
1000
0000
0000
0000
,
0100
0000
0000
0000
,
0010
0010
0010
0000
,
0001
0000
0001
0000
0001
1000
0001
0000
,
1001
0001
0010
0001
,
0100
0001
0100
0010
,
1010
1000
0100
1000
,
1010
0010
0100
0001
,
1000
0001
0010
0100
,
1000
0100
0010
0001
,
1001
0001
0100
0001
,
0011
0001
0100
0100
,
0110
0010
1000
0100
,
0010
0001
0100
0010
,
1001
0001
1000
0010
,
1001
0001
0010
0001
,
1001
1001
1000
0010
,
0100
0001
0010
0100
,
0110
0110
0001
1000
,
0010
0000
0100
0000
0001
0010
0001
0000
,
0100
0100
0010
0010
,
1000
1000
0001
0001
,
1001
1001
1001
0000
,
1001
1001
1001
0001
,
0100
0000
0100
0000
,
0010
0000
0000
0010
,
1001
1001
1001
0000
,
0010
0000
0010
0000
0100
0010
0100
0000
,
0010
0000
1000
0000
,
0100
0100
0100
0000
,
1000
0000
0001
0000
,
0100
0100
0100
1001
,
0001
0000
0010
0000
,
0100
0100
0100
0000
,
0010
0001
0100
0010
,
1000
0000
0001
0000
1000
0010
1000
0000
,
0010
0100
0001
1000
,
0100
1000
0010
0100
,
1001
0001
0010
0100
,
1100
0100
0010
0001
,
1000
0001
0100
0001
,
0010
0001
1000
0100
,
0110
0010
0001
0100
,
0110
0000
0010
0000
1000
0001
1000
0000
,
0010
1000
0100
1000
,
0001
0100
0001
0001
,
1001
0001
0010
0100
,
1100
0100
1000
1000
,
0001
0100
0001
0010
,
0100
0010
0001
0001
,
1001
0001
0100
0010
,
1000
0000
0001
0000
0010
0100
0010
0000
;

//---------------dance-single - ----------------
#NOTEDATA:;
#CHARTNAME:;
#STEPSTYPE:dance-single;
#DESCRIPTION:;
#CHARTSTYLE:;
#DIFFICULTY:Beginner;
#METER:2;
#RADARVALUES:0.127910,0.229438,0.055961,0.000000,0.000000,112.000000,105.000000,7.000000,0.000000,0.000000,0.000000,0.000000,0.000000,0.000000,0.127910,0.229438,0.055961,0.000000,0.000000,112.000000,105.000000,7.000000,0.000000,0.000000,0.000000,0.000000,0.000000,0.000000;
#CREDIT:;
#NOTES:
0000
0000
0000
0000
,
0000
0000
0000
0000
,
0000
0000
0000
0000
,
0000
0000
0000
0000
,
0010
0000
0000
0000
,
1000
0000
0000
0000
,
0001
0000
0000
0000
,
0100
0000
0000
0110
,
0010
0000
0000
0000
,
1000
0000
0000
0000
,
0001
0000
0000
0000
,
0100
0000
0010
0010
,
0100
0000
0000
0000
,
0100
0000
0000
0000
,
0100
0000
0000
0000
,
0100
0000
0000
0000
,
0010
0000
0000
0000
,
0010
0000
0000
0000
,
1000
1000
1000
0000
,
1000
1000
1000
0000
,
0001
0000
0000
0000
,
0001
0000
0000
0000
,
0100
0100
0100
0000
,
0100
0100
0100
0000
,
0010
0000
0000
0000
,
1000
0000
0000
0000
,
0001
0000
0000
0000
,
0010
0000
0000
0000
,
0001
0000
0000
0000
,
1000
0000
0000
0000
,
0010
0010
0010
0000
,
0010
0010
0010
0000
,
0100
0000
0000
0000
,
0010
0000
0000
0000
,
1000
1000
1000
0000
,
0001
0001
0001
0000
,
0100
0000
0000
0000
,
0010
0000
0000
0000
,
1000
1000
1000
0000
,
0100
0100
0100
0000
,
1000
0000
0000
0000
,
0001
0000
0000
0000
,
0100
0100
0100
0000
,
0100
0100
0100
0000
,
0010
0000
0000
0000
,
0000
0000
0000
0000
,
0100
0100
0000
0000
,
0000
0000
0000
0000
,
1001
0000
0000
0000
,
0001
0001
0001
0000
,
1001
0000
0000
0000
,
1000
1000
1000
0110
,
0010
0000
0000
0000
,
0100
0000
0000
0000
,
0001
0000
1000
0000
,
0010
0000
0100
0100
,
1001
0000
0000
0000
,
0001
0000
0000
0000
,
0010
0000
0000
0000
,
0001
0000
0000
0000
,
1000
0000
0000
0000
,
0100
0000
0000
0000
,
1000
0000
0000
0000
,
0010
0000
0100
0000
,
0001
0000
0000
0000
,
1000
0000
0000
0000
,
0010
0000
0000
0000
,
1000
0000
0000
0000
,
0001
0000
0000
0000
,
0100
0000
0000
0000
,
0010
0000
0000
0000
,
0100
0000
0110
1001
;
