#TITLE:Imminent deadline;
#SUBTITLE:;
#ARTIST:SamplingMasters MEGA;
#TITLETRANSLIT:;
#SUBTITLETRANSLIT:;
#ARTISTTRANSLIT:;
#GENRE:;
#CREDIT:;
#BANNER:imminentdeadline_bn.png;
#BACKGROUND:imminentdeadline_bg.png;
#LYRICSPATH:;
#CDTITLE:cdtitle.png;
#MUSIC:imminentdeadline.ogg;
#OFFSET:0.000000;
#SAMPLESTART:19.200001;
#SAMPLELENGTH:9.600000;
#SELECTABLE:YES;
#BPMS:0.000000=200.000000
;
#STOPS:
;
#BGCHANGES:;
#KEYSOUNDS:;
#ATTACKS:;

//---------------dance-single - ----------------
#NOTES:
     dance-single:
     :
     Hard:
     9:
     0.777497,1.039362,0.501475,0.088496,0.117994,738.000000,670.000000,68.000000,12.000000,8.000000,0.000000,0.777497,1.039362,0.501475,0.088496,0.117994,738.000000,670.000000,68.000000,12.000000,8.000000,0.000000:
0000
0000
0000
0000
,
0000
0000
0000
0000
,
0000
0000
0000
0000
,
0000
0000
0000
0000
,
0000
0000
0000
0000
,
0000
0000
0000
0000
,
0000
0000
0000
0000
,
0000
2001
3002
2003
,
3001
0100
0001
1000
0100
0100
0100
0000
,
1000
0010
0100
0010
1000
1000
1000
0000
,
0001
1000
0100
1000
0001
0001
0001
0000
,
1000
0001
0010
0001
1000
1000
1000
0000
,
0100
1000
0100
0010
0100
0010
0001
0010
,
0001
1000
0001
0100
0010
0100
0010
1000
,
0010
1000
0010
1000
0001
0100
0001
0010
0001
0010
0100
1000
,
0200
0000
0300
0110
,
0001
0000
0000
0000
0101
0000
0000
0000
0001
0000
0000
0000
0101
0000
0000
0001
,
0100
0000
0101
0000
0001
0100
0010
1000
,
0100
0000
0000
0000
1100
0000
0000
0000
1000
0000
0000
0000
1100
0000
0000
1000
,
0100
0000
1100
0000
1000
0100
0010
0001
,
0010
0000
0000
0000
0011
0000
0000
0000
0010
0000
0000
0000
0011
0000
0000
0001
,
0010
0000
0011
0000
0001
0010
0100
1000
,
0010
0000
0000
0000
1010
0000
0000
0000
0010
0000
0000
0000
1010
0000
0000
1000
,
0010
0000
1010
0000
1000
0010
0100
0001
,
1000
0000
0000
0000
1100
0000
0000
0000
0100
0000
0000
0000
0110
0000
0000
0010
,
0001
0000
0011
0000
0001
0100
1000
0100
,
0010
0000
0000
0000
1010
0000
0000
0000
1000
0000
0000
0000
1001
0000
0000
0001
,
0010
0000
0011
0000
0010
0001
1000
0010
,
1000
0000
0000
0000
1010
0000
0000
0000
0010
0000
0000
0000
0110
0000
0000
0100
,
0001
0000
0101
0000
0001
0010
1000
0010
,
0100
0000
0000
0000
0110
0000
0000
0000
0100
0000
0000
0000
1100
0000
0000
1000
,
0001
0000
0001
0000
1000
0010
1000
0001
,
1001
1000
0100
0110
0000
0100
1000
0100
,
0010
0100
0001
0100
1000
0100
0010
0001
,
0011
0001
1000
1010
0000
0010
0100
0010
,
0001
0010
0100
0010
1000
0010
0100
0001
,
0101
0100
0010
1010
0000
1000
0100
1000
,
0001
1000
0010
1000
0100
1000
0001
0100
,
0101
0001
0010
0110
0000
0001
0010
0001
,
1000
0001
0100
0001
0010
0001
0011
0000
,
0011
0001
1000
1010
0000
0010
0001
0010
,
0100
0010
1000
0001
0010
0100
0010
0100
,
1100
1000
0001
0101
0000
0100
1000
0100
,
0010
0100
0001
1000
0100
0010
0100
0010
,
0110
0100
1000
1001
0000
1000
0001
0100
,
0001
1000
0001
0010
0100
1000
0100
1000
,
1001
1000
0010
0110
0000
0001
0100
0001
,
0101
0100
0000
0010
0100
0010
0100
0001
,
1000
0100
0001
0100
0010
1000
0010
0001
,
0100
1000
0100
0001
1000
0010
0001
0010
,
1000
0100
0001
0100
0010
1000
0010
0001
,
0100
1000
0100
0001
1000
0010
0001
0010
,
0100
1000
0100
0001
1000
0010
0001
0010
,
1000
0100
0001
0100
0010
1000
0010
0001
,
2000
3001
0000
0001
,
0000
0000
0001
0101
0000
1001
0000
1000
,
0001
0100
1000
0100
0010
0001
0010
1000
,
0100
0001
0100
1000
0001
0010
1000
0010
,
0001
0100
1000
0100
0010
0001
0010
1000
,
0100
0001
0100
1000
0001
0010
1000
0010
,
0100
0001
0100
1000
0001
0010
1000
0010
,
0001
0100
1000
0100
0010
0001
0010
1000
,
0001
0001
1000
1000
0010
0010
0100
0100
,
0010
0100
0010
0100
0010
0100
0010
0100
0010
0100
0010
0100
0010
0100
0010
0100
,
0010
0110
2002
0000
,
3003
1000
0000
1000
0001
0000
0010
0000
,
0001
0100
0000
0010
0000
0010
0100
0010
,
0000
1000
0000
1000
0100
0000
1000
0000
,
1010
1001
0022
0000
,
0033
0001
0000
0001
0010
0000
0100
0000
,
0010
0001
0000
1000
0000
0010
0100
0010
,
0000
1000
0000
1000
0001
0000
0010
0000
,
0110
1100
1001
0000
,
1100
0000
1001
0000
,
0101
0001
1000
0100
,
1000
0000
0100
0000
0010
0000
0001
0000
0100
0010
1000
0001
0200
0000
0000
0000
,
0310
0100
0010
0100
0001
1000
0100
0000
,
0100
0010
0100
0010
0100
1000
0001
1000
,
0010
1000
0010
1000
0001
0010
0001
0000
,
0100
0001
0100
0001
1000
0010
0100
0001
,
1000
0100
1000
0100
0010
0001
0100
0000
,
0001
0010
0001
0010
0100
1000
0010
0100
,
0001
1000
0001
1000
0010
0100
0001
0000
,
1000
0001
1000
0001
0010
0100
0100
0100
,
1000
0100
1000
0010
0100
0000
0110
0000
,
0001
0010
0001
0100
0010
0000
0110
0000
,
1000
0010
1000
0100
0010
0000
0110
0000
,
0001
0100
0001
0010
0100
0000
0110
0000
,
1000
0100
0010
0001
0010
0000
1100
0000
,
1000
0010
0100
0001
0100
0000
1010
0000
,
0010
0100
0001
0010
0100
0000
1100
0000
,
0100
0010
0100
1000
0010
0010
0010
0010
,
0100
0001
0000
0001
0100
0001
0100
1000
,
0100
0010
0100
0001
0010
0100
0010
0001
,
0000
0001
0000
1000
0010
0001
0010
1000
,
0010
0100
0010
1000
0100
0010
0100
1000
,
0000
0100
0000
0100
1000
0010
1000
0001
,
1000
0100
1000
0010
0100
0001
0010
0100
,
0000
0100
0000
0010
0001
0100
0001
1000
,
0001
0010
0001
0100
0010
1000
0010
0100
,
0000
0101
0000
0001
0100
1000
0001
1000
,
0100
0001
0100
0010
1000
0100
0010
0001
,
0000
0011
0000
0001
0010
1000
0001
1000
,
0010
0001
0010
0100
1000
0010
0100
0001
,
0000
1010
0000
1000
0010
0001
1000
0001
,
0010
1000
0010
0100
0001
0010
0100
1000
,
0000
0011
0000
0001
0100
1000
0001
1000
,
0100
0001
0100
0010
1000
0100
0010
0001
,
0022
0000
0000
0000
,
0000
0000
0000
0000
,
0000
0000
0000
0000
,
0000
0000
0000
0000
,
0033
0000
0000
0000
0000
0000
0000
0000
0000
0000
0000
0000
0000
0000
0000
0000
0000
M000
0M00
00M0
000M
M000
0M00
00M0
000M
0000
0000
0000
0000
0000
0000
0000
;

//---------------dance-single - ----------------
#NOTES:
     dance-single:
     :
     Easy:
     5:
     0.368732,0.454277,0.191740,0.058997,0.000000,350.000000,324.000000,26.000000,8.000000,0.000000,0.000000,0.368732,0.454277,0.191740,0.058997,0.000000,350.000000,324.000000,26.000000,8.000000,0.000000,0.000000:
0000
0000
0000
0000
,
0000
0000
0000
0000
,
0000
0000
0000
0000
,
0000
0000
0000
0000
,
0000
0000
0000
0000
,
0000
0000
0000
0000
,
0000
0000
0000
0000
,
0000
0000
0000
0000
,
1000
0100
1000
1000
,
0010
0100
0001
0001
,
0010
0100
0010
0010
,
0001
0100
0010
0010
,
1000
0100
0010
0001
,
0100
0010
1000
0001
,
1000
1000
0001
0001
,
0200
0000
0300
1001
,
1000
1000
1000
0000
,
0010
0100
0010
0000
,
0100
0100
0100
0000
,
0001
0010
0001
0000
,
0001
0001
0001
0000
,
0010
0100
0010
0000
,
0100
0100
0100
0000
,
0100
1000
0100
0000
,
1000
1000
1000
0000
,
0010
0100
0010
0100
,
0001
0001
0001
0000
,
0010
0100
0010
0001
,
0100
0100
0100
0000
,
0100
0010
1000
0100
,
0010
0010
0010
0000
,
0010
0001
1000
0010
,
1010
0000
0000
1010
0000
0000
1000
0000
,
0001
0000
0000
0001
0000
0000
0010
0000
,
0011
0000
0000
0011
0000
0000
0001
0000
,
1000
0000
0000
1000
0000
0000
0100
0000
,
1100
0000
0000
1100
0000
0000
1000
0000
,
0010
0000
0000
0010
0000
0000
0100
0000
,
0101
0000
0000
0101
0000
0000
0001
0000
,
0010
0000
0000
0010
0000
0000
0110
0000
,
0110
0000
0000
1001
0000
0000
1000
0000
,
0010
0000
0000
0100
0000
0000
0100
0000
,
0101
0000
0000
1001
0000
0000
0001
0000
,
0010
0000
0000
0100
0000
0000
0010
0000
,
0011
0000
0000
1100
0000
0000
1000
0000
,
0100
0000
0000
1000
0000
0000
0001
0000
,
0101
0000
0000
1010
0000
0000
1000
0000
,
2002
0000
0000
3003
,
0001
0001
0100
0100
,
0001
0001
0100
0100
,
0010
0010
1000
1000
,
0010
0010
1000
1000
,
0100
0100
1000
1000
,
0100
0100
1000
1000
,
0200
0300
0000
0000
,
0000
0000
0000
0100
0000
0100
0000
0000
,
1000
1000
0100
0100
,
1000
1000
0100
0100
,
0010
0010
0001
0001
,
0010
0010
0001
0001
,
0100
0100
0001
0001
,
0100
0100
0001
0001
,
1000
0001
1000
0001
,
0020
0000
0000
0000
,
0031
0010
0001
0000
,
0000
0000
0000
0000
,
0000
0000
0000
0000
,
0000
0000
0000
0000
,
0011
1001
1100
0000
,
0000
0000
0000
0000
,
0000
0000
0000
0000
,
0000
0000
0000
0000
,
1010
1001
0011
0000
,
0001
0000
1000
0000
,
0001
1000
0001
1000
,
0010
0010
0020
0000
,
1030
0000
0000
1000
0000
0000
0010
0000
,
0100
0000
0000
0100
0000
0000
0001
0000
,
0010
0000
0000
0010
0000
0000
0010
0000
,
0001
0000
0000
0001
0000
0000
1000
0000
,
0010
0000
0000
0100
0000
0000
0010
0000
,
1000
0000
0000
0100
0000
0000
0010
0000
,
0001
0000
0000
1000
0000
0000
0001
0000
,
0100
0001
1000
0100
,
0010
0100
0010
0100
,
1000
0001
1000
0001
,
0100
0010
0100
0001
,
1000
0100
0010
0100
,
1000
0010
0100
1000
,
0100
0001
0010
0100
,
0001
0100
1000
0001
,
0100
1000
0100
0010
,
1000
1000
0001
0001
,
0010
0100
0010
1000
,
0010
0010
0100
0100
,
1000
0001
0100
1000
,
0100
0100
0010
0010
,
1000
0001
0010
1000
,
0010
0010
0001
0001
,
1000
0100
1000
0010
,
0001
0001
0010
0010
,
0100
0100
0001
0010
,
1000
1000
0010
0010
,
0100
0100
0010
0001
,
0100
0100
1000
1000
,
0100
0100
0001
0010
,
1000
1000
0010
0010
,
0001
0001
0100
0010
,
0220
0000
0000
0000
,
0000
0000
0000
0000
,
0000
0000
0000
0000
,
0000
0000
0000
0000
,
0330
0000
0000
0000
;

//---------------dance-single - ----------------
#NOTES:
     dance-single:
     :
     Medium:
     7:
     0.522545,0.622926,0.206490,0.081121,0.044248,496.000000,468.000000,28.000000,11.000000,2.000000,0.000000,0.522545,0.622926,0.206490,0.081121,0.044248,496.000000,468.000000,28.000000,11.000000,2.000000,0.000000:
// measure 0
0000
0000
0000
0000
,  // measure 1
0000
0000
0000
0000
,  // measure 2
0000
0000
0000
0000
,  // measure 3
0000
0000
0000
0000
,  // measure 4
0000
0000
0000
0000
,  // measure 5
0000
0000
0000
0000
,  // measure 6
0000
0000
0000
0000
,  // measure 7
0000
0000
0000
0000
,  // measure 8
0001
0000
0010
0000
0100
0010
0100
0000
,  // measure 9
0010
0000
0001
0000
1000
0001
1000
0000
,  // measure 10
0010
0000
1000
0000
0001
0100
0001
0000
,  // measure 11
0100
0000
0010
0000
1000
0001
1000
0000
,  // measure 12
0001
0010
0100
0000
1000
0010
0100
0000
,  // measure 13
0001
0010
0100
0000
1000
0010
0100
0000
,  // measure 14
0001
0000
0001
0100
0000
0100
0010
0000
0010
1000
0000
1000
,  // measure 15
0200
0000
0300
0110
,  // measure 16
1000
0000
0000
0000
0100
0000
0000
0000
1000
0000
0000
0000
0010
0000
0000
0010
,  // measure 17
0100
0000
0100
0000
0010
0100
0001
0000
,  // measure 18
0100
0000
0000
0000
0010
0000
0000
0000
0100
0000
0000
0000
0001
0000
0000
0001
,  // measure 19
0100
0000
0010
0000
1000
0010
0100
0000
,  // measure 20
0001
0000
0000
0000
0010
0000
0000
0000
0001
0000
0000
0000
0010
0000
0000
0010
,  // measure 21
0100
0000
0010
0000
0001
1000
0100
0000
,  // measure 22
1000
0000
0000
0000
0010
0000
0000
0000
1000
0000
0000
0000
0100
0000
0000
0100
,  // measure 23
1000
0000
0100
0000
0010
0001
1000
0000
,  // measure 24
0010
0000
0000
0000
0100
0000
0000
0000
1000
0000
0000
0000
0100
0000
0000
0100
,  // measure 25
0010
0000
0100
0000
0001
1000
0100
0000
,  // measure 26
0010
0000
0000
0000
1000
0000
0000
0000
0010
0000
0000
0000
0001
0000
0000
0001
,  // measure 27
0010
0000
0001
0000
1000
0001
0100
0000
,  // measure 28
0010
0000
0000
0000
0001
0000
0000
0000
0010
0000
0000
0000
0100
0000
0000
0100
,  // measure 29
0010
0000
0010
0000
1000
0001
0010
0000
,  // measure 30
0100
0000
0000
0000
0001
0000
0000
0000
0100
0000
0000
0000
0010
0000
0000
0010
,  // measure 31
0100
0000
1000
0000
0010
1000
0001
0000
,  // measure 32
0101
0000
0000
1010
0000
0000
1000
0000
,  // measure 33
0010
0000
0000
0100
0010
0100
0010
1000
,  // measure 34
1010
0000
0000
0101
0000
0000
0001
0000
,  // measure 35
0010
0000
0000
0100
0010
0100
0010
0001
,  // measure 36
0011
0000
0000
1100
0000
0000
1000
0000
,  // measure 37
0100
0000
0000
0010
0100
0010
0100
1000
,  // measure 38
1100
0000
0000
0011
0000
0000
0010
0000
,  // measure 39
0001
0000
0000
0100
0010
0100
0110
0000
,  // measure 40
0101
0000
0000
0011
0000
0000
0001
0000
,  // measure 41
0010
0000
0000
1000
0010
0001
0010
0001
,  // measure 42
0011
0000
0000
0101
0000
0000
0100
0000
,  // measure 43
1000
0000
0000
0100
0001
0100
0010
1000
,  // measure 44
1010
0000
0000
1100
0000
0000
1000
0000
,  // measure 45
0100
0000
0000
0001
0100
1000
0100
1000
,  // measure 46
1100
0000
0000
1010
0000
0000
1000
0000
,  // measure 47
0010
0000
0000
0100
0010
0100
0010
0100
,  // measure 48
0001
0010
0001
0000
0010
0001
0010
0000
,  // measure 49
0001
0100
0001
0000
0100
0001
0100
0000
,  // measure 50
0001
1000
0001
0000
1000
0001
1000
0000
,  // measure 51
0100
1000
0100
0000
1000
0100
1000
0000
,  // measure 52
0010
1000
0010
0000
1000
0010
1000
0000
,  // measure 53
0100
0010
0100
0000
0010
0100
0010
0000
,  // measure 54
0200
0310
0000
0010
,  // measure 55
0000
0000
0010
0100
0000
1001
0000
0001
,  // measure 56
1000
0100
1000
0000
1000
0001
0100
0000
,  // measure 57
0010
0100
0010
0000
0100
0001
0010
0000
,  // measure 58
0010
0001
0010
0000
0001
1000
0010
0000
,  // measure 59
0010
1000
0010
0000
1000
0100
0010
0000
,  // measure 60
0100
0010
0100
0000
0100
1000
0001
0000
,  // measure 61
0100
0001
0100
0000
0001
0100
0010
0000
,  // measure 62
1000
0001
1000
0001
0010
0100
0010
0100
,  // measure 63
0020
0000
0001
0000
0000
0000
0031
0010
,  // measure 64
0011
0011
2200
0000
,  // measure 65
3300
0000
1000
0000
,  // measure 66
0000
0000
0001
0000
,  // measure 67
0000
0000
0100
0000
,  // measure 68
0110
0101
2020
0000
,  // measure 69
3030
0000
0001
0000
,  // measure 70
0000
0000
1000
0000
,  // measure 71
0000
0000
0100
0000
,  // measure 72
0110
1100
0011
0000
,  // measure 73
0001
0000
0100
0000
,  // measure 74
0010
1000
0001
0010
,  // measure 75
0010
0001
1000
0100
0020
0000
0032
0000
,  // measure 76
1003
0000
1000
0001
0000
0000
0100
0000
,  // measure 77
0010
0000
0100
0001
0000
0000
0001
0100
,  // measure 78
0001
0000
0001
0010
0000
0000
0100
0000
,  // measure 79
1000
0100
0000
1000
0000
0000
1000
0010
,  // measure 80
1000
0000
0100
1000
0000
0000
0010
0000
,  // measure 81
0100
0000
0010
1000
0000
0000
0001
0010
,  // measure 82
0001
0000
0010
0100
0000
0000
0010
0000
,  // measure 83
0001
0010
0001
1000
0010
0100
0010
0100
,  // measure 84
0010
0000
0100
0010
0000
0000
1000
0000
,  // measure 85
0001
0000
0010
0001
0000
0000
0100
0010
,  // measure 86
1000
0000
0010
0100
0000
0000
0001
0000
,  // measure 87
0010
0001
0010
1000
0000
0000
0010
0001
,  // measure 88
0100
0000
0010
0100
0000
0000
0010
0000
,  // measure 89
0100
0000
0001
1000
0000
0000
0100
0010
,  // measure 90
0001
0000
0100
0010
0000
0000
0100
0000
,  // measure 91
0001
0100
0010
1000
0001
1000
0001
1000
,  // measure 92
0100
1000
0000
1000
0001
0000
0010
0000
,  // measure 93
0100
0000
0010
0000
0001
1000
0001
0010
,  // measure 94
0000
0001
0000
0001
0100
0000
0010
0000
,  // measure 95
0100
0000
0001
0000
1000
0100
0000
0100
,  // measure 96
0000
1000
0000
1000
0010
0000
0100
0000
,  // measure 97
0010
0000
1000
0000
0100
0010
0100
0010
,  // measure 98
0000
0010
0000
0010
0100
0000
1000
0000
,  // measure 99
0010
0000
0100
0000
0010
0100
0000
0100
,  // measure 100
0000
0100
0000
0001
0010
0000
1000
0000
,  // measure 101
0010
0000
0100
0000
1000
0100
0010
0100
,  // measure 102
0000
0010
0000
0001
0100
0000
1000
0000
,  // measure 103
0100
0000
0010
0000
0010
0100
0000
0100
,  // measure 104
0000
0001
1000
0000
0100
0000
0001
0000
,  // measure 105
0100
0000
0010
0000
0001
0010
0001
0100
,  // measure 106
0000
0100
0000
0010
1000
0000
0010
0000
,  // measure 107
0001
0000
0010
0000
0100
0010
0000
0020
,  // measure 108
0200
0000
0000
0000
,  // measure 109
0000
0000
0000
0000
,  // measure 110
0000
0000
0000
0000
,  // measure 111
0000
0000
0000
0000
,  // measure 112
0330
0000
0000
0000
0000
M00M
0000
0000
;
