#TITLE:イマジネーション;
#SUBTITLE:;
#ARTIST:SPYAIR;
#TITLETRANSLIT:IMAGINATION;
#SUBTITLETRANSLIT:;
#ARTISTTRANSLIT:;
#GENRE:J-Rock;
#CREDIT:;
#BANNER:[Starts with Vowels] - IMAGINATION.png;
#BACKGROUND:[Starts with Vowels] - IMAGINATION-bg.png;
#LYRICSPATH:;
#CDTITLE:cdtitle.png;
#MUSIC:[Starts with Vowels] - IMAGINATION.ogg;
#OFFSET:-0.132000;
#SAMPLESTART:34.838001;
#SAMPLELENGTH:15.000000;
#SELECTABLE:YES;
#BPMS:0.000000=102.000000
,24.000000=204.000000
,56.000000=102.000000
,72.000000=204.000000
;
#STOPS:
;
#BGCHANGES:-0.250=[Starts with Vowels] - IMAGINATION.avi=1.000=0=0=0=StretchNoLoop==CrossFade_Fastest==,
99999=-nosongbg-=1.000=0=0=0 // don't automatically add -songbackground-
;
#KEYSOUNDS:;
#ATTACKS:;

//---------------dance-single - ----------------
#NOTES:
     dance-single:
     :
     Beginner:
     2:
     0.158028,0.254201,0.212300,0.000000,0.000000,99.000000,80.000000,19.000000,0.000000,0.000000,0.000000,0.158028,0.254201,0.212300,0.000000,0.000000,99.000000,80.000000,19.000000,0.000000,0.000000,0.000000:
0000
0000
0000
0000
,
0000
0000
0000
0000
,
1000
0000
0000
0000
,
0001
0000
0000
0000
,
1000
0000
0001
0000
,
0100
0000
0010
0000
,
1000
0000
1000
0000
,
1000
0000
0000
0000
,
0010
0000
0010
0000
,
0010
0000
0000
0000
,
0100
0000
0100
0000
,
0100
0000
0000
0000
,
0001
0000
0001
0000
,
0001
0000
0000
0000
,
1000
0000
1000
1000
,
1000
0000
1000
0000
,
0001
0000
0001
0001
,
0001
0000
0001
0000
,
1001
0000
0000
0000
,
0000
0000
0000
0000
,
1001
0000
0000
0000
,
0110
0000
0000
0000
,
0100
0000
0100
0000
,
0010
0000
0000
0000
,
0110
0000
0000
0000
,
1001
0000
0000
0000
,
0001
0000
0001
0000
,
1000
0000
0000
0000
,
1001
0000
0000
0000
,
0110
0000
0000
0000
,
0100
0000
0100
0000
,
0010
0000
0000
0000
,
0110
0000
0000
0000
,
1001
0000
0000
0000
,
1000
0000
0000
0000
,
0001
0000
0000
0000
,
0100
0000
0100
0000
,
1001
0000
0000
0000
,
0000
0000
0000
0000
,
0000
0000
0000
0000
,
0000
0000
0000
0000
,
0000
0000
0000
0000
,
0000
0000
0010
0000
,
0000
0000
0010
0000
,
0000
0000
0100
0000
,
0000
0000
0100
0000
,
1001
0000
0000
0000
,
0110
0000
0000
0000
,
0100
0000
0100
0000
,
0010
0000
0000
0000
,
0110
0000
0000
0000
,
1001
0000
0000
0000
,
0001
0000
0000
0000
,
1000
0000
0000
0000
,
0100
0000
0100
0000
,
1001
0000
0000
0000
,
1001
0000
0000
0000
,
0110
0000
0000
0000
,
0100
0000
0100
0000
,
0010
0000
0000
0000
,
1001
0000
0000
0000
,
0110
0000
0000
0000
,
0010
0000
0010
0000
,
0100
0000
0100
0000
,
0010
0000
0000
0000
,
0010
0000
0000
0000
;

//---------------dance-single - ----------------
#NOTES:
     dance-single:
     :
     Easy:
     4:
     0.298497,0.363145,0.223474,0.346384,0.000000,187.000000,167.000000,20.000000,31.000000,0.000000,0.000000,0.298497,0.363145,0.223474,0.346384,0.000000,187.000000,167.000000,20.000000,31.000000,0.000000,0.000000:
0000
0000
0000
0000
,
0000
0000
0000
0000
,
2002
0000
0000
3003
,
0220
0000
0000
0330
,
2002
3003
0220
0330
,
2002
3003
1000
0001
,
1000
0000
0001
0100
,
0001
0000
1000
1000
,
0001
0000
1000
0100
,
1000
0000
0001
0001
,
1000
0000
0001
0100
,
0010
0000
1000
0000
,
0001
0000
1000
0100
,
0010
0000
0001
0000
,
1001
0000
1000
0100
,
0001
0001
0100
1000
,
1001
0000
0001
0100
,
1000
1000
0100
0001
,
2002
0000
0000
0000
,
3003
0000
0000
0000
,
1000
0100
0001
0000
,
0001
0100
1000
0000
,
1000
0010
0100
0001
,
0100
0010
1000
0000
,
0001
0100
1000
0000
,
1000
0100
0001
0000
,
0001
0010
0100
1000
,
0100
0010
0001
0000
,
1000
0001
0010
0000
,
0010
0001
1000
0000
,
1000
0010
0100
0001
,
0010
0100
1000
0000
,
0001
0100
0010
0000
,
1000
0100
0010
0000
,
0001
0100
0001
0000
,
1000
0010
1000
0000
,
0001
1000
0001
0000
,
2002
0000
0000
0000
3003
0000
0000
2020
,
0000
0000
0000
3030
0000
0000
0000
0202
,
0000
0000
0000
0303
0000
0000
0000
0022
,
0000
0000
0000
0033
0000
0000
0000
2200
,
0000
0000
0000
3300
0000
0000
0000
2002
,
0000
0000
0000
3003
0000
0000
0000
0220
,
0000
0000
0000
0330
0000
0000
0000
2002
,
0000
0000
0000
3003
0000
0000
0000
0000
,
1000
0001
0200
0300
,
0001
1000
0010
0000
,
0010
1000
0001
0000
,
0001
0010
0100
1000
,
0010
0100
0001
0000
,
1000
0100
0010
0000
,
0001
0100
0010
0000
,
1000
0100
1000
0000
,
0001
0010
0001
0000
,
1000
0001
1000
0000
,
2002
0000
3003
0000
,
0001
0100
1000
0000
,
1000
0100
0001
0000
,
0001
0010
0100
1000
,
0100
0010
0001
0000
,
1000
0100
0001
0000
,
0001
0100
1000
0000
,
1000
0010
0100
0001
,
0100
0010
1000
0000
,
1001
0000
0110
0000
,
1001
0000
0000
0000
;

//---------------dance-single - ----------------
#NOTES:
     dance-single:
     :
     Medium:
     7:
     0.440562,0.472088,0.391079,0.558684,0.000000,276.000000,241.000000,35.000000,50.000000,0.000000,0.000000,0.440562,0.472088,0.391079,0.558684,0.000000,276.000000,241.000000,35.000000,50.000000,0.000000,0.000000:
// measure 0
0000
0000
0000
0000
,  // measure 1
0000
0000
0000
0000
,  // measure 2
2020
0000
0000
3030
,  // measure 3
0202
0000
0000
0303
,  // measure 4
0022
0033
2200
3300
,  // measure 5
2002
0000
3003
0000
0001
1000
0010
0100
,  // measure 6
0001
0000
1000
0000
0010
0100
0010
0000
,  // measure 7
1000
0100
0001
0100
,  // measure 8
1000
0000
0001
0000
0010
0100
0010
0000
,  // measure 9
0001
0100
1000
0100
,  // measure 10
0001
0000
1000
0000
0100
0010
0100
0000
,  // measure 11
1000
0000
0001
0000
0100
0010
0100
0000
,  // measure 12
0001
0010
0100
1000
,  // measure 13
0010
0100
0001
1000
,  // measure 14
2002
3000
0203
0010
,  // measure 15
0320
0000
2030
0000
3002
1000
1003
0000
,  // measure 16
2002
0003
3200
0010
,  // measure 17
0320
0000
0032
0000
2003
0001
3001
0000
,  // measure 18
2002
0000
0000
0000
,  // measure 19
3003
0000
0000
0000
0000
0000
0000
1002
,  // measure 20
0000
0000
0103
0000
0010
1000
0000
1002
,  // measure 21
0000
0000
0013
0000
0100
1000
0000
0001
,  // measure 22
0000
0100
0000
1000
0000
0100
0000
0001
,  // measure 23
0000
1000
0000
0010
0100
0010
0000
2001
,  // measure 24
0000
0000
3100
0000
0010
0001
0000
2001
,  // measure 25
0000
0000
3010
0000
0100
0001
0000
1000
,  // measure 26
0000
0100
0000
0001
0000
0100
0000
1000
,  // measure 27
0000
0001
0000
0010
0100
0010
0000
1002
,  // measure 28
0000
0000
0103
0000
0001
1000
0000
2001
,  // measure 29
0000
0000
3010
0000
1000
0001
0000
1000
,  // measure 30
0000
0010
0000
0001
0000
0010
0000
1000
,  // measure 31
0000
0001
0000
0100
0010
0100
0000
0001
,  // measure 32
0000
1000
0000
0010
0000
0100
0001
0100
,  // measure 33
0000
0010
0000
1000
0000
0001
1000
0001
,  // measure 34
1000
0100
0001
0100
,  // measure 35
1000
0010
0001
0010
,  // measure 36
1000
0000
0001
0100
0000
0100
0010
0000
,  // measure 37
0220
0000
0330
0000
1001
0000
0000
2200
,  // measure 38
0000
0000
0000
0000
0000
3300
0000
2020
,  // measure 39
0000
0000
0000
0000
0000
3030
0000
0202
,  // measure 40
0000
0000
0000
0000
0000
0303
0000
0022
,  // measure 41
0000
0000
0000
0000
0000
0033
0000
2100
,  // measure 42
0000
0000
0001
0000
3001
0000
0000
0012
,  // measure 43
0000
0000
1000
0000
1003
0000
0000
0001
,  // measure 44
0000
1000
0000
0100
0000
0010
0000
0001
,  // measure 45
0000
1000
0010
0000
0100
0001
0000
2001
,  // measure 46
0000
0000
3100
0000
1000
0001
0000
1002
,  // measure 47
0000
0000
0013
0000
0001
1000
0000
0001
,  // measure 48
0000
0010
0000
1000
0000
0010
0000
0001
,  // measure 49
0000
1000
0000
0100
0010
0100
0000
1000
,  // measure 50
0000
0001
0000
0010
0000
0100
1000
0100
,  // measure 51
0000
0010
0000
0001
0000
1000
0001
1000
,  // measure 52
0001
0100
1000
0100
,  // measure 53
0001
0010
1000
0010
,  // measure 54
0001
0000
1000
0100
0000
0100
0010
0000
,  // measure 55
0220
0000
0330
0000
1001
0000
0000
0102
,  // measure 56
0000
0000
0013
0000
0001
1000
0000
2100
,  // measure 57
0000
0000
3010
0000
1000
0001
0000
0012
,  // measure 58
0000
0000
0103
0000
0001
1000
0000
2010
,  // measure 59
0000
0000
3100
0000
1000
0001
0000
1001
,  // measure 60
0000
0000
1000
0000
0010
0100
0010
0000
,  // measure 61
1000
0000
0001
0000
0010
0100
0010
0000
,  // measure 62
0001
0000
1000
0000
0001
0100
0001
0000
,  // measure 63
1000
0000
0001
0000
1000
0010
1000
0000
,  // measure 64
1001
0000
0000
0110
0000
0000
1001
0000
,  // measure 65
1001
0000
0000
0000
;

//---------------dance-single - ----------------
#NOTES:
     dance-single:
     :
     Hard:
     8:
     0.609764,0.726289,0.871547,0.826853,0.050282,382.000000,304.000000,78.000000,74.000000,0.000000,0.000000,0.609764,0.726289,0.871547,0.826853,0.050282,382.000000,304.000000,78.000000,74.000000,0.000000,0.000000:
// measure 0
0000
0000
0000
0000
,  // measure 1
0000
0000
0000
0000
,  // measure 2
2020
0000
0000
3030
,  // measure 3
0202
0000
0000
0303
,  // measure 4
0022
0033
2200
3300
,  // measure 5
2002
0000
0000
0000
3003
0000
0000
0000
0101
0000
1010
0000
1000
0001
1000
0000
,  // measure 6
1100
0000
0011
0000
0001
1000
0100
0000
,  // measure 7
1000
0001
0010
0000
0012
0000
1003
0000
,  // measure 8
0101
0000
1010
0000
1000
0001
0100
0000
,  // measure 9
0001
1000
0010
0000
2010
0000
3001
0000
,  // measure 10
0101
0000
1010
0000
0010
1000
0001
0000
,  // measure 11
1100
0000
0011
0000
0010
0001
1000
0000
,  // measure 12
0101
1010
1100
0011
,  // measure 13
1002
0203
0320
2030
,  // measure 14
3002
0000
0000
0100
0000
0000
0103
0000
0001
1000
0000
1000
0010
0000
0010
0100
,  // measure 15
0001
1000
0100
0001
0100
1000
0001
0000
,  // measure 16
2001
0000
0000
0100
0000
0000
3100
0000
1000
0001
0000
0001
0010
0000
0010
0100
,  // measure 17
1000
0001
0100
1000
0100
0001
0010
0100
,  // measure 18
2002
0000
0000
0003
,  // measure 19
0010
0000
0020
0000
3030
0000
0000
1002
,  // measure 20
0000
0013
0200
0000
1300
0001
0000
2001
,  // measure 21
0000
3100
0020
0000
0031
1000
0000
1002
,  // measure 22
0000
0013
0000
2100
0000
3001
0000
0110
,  // measure 23
0000
1001
0000
1000
0010
0100
0000
2001
,  // measure 24
0000
3010
0200
0000
0301
1000
0000
1002
,  // measure 25
0000
0103
0020
0000
1030
0001
0000
2001
,  // measure 26
0000
3010
0000
0102
0000
1003
0000
0110
,  // measure 27
0000
1001
0000
0001
0010
0100
0000
2100
,  // measure 28
0000
3001
0200
0000
0301
1000
0000
0012
,  // measure 29
0000
1003
0200
0000
1300
0001
0000
0102
,  // measure 30
0000
1003
0000
2010
0000
3001
0000
1100
,  // measure 31
0000
0011
0000
0001
1000
0010
0100
0001
,  // measure 32
0000
0011
0000
1100
0000
1000
0001
0100
,  // measure 33
0000
0101
0000
1010
0000
1000
0100
0010
,  // measure 34
0001
1000
0100
0001
0100
1000
0010
0000
,  // measure 35
1000
0001
0010
1000
0010
0001
0100
0000
,  // measure 36
0001
0010
1000
0010
0001
0100
0010
0000
,  // measure 37
0220
0000
0330
0000
1001
0000
0000
2020
,  // measure 38
0000
0000
0000
0000
0000
3030
0000
2200
,  // measure 39
0000
0000
0000
0000
0000
3300
0000
0022
,  // measure 40
0000
0000
0000
0000
0000
0033
0000
0202
,  // measure 41
0000
0000
0000
0000
0000
0303
0000
2010
,  // measure 42
0000
0000
0001
0000
3001
0000
0000
0102
,  // measure 43
0000
0000
1000
0000
1003
0000
0000
2100
,  // measure 44
0000
3001
0000
0012
0000
1003
0000
1001
,  // measure 45
0000
0001
0010
0100
1000
0001
0000
0102
,  // measure 46
0000
1003
0200
0000
1300
0001
0000
2010
,  // measure 47
0000
3001
0200
0000
0301
1000
0000
2100
,  // measure 48
0000
3001
0000
0012
0000
1003
0000
0101
,  // measure 49
0000
1010
0000
1000
0001
0010
0100
1000
,  // measure 50
0000
1010
0000
0101
0000
0001
1000
0100
,  // measure 51
0000
1100
0000
0011
0000
0001
0100
0010
,  // measure 52
1000
0001
0100
1000
0100
0001
0010
0000
,  // measure 53
0001
1000
0010
0001
0010
1000
0100
0000
,  // measure 54
1000
0010
0001
0010
1000
0100
0010
0000
,  // measure 55
0220
0000
0330
0000
2002
0000
3003
2010
,  // measure 56
0000
3001
0020
0000
0130
1000
0000
0012
,  // measure 57
0000
1003
0020
0000
0130
0001
0000
2001
,  // measure 58
0000
3100
0020
0000
0031
1000
0010
0200
,  // measure 59
0000
0301
1000
0100
0010
0001
0000
1001
,  // measure 60
0000
1000
0010
0100
0001
1000
0100
0010
,  // measure 61
0001
0100
0010
1000
0001
0010
0100
1000
,  // measure 62
0001
0000
1001
0000
1000
0100
0010
0001
,  // measure 63
1000
0000
0001
0010
0100
1000
0001
0000
,  // measure 64
0202
0000
0303
2020
0000
3030
0110
0000
,  // measure 65
1001
0000
0000
0000
;

//---------------dance-single - ----------------
#NOTES:
     dance-single:
     :
     Challenge:
     9:
     0.694365,0.835233,0.960937,0.692768,0.094976,435.000000,349.000000,86.000000,62.000000,0.000000,0.000000,0.694365,0.835233,0.960937,0.692768,0.094976,435.000000,349.000000,86.000000,62.000000,0.000000,0.000000:
// measure 0
0000
0000
0000
0000
,  // measure 1
0000
0000
0000
0000
,  // measure 2
2020
0000
0000
3030
,  // measure 3
0202
0000
0000
0303
,  // measure 4
0022
0033
2200
3300
,  // measure 5
2002
0000
0000
0000
3003
0000
0000
0000
0110
0000
1001
0000
1000
0001
1001
0000
,  // measure 6
1100
0000
0011
0000
0001
1000
0010
0000
,  // measure 7
1000
0100
0001
0100
1000
0001
0100
0000
,  // measure 8
0101
0000
1010
0000
1000
0001
0010
0000
,  // measure 9
0001
0100
1000
0100
0001
1000
0100
0000
,  // measure 10
0110
0000
1001
0000
0001
1000
0100
0010
,  // measure 11
0100
0000
1001
0000
1000
0001
0100
0010
,  // measure 12
0100
1001
1100
0011
,  // measure 13
0101
0000
1010
0000
1000
0100
0010
0001
,  // measure 14
2001
0000
0000
3200
0000
0000
0320
0000
0031
0100
0000
0100
1000
0000
1000
0010
,  // measure 15
0001
0000
0002
0000
0203
0000
0320
0000
2030
0000
3200
0000
0310
0001
1000
0000
,  // measure 16
1002
0000
0000
0203
0000
0000
0320
0000
1030
0100
0000
0100
0001
0000
0001
0010
,  // measure 17
1000
0000
2000
0000
3200
0000
0320
0000
0031
0100
0001
0100
0010
1000
0010
2000
,  // measure 18
0002
0000
0000
3000
,  // measure 19
0100
0100
0200
0000
0303
0000
0000
2010
,  // measure 20
0000
3100
0001
0100
1000
0001
0000
0102
,  // measure 21
0000
0013
1000
0010
0001
1000
0000
1010
,  // measure 22
0000
0011
0000
0101
0000
1100
0000
1010
,  // measure 23
0000
0101
0000
0001
1000
0100
0010
0012
,  // measure 24
0000
0103
1000
0100
0001
1000
0000
2100
,  // measure 25
0000
3010
0001
0010
1000
0001
0000
0011
,  // measure 26
0000
1010
0000
1100
0000
0101
0000
0011
,  // measure 27
0000
1100
0000
1000
0001
0100
0010
1020
,  // measure 28
0000
0130
0001
0010
0100
1000
0000
1200
,  // measure 29
0000
0310
0001
0100
0010
1000
0000
1100
,  // measure 30
0000
0011
0000
0101
0000
1001
0000
0110
,  // measure 31
0000
1001
0000
1000
0100
0010
0001
0101
,  // measure 32
0000
1010
0000
1001
0000
1000
0100
1100
,  // measure 33
0000
0011
0000
1001
0000
1000
0010
0100
,  // measure 34
0001
0010
1000
0010
0001
0100
0010
1000
,  // measure 35
0001
0100
1000
0100
0001
0010
0100
1000
,  // measure 36
0001
0100
1000
0001
0010
1000
0001
0000
,  // measure 37
0220
0000
0330
0000
2002
0000
3003
2020
,  // measure 38
0000
0000
0000
0000
0000
3030
0000
0202
,  // measure 39
0000
0000
0000
0000
0000
0303
0000
0022
,  // measure 40
0000
0000
0000
0000
0000
0033
0000
2200
,  // measure 41
0000
0000
0000
0000
0000
3300
0000
2010
,  // measure 42
0000
0000
0100
0000
0001
3001
0000
0012
,  // measure 43
0000
0000
0100
0000
1000
1003
0000
1010
,  // measure 44
0000
0101
0000
0011
0000
1100
0000
1001
,  // measure 45
0000
0000
0001
0000
0100
0000
0010
0000
1000
0001
1000
0001
1000
0001
0020
0000
,  // measure 46
0000
0130
1000
0010
0100
0001
0000
0201
,  // measure 47
0000
0310
1000
0100
0010
0001
0000
0101
,  // measure 48
0000
1010
0000
1100
0000
1001
0000
0110
,  // measure 49
0000
1001
0000
0001
0100
0010
1000
1100
,  // measure 50
0000
0011
0000
1001
0000
0001
0100
0101
,  // measure 51
0000
1010
0000
1001
0000
0001
0010
0100
,  // measure 52
1000
0010
0001
0010
1000
0100
0010
0001
,  // measure 53
1000
0100
0001
0100
1000
0010
0100
0001
,  // measure 54
1000
0100
0001
1000
0010
0001
1000
0000
,  // measure 55
2002
0000
3003
0000
0220
0000
0330
2001
,  // measure 56
0000
3100
0001
1000
0010
0001
1000
0002
,  // measure 57
0000
0103
1000
0001
0010
1000
0001
0200
,  // measure 58
0000
0310
1000
0100
0001
0100
1000
0200
,  // measure 59
0000
0310
0001
0100
1000
0100
0001
2001
,  // measure 60
0000
3010
1000
0100
0001
1000
0010
0001
,  // measure 61
0100
0001
0010
1000
0001
0100
1000
0010
,  // measure 62
1000
0001
0100
1000
0100
0001
1000
0010
,  // measure 63
0001
0010
1000
0001
0010
0100
1000
0001
,  // measure 64
0202
0000
0303
2020
0000
3030
0110
0000
,  // measure 65
1001
0000
0000
0000
;
