#TITLE:Eternal Glyph;
#SUBTITLE:;
#ARTIST:RedOgre;
#TITLETRANSLIT:Eternal Glyph;
#SUBTITLETRANSLIT:;
#ARTISTTRANSLIT:RedOgre;
#GENRE:Hardcore;
#CREDIT:;
#BANNER:Eternal Glyph-bn.png;
#BACKGROUND:Eternal Glyph-bg.png;
#LYRICSPATH:;
#CDTITLE:cdtitle.png;
#MUSIC:Eternal Glyph.ogg;
#OFFSET:-0.052000;
#SAMPLESTART:53.811001;
#SAMPLELENGTH:12.000000;
#SELECTABLE:YES;
#BPMS:0.000000=124.999992
,32.000000=249.999985
;
#STOPS:
;
#BGCHANGES:;
#KEYSOUNDS:;
#ATTACKS:;

//---------------dance-single - Challenge----------------
#NOTES:
     dance-single:
     Challenge:
     Challenge:
     10:
     0.685934,0.886188,0.303712,0.094006,0.072312,664.000000,622.000000,42.000000,13.000000,3.000000,0.000000,0.685934,0.886188,0.303712,0.094006,0.072312,664.000000,622.000000,42.000000,13.000000,3.000000,0.000000:
// measure 0
0000
0000
0000
0000
,  // measure 1
0000
0000
0000
0000
,  // measure 2
0000
0000
0000
0000
,  // measure 3
0000
0000
0000
0000
,  // measure 4
0000
0000
0000
0000
,  // measure 5
0000
0000
0000
0000
,  // measure 6
0000
0000
0000
0000
,  // measure 7
0000
0000
0000
0000
0000
0000
0000
0000
0000
0000
0000
0000
M000
000M
M000
0000
,  // measure 8
1000
0010
0100
0010
,  // measure 9
0001
0010
0100
1000
,  // measure 10
0001
1000
0010
1000
,  // measure 11
0001
0000
0100
0000
1000
0001
1000
0000
,  // measure 12
0001
0010
0100
0010
,  // measure 13
1000
0001
1000
0100
,  // measure 14
1000
0010
1000
0010
0100
0001
0100
0001
,  // measure 15
1000
0100
0010
0001
1000
0000
1001
0000
,  // measure 16
1000
0010
0100
0001
,  // measure 17
1000
0100
0010
0001
,  // measure 18
1000
0010
0100
0000
1000
0000
0010
0000
,  // measure 19
0100
0000
0000
0000
0010
0000
0000
0000
0001
0000
0001
1000
0001
0000
0000
0000
,  // measure 20
0010
0100
0001
0010
,  // measure 21
0001
0100
0010
0100
,  // measure 22
1000
0000
0010
0000
0000
0000
1000
0000
0010
0000
0000
0000
0100
0001
0100
0000
,  // measure 23
1000
0000
0100
0000
0010
0000
0001
0000
0010
0000
1000
0001
1000
0000
0000
0000
,  // measure 24
1000
0010
1000
0000
0100
0010
0100
0000
,  // measure 25
0001
0010
0100
0000
1000
0010
1000
0000
,  // measure 26
0001
1000
0010
0100
,  // measure 27
0001
0000
0000
0000
1000
0000
0000
0000
0010
0000
0100
0010
0100
0000
0000
0000
,  // measure 28
1000
0001
0100
0010
,  // measure 29
1000
0100
0010
0001
,  // measure 30
1000
0100
0010
0001
1000
0001
0100
0010
,  // measure 31
1000
0001
1000
0000
0010
0000
0110
0000
,  // measure 32
1000
0010
0001
0000
1000
0000
0010
0000
,  // measure 33
1000
0100
1000
0100
,  // measure 34
0010
0001
0010
0000
1000
0000
0001
0000
,  // measure 35
0100
0000
0010
0000
0100
0000
0000
0000
0001
0000
1000
0010
1000
0000
0000
0000
,  // measure 36
1000
0001
0100
0001
,  // measure 37
1000
0100
0010
0100
,  // measure 38
1000
0000
0001
0000
0000
0000
1000
0000
0001
0000
0000
0000
1000
0001
1000
0000
,  // measure 39
1000
0001
0100
0010
1000
0100
0010
0001
,  // measure 40
1000
1000
0100
0100
,  // measure 41
0010
0000
0010
0000
0001
0000
0001
0010
,  // measure 42
1000
1000
0010
0010
,  // measure 43
0100
0000
0100
0000
0001
1000
0001
0010
,  // measure 44
0100
0000
0100
0000
0010
0000
0010
0100
,  // measure 45
0001
0000
0001
0000
1000
0010
1000
0000
,  // measure 46
0100
0010
0001
0010
,  // measure 47
1000
0100
0010
0100
0001
0100
0010
0100
,  // measure 48
1000
0010
1000
0000
0100
0010
0100
0000
,  // measure 49
0001
1000
0001
0000
0100
0010
0100
0000
,  // measure 50
1000
0100
0010
0001
,  // measure 51
1000
0001
0100
0010
,  // measure 52
1000
0001
0100
0001
,  // measure 53
1000
0100
0010
0100
,  // measure 54
1000
0001
0100
0010
1000
0100
0010
0001
,  // measure 55
1000
0010
1000
0000
0100
0000
0110
0000
,  // measure 56
1000
0100
0010
0001
,  // measure 57
1000
0001
0100
0010
,  // measure 58
1000
0100
0010
0100
,  // measure 59
1000
0000
0000
0000
0001
0000
0000
0000
1000
0000
0010
0100
0010
0000
0000
0000
,  // measure 60
1000
0001
0100
0010
,  // measure 61
1000
0001
0100
0010
,  // measure 62
1000
0000
0010
0000
0000
0000
0100
0000
0001
0000
0000
0000
1000
0010
1000
0000
,  // measure 63
1000
0000
0000
0000
1000
0000
0000
0000
1000
0000
0001
0100
0001
0000
0000
0000
,  // measure 64
1000
0100
0010
0001
1000
0001
0100
0010
,  // measure 65
1000
0001
1000
0000
0010
0000
0100
0000
1000
0001
1000
0000
0001
0000
0000
0000
,  // measure 66
0100
0000
0001
0000
0100
0000
0000
0000
1000
0000
0010
0000
0100
0000
0001
1000
,  // measure 67
0001
0000
0000
0000
0010
0000
0000
0000
0100
0000
1000
0001
1000
0000
0000
0000
,  // measure 68
1000
0001
0100
0010
1000
0001
1000
0000
,  // measure 69
1000
0010
1000
0000
1000
0000
0100
0000
0010
0000
0001
0000
1000
0000
0000
0000
,  // measure 70
1000
0000
0010
0000
1000
0000
0001
0000
0100
0000
0010
0000
0100
0000
0001
0010
,  // measure 71
1000
0001
1000
0000
0010
0000
0110
0000
,  // measure 72
1000
0001
0100
0001
,  // measure 73
1000
0100
0010
0001
,  // measure 74
1000
0010
0100
0001
,  // measure 75
1000
0000
0000
0000
0001
0000
0100
0000
0001
0000
0000
0000
1000
0000
0001
0100
,  // measure 76
0001
1000
0010
0100
,  // measure 77
0001
1000
0100
1000
,  // measure 78
0001
0000
0100
0000
0000
0000
0001
0000
0100
0000
0000
0000
1000
0010
1000
0000
,  // measure 79
0001
0010
0001
0010
0100
1000
0100
1000
,  // measure 80
0001
1000
0001
0010
,  // measure 81
0001
1000
0010
0100
,  // measure 82
0001
0100
1000
0100
,  // measure 83
0001
1000
0001
0010
,  // measure 84
1000
0010
1000
0000
0100
0001
0100
0000
,  // measure 85
0010
1000
0001
0010
,  // measure 86
0001
0010
0100
0000
0010
0100
1000
0000
,  // measure 87
0010
0100
0010
0001
,  // measure 88
1000
0100
1000
0100
1000
0100
1000
0100
,  // measure 89
0010
0001
0010
0001
0010
0001
0010
0001
,  // measure 90
1000
0001
0100
0010
1000
0100
0010
0001
,  // measure 91
1000
0001
0100
0001
1000
0100
0001
0100
,  // measure 92
1000
0001
0100
0001
1000
0100
0010
0001
,  // measure 93
1000
0010
0100
0010
1000
0100
0010
0001
,  // measure 94
1000
0100
0010
0000
0100
0010
0001
0000
,  // measure 95
0100
0000
0010
0000
1000
0001
1000
0000
,  // measure 96
1001
0100
0010
1000
,  // measure 97
1001
0100
1000
0010
,  // measure 98
0011
0100
1000
0010
,  // measure 99
1001
0100
1000
0010
,  // measure 100
1010
0100
0001
0100
,  // measure 101
0011
0100
1000
0010
,  // measure 102
1010
0100
0001
0100
,  // measure 103
0110
1000
0100
0001
,  // measure 104
0011
0100
1000
0010
,  // measure 105
1001
0100
0001
0100
,  // measure 106
0011
0100
1000
0010
,  // measure 107
1001
0100
0001
0100
,  // measure 108
1010
0100
0001
0100
,  // measure 109
0011
0100
1000
0010
,  // measure 110
0110
0001
1010
0100
,  // measure 111
1000
0000
0000
0000
0100
0000
0000
0000
0001
0000
0010
0000
0100
0010
0100
0000
,  // measure 112
1000
0001
0011
0100
,  // measure 113
1010
0100
0101
0001
,  // measure 114
0011
0100
1010
0100
,  // measure 115
0011
0100
0100
1000
,  // measure 116
0010
1000
0011
0100
,  // measure 117
1010
0100
0101
0100
,  // measure 118
1010
0100
0011
0100
,  // measure 119
1010
0100
0001
0100
,  // measure 120
1000
0000
0200
0300
1010
0000
0002
0003
,  // measure 121
0110
0000
2000
3000
0011
0000
0200
0300
,  // measure 122
1010
0000
0002
0003
0101
0000
0020
0030
,  // measure 123
1100
0000
0002
0003
1000
0000
0010
0000
,  // measure 124
1000
0000
0020
0030
1100
0000
0002
0003
,  // measure 125
1001
0000
0020
0030
1100
0000
0002
0003
,  // measure 126
1000
0100
0010
0100
,  // measure 127
1000
0000
0000
0000
1000
0000
0100
0000
0010
0000
0100
0000
1000
0001
1000
0000
,  // measure 128
2002
0000
0000
0000
,  // measure 129
3003
0000
0000
0000
;
