#TITLE:Egoist (Olivia Hye);
#SUBTITLE:;
#ARTIST:이달의 소녀;
#TITLETRANSLIT:;
#SUBTITLETRANSLIT:;
#ARTISTTRANSLIT:LOOΠΔ;
#GENRE:;
#CREDIT:;
#BANNER:[Starts with Vowels] - Egoist (Olivia Hye).png;
#BACKGROUND:[Starts with Vowels] - Egoist (Olivia Hye)-bg.png;
#LYRICSPATH:;
#CDTITLE:cdtitle.png;
#MUSIC:[Starts with Vowels] - Egoist (Olivia Hye).mp3;
#OFFSET:-0.315000;
#SAMPLESTART:52.323513;
#SAMPLELENGTH:20.869572;
#SELECTABLE:YES;
#BPMS:0.000000=92.000000
;
#STOPS:
;
#BGCHANGES:1.000=[Starts with Vowels] - Egoist (Olivia Hye).avi=1.000=1=0=0=StretchNoLoop==CrossFade==,
99999=-nosongbg-=1.000=0=0=0 // don't automatically add -songbackground-
;
#KEYSOUNDS:;
#ATTACKS:;

//---------------dance-single - ----------------
#NOTES:
     dance-single:
     :
     Hard:
     8:
     0.317368,0.441391,0.009744,0.233850,0.243593,228.000000,227.000000,1.000000,24.000000,4.000000,0.000000,0.317368,0.441391,0.009744,0.233850,0.243593,228.000000,227.000000,1.000000,24.000000,4.000000,0.000000:
// measure 0
0000
0000
0000
0000
,  // measure 1
0000
0000
0000
0000
,  // measure 2
0000
0000
0000
0000
,  // measure 3
1000
0001
1000
0010
,  // measure 4
0200
0000
0000
0000
0300
0000
0000
0000
0001
0100
0001
0000
0100
0000
0000
0000
,  // measure 5
0002
0003
1000
1000
,  // measure 6
2000
0000
0000
0000
3000
0000
0000
0000
0100
1000
0100
0000
1000
0000
0000
0000
,  // measure 7
0001
1000
0001
0000
1000
0000
0000
0000
0001
0100
0001
0000
0100
0000
0000
0000
,  // measure 8
0020
0000
0000
0000
0030
0000
0000
0000
1000
0010
1000
0000
0010
0000
0000
0000
,  // measure 9
2000
3000
0001
0001
,  // measure 10
0002
0000
0000
0000
0003
0000
0000
0000
0010
0001
0010
0000
0001
0000
0000
0000
,  // measure 11
0010
0100
0010
0000
0100
0000
0000
0000
1000
0100
1000
0000
0100
0000
0000
0000
,  // measure 12
1000
0000
0000
0010
0000
0000
0100
0000
0000
0010
0000
0000
1000
0000
1000
0000
,  // measure 13
0001
0000
0000
0010
0000
0000
0100
0000
0000
0010
0000
0000
0001
0000
0001
0000
,  // measure 14
0010
0000
0000
0100
0000
0000
1000
0000
0000
0001
0000
0000
0100
0000
0100
0000
,  // measure 15
0001
0000
0000
0100
0000
0000
0010
0000
0000
1000
0000
0000
0100
0000
0100
0000
,  // measure 16
0010
0000
0000
0001
0000
0000
0010
0000
0000
0001
0000
0000
1000
0000
0001
0000
,  // measure 17
1000
0000
0000
0010
0000
0000
1000
0000
0000
0010
0000
0000
0100
0000
0001
0000
,  // measure 18
1000
0000
0000
0100
0000
0000
1000
0000
0000
0001
0000
0000
0100
0000
0010
0000
,  // measure 19
1000
0100
1000
0100
0010
0001
0010
0001
1000
0100
0010
0001
1000
0010
0000
0010
,  // measure 20
0100
0001
1000
0100
0020
0000
0000
0000
0100
0000
0000
0000
0M31
0000
1000
0000
,  // measure 21
0020
0000
0000
0000
0100
0000
0000
0000
0M31
0000
0010
0000
0100
0000
0010
1000
,  // measure 22
0001
0000
1000
0000
0100
0000
0010
0000
1000
0000
0010
0000
0100
0000
0010
0001
,  // measure 23
0100
0000
0010
0000
1000
0000
0001
0000
0010
0000
0100
1000
0000
0001
1000
0001
,  // measure 24
0010
0100
1000
0001
0200
0000
0000
0000
0010
0000
0000
0000
03M1
0000
1000
0000
,  // measure 25
0200
0000
0000
0000
0010
0000
0000
0000
03M1
0000
0100
0000
0010
0000
0100
1000
,  // measure 26
0010
0000
1000
0000
0001
0000
0100
0000
1000
0000
0100
0000
0010
0000
0100
0001
,  // measure 27
0100
0010
1000
0001
0020
0000
0230
0000
,  // measure 28
2300
0000
0000
0000
3010
1000
0010
0000
1000
0000
0001
0000
0010
0001
0010
0000
,  // measure 29
0100
0010
0010
0001
2000
0000
3020
0000
,  // measure 30
0230
0000
0000
0000
0301
0100
0001
0000
1000
0000
0001
0000
1000
0100
1000
0000
,  // measure 31
0100
0100
0010
0010
0002
0000
2003
0000
,  // measure 32
3020
0000
0000
0000
0130
0010
1000
0000
0001
0000
0001
0000
0010
0100
1000
0000
,  // measure 33
0001
1000
1000
0100
0020
0000
0032
0000
,  // measure 34
2003
0000
0000
0000
3010
0100
0010
0000
0100
0000
0100
0000
0001
1000
0001
0000
,  // measure 35
0010
0000
0000
0100
0000
0000
1000
0000
0001
0000
0000
0000
1000
0000
0000
0000
,  // measure 36
2002
0000
0000
0000
,  // measure 37
0000
0000
0000
3003
;

//---------------dance-single - ----------------
#NOTES:
     dance-single:
     :
     Medium:
     5:
     0.197659,0.239087,0.009744,0.185131,0.000000,142.000000,141.000000,1.000000,19.000000,0.000000,0.000000,0.197659,0.239087,0.009744,0.185131,0.000000,142.000000,141.000000,1.000000,19.000000,0.000000,0.000000:
0000
0000
0000
0000
,
0000
0000
0000
0000
,
0000
0000
0000
0000
,
0001
1000
0001
0010
,
0200
0300
1000
1000
,
2000
0000
3000
0000
0100
1000
0100
0000
,
2000
3000
0020
0130
,
0200
0000
0301
0000
0001
0100
0010
0000
,
2000
3000
0001
0001
,
0002
0003
0010
0010
,
0020
0030
0200
1300
,
2000
3001
0002
0103
,
0100
0000
0010
0000
1000
0000
0000
0010
,
1000
1000
0001
0001
,
0010
0000
0100
0000
1000
0000
0001
1000
,
0002
0000
2003
0000
,
3100
0000
0010
0000
0001
0000
0000
0010
,
0001
0001
0100
0100
,
0010
1000
0001
1000
,
0001
0010
0001
1000
0001
0100
0010
0000
,
1000
0100
0020
0000
0030
0000
0001
0000
,
0002
0000
0003
0000
1000
0001
1000
0001
,
1000
0000
0000
0000
0010
0100
0010
0100
,
0010
0010
0100
0100
,
0001
0100
0020
0000
0030
0000
1000
0001
,
0020
0000
0030
0000
0100
0010
0100
0010
,
0100
0000
0000
0000
1000
0001
1000
0001
,
1000
0000
0001
0001
,
0001
0000
0100
0100
0000
0000
0010
0010
,
0000
1000
1000
0000
0010
0000
0010
0000
,
0010
0000
1000
1000
0000
0000
0001
0001
,
0010
0010
0100
0100
0010
0000
0010
0000
,
0010
0000
0001
0001
0000
0000
1000
1000
,
0000
0010
0010
0000
0100
0000
0100
0000
,
0100
0000
0001
0001
0000
0000
1000
1000
,
0100
0010
0100
0100
,
0220
0000
0000
0000
,
0000
0000
0000
0330
;

//---------------dance-single - ----------------
#NOTES:
     dance-single:
     :
     Easy:
     3:
     0.128061,0.140310,0.000000,0.000000,0.000000,92.000000,92.000000,0.000000,0.000000,0.000000,0.000000,0.128061,0.140310,0.000000,0.000000,0.000000,92.000000,92.000000,0.000000,0.000000,0.000000,0.000000:
0000
0000
0000
0000
,
0000
0000
0000
0000
,
0000
0000
0000
0000
,
0000
0000
0000
0000
,
1000
0000
0001
0001
,
0001
0000
1000
1000
,
1000
0000
0001
0000
,
1000
0000
0001
1000
,
0100
0000
0010
0010
,
0010
0000
0100
0100
,
0100
0000
0010
0000
,
0100
0000
0010
0100
,
1000
0010
1000
0000
,
0010
0010
0100
0100
,
0001
1000
0001
0000
,
1000
0000
1000
0000
,
0001
0010
0001
0000
,
0010
0010
0100
0100
,
1000
0001
1000
0000
,
0010
0010
0100
0100
,
0001
0001
0000
1000
,
1000
0000
0100
0010
,
0100
0000
1000
0001
,
1000
0000
0000
0000
,
0010
0010
0000
0100
,
0100
0000
0001
0100
,
0001
0000
1000
0001
,
1000
0000
0100
1000
,
0100
0000
0100
0000
,
0100
0000
0010
0100
,
0010
0000
0010
0000
,
0010
0000
0001
0010
,
0001
0000
0001
0000
,
0001
0000
1000
0001
,
1000
0000
1000
0000
,
1000
0010
0100
0001
,
1000
0000
0000
0000
;

//---------------dance-single - ----------------
#NOTES:
     dance-single:
     :
     Beginner:
     1:
     0.069598,0.105232,0.000000,0.000000,0.000000,50.000000,50.000000,0.000000,0.000000,0.000000,0.000000,0.069598,0.105232,0.000000,0.000000,0.000000,50.000000,50.000000,0.000000,0.000000,0.000000,0.000000:
0000
0000
0000
0000
,
0000
0000
0000
0000
,
0000
0000
0000
0000
,
0000
0000
0000
0000
,
1000
0000
0000
0000
,
1000
0000
0000
0000
,
1000
0000
0000
0000
,
1000
0000
0000
0000
,
0001
0000
0000
0000
,
0001
0000
0000
0000
,
0001
0000
0000
0000
,
0001
0000
0000
0000
,
0010
0000
0000
0010
,
0010
0000
0010
0000
,
0100
0000
0000
0100
,
0100
0000
0100
0000
,
1000
0000
0000
1000
,
1000
0000
1000
0000
,
1000
0000
0000
0001
,
0001
0000
0001
0000
,
0100
0100
0000
0010
,
0010
0000
1000
0000
,
1000
0000
0001
0000
,
0001
0000
0000
0000
,
0010
0010
0000
0100
,
0100
0000
1000
0000
,
1000
0000
0001
0000
,
0001
0000
0100
0000
,
0100
0000
0000
0000
,
0000
0000
0010
0000
,
0010
0000
0000
0000
,
0000
0000
1000
0000
,
1000
0000
0000
0000
,
0000
0000
0001
0000
,
0001
0000
0000
0000
,
0000
0000
1000
0000
,
0001
0000
0000
0000
;
