#TITLE:ENERGY SYNERGY MATRIX;
#SUBTITLE:;
#ARTIST:Tanchiky;
#TITLETRANSLIT:;
#SUBTITLETRANSLIT:;
#ARTISTTRANSLIT:;
#GENRE:Power Bass;
#CREDIT:;
#BANNER:[Starts with Vowels] - ENERGY SYNERGY MATRIX.png;
#BACKGROUND:[Starts with Vowels] - ENERGY SYNERGY MATRIX-bg.png;
#LYRICSPATH:;
#CDTITLE:cdtitle.png;
#MUSIC:[Starts with Vowels] - ENERGY SYNERGY MATRIX.ogg;
#OFFSET:1.474772;
#SAMPLESTART:85.527229;
#SAMPLELENGTH:12.000000;
#LASTBEATHINT:1.242053;
#SELECTABLE:YES;
#DISPLAYBPM:80.000000:160.000000;
#BPMS:0.000000=160.000000
,38.000000=1280.000000
,41.000000=160.000000
,52.000000=1280.000000
,52.500000=160.000000
,54.000000=1280.000000
,57.000000=160.000000
,68.000000=1280.000000
,68.500000=160.000000
,70.000000=1280.000000
,72.000000=160.000000
,96.000000=320.000000
,100.000000=1280.000000
,104.000000=160.000000
,132.000000=80.000000
,133.000000=640.000000
,135.000000=160.000000
,147.000000=1280.000000
,147.500000=160.000000
,148.000000=640.000000
,148.666672=1280.000000
,152.000000=160.000000
,163.000000=1280.000000
,167.000000=80.000000
,183.000000=160.000000
,214.000000=320.000000
,214.500000=160.000000
,214.750000=80.000000
,215.000000=160.000000
,275.000000=1280.000000
,279.000000=160.000000
,291.000000=1280.000000
,291.500000=160.000000
,293.000000=1280.000000
,296.000000=160.000000
,307.000000=1280.000000
,307.500000=160.000000
,309.000000=1280.000000
,312.000000=160.000000
,312.125000=80.000000
,313.000000=1280.000000
,315.000000=160.000000
;
#STOPS:38.875000=0.328000,
39.875000=0.328000,
40.875000=0.328000,
52.375000=0.164000,
54.875000=0.329000,
55.875000=0.328000,
56.875000=0.328000,
68.375000=0.164000,
70.375000=0.164000,
70.875000=0.164000,
71.875000=0.328000,
96.000000=0.094000,
96.500000=0.094000,
97.000000=0.062000,
97.333336=0.063000,
97.666664=0.062000,
98.000000=0.047000,
98.250000=0.047000,
98.500000=0.047000,
98.750000=0.047000,
99.000000=0.093000,
99.500000=0.094000,
100.875000=0.328000,
101.875000=0.328000,
102.375000=0.164000,
102.875000=0.164000,
103.875000=0.329000,
133.000000=0.187000,
133.666672=0.188000,
134.333328=0.187000,
147.375000=0.164000,
148.000000=0.188000,
149.250000=0.218000,
149.916672=0.219000,
150.375000=0.164000,
150.875000=0.164000,
151.875000=0.328000,
163.625000=0.247000,
164.375000=0.246000,
165.125000=0.246000,
165.875000=0.246000,
166.875000=0.328000,
275.875000=0.328000,
276.875000=0.328000,
277.375000=0.164000,
277.875000=0.164000,
278.875000=0.328000,
291.375000=0.164000,
293.875000=0.329000,
294.875000=0.328000,
295.875000=0.328000,
307.375000=0.164000,
309.375000=0.164000,
309.875000=0.164000,
310.875000=0.328000,
313.625000=0.246000,
314.375000=0.246000
;
#BGCHANGES:3.938=[Starts with Vowels] - ENERGY SYNERGY MATRIX.avi=1.000=1=0=0=StretchNoLoop==CrossFade==,
99999=-nosongbg-=1.000=0=0=0 // don't automatically add -songbackground-
;
#KEYSOUNDS:;
#ATTACKS:;

//---------------dance-single - ----------------
#NOTES:
     dance-single:
     12-17:
     Challenge:
     12:
     0.978710,1.112514,0.839224,1.000613,1.202350,849.000000,745.000000,104.000000,124.000000,40.000000,0.000000,0.978710,1.112514,0.839224,1.000613,1.202350,849.000000,745.000000,104.000000,124.000000,40.000000,0.000000:
// measure 0
0000
0000
0000
0000
,  // measure 1
0000
0000
0000
0000
,  // measure 2
0000
0000
0000
0000
,  // measure 3
0000
0000
0000
0000
,  // measure 4
0000
0000
0000
0000
,  // measure 5
0000
0000
0000
0000
,  // measure 6
0001
0000
0010
0100
0010
0000
0001
0000
0100
0010
0000
0010
0100
0000
0001
0000
,  // measure 7
1000
0000
0010
0100
0010
0000
1000
0000
0100
0010
0000
0010
0100
0000
1000
0000
,  // measure 8
0001
0000
1000
0010
1000
0000
0001
0000
0100
0010
0000
0010
1000
0000
0100
0000
,  // measure 9
0010
0000
0001
0000
1000
0000
0001
0000
0100
0000
0001
0000
0100
0000
0001
0000
2002
0000
0000
0000
0000
0000
0000
3003
0220
0000
0000
0000
0000
0000
0000
0330
,  // measure 10
2002
0000
0000
0000
0000
0000
0000
3003
0001
0000
0100
0000
0001
0000
0010
0000
0000
0000
MM11
0000
0000
0000
001M
0000
1000
0000
0100
0000
1000
0000
0000
0000
,  // measure 11
0001
0100
0001
0000
1000
0100
1000
0010
0000
1M1M
0000
M010
0001
0100
0001
0100
,  // measure 12
0010
0000
1000
0000
0001
0010
0001
0100
0000
M1M1
0000
01MM
1000
0010
0100
0001
,  // measure 13
2001
0000
0000
3000
0100
0000
0010
0000
0100
0000
0010
0000
0100
0000
0010
0000
0022
0000
0000
0000
0000
0000
0000
0033
2200
0000
0000
0000
0000
0000
0000
3300
,  // measure 14
0022
0000
0000
0000
0000
0000
0000
0033
1000
0000
0010
0000
1000
0000
0200
0000
0300
0000
0002
0000
0003
0000
2000
0000
3020
0000
0030
0000
0002
0000
0003
0000
,  // measure 15
1000
0010
1000
0000
0001
0010
0001
0200
0300
2000
3000
0002
0023
0030
2000
3000
,  // measure 16
0100
0000
0010
0000
0100
1000
0001
0200
0300
0020
0030
2000
3200
0300
0020
0030
,  // measure 17
1002
0000
0000
0003
0100
0000
0010
0000
0100
0000
0010
0000
0100
0000
0010
0000
2020
0000
0000
3030
0202
0000
0000
0303
2020
0000
0000
0000
0000
0000
0000
3030
,  // measure 18
1001
0000
0001
0000
0010
0100
0000
0010
0001
1000
0000
0001
0100
0000
0010
0000
,  // measure 19
0100
0000
1000
0000
0100
0010
0000
0100
0001
1000
0000
0100
0010
0000
0001
0000
,  // measure 20
1001
0000
1000
0000
0010
0100
0000
0010
1000
0001
0000
1000
0100
0000
0010
0000
,  // measure 21
0011
0000
0001
0000
0100
0010
0000
0010
1010
0000
1001
0000
0011
0000
0100
0000
,  // measure 22
1100
0000
1000
0000
0001
0100
0000
0010
1000
0100
0000
0010
0001
0000
0010
0000
,  // measure 23
1000
0000
0010
0000
0001
0100
0000
0010
1000
0100
0000
0010
0001
0000
1000
0000
,  // measure 24
1001
0000
0000
0000
0000
0000
0001
0000
0000
0000
0000
0000
1000
0000
0000
0000
0001
0000
0000
0000
1000
0000
0000
0000
0001
0000
0000
1000
0000
0000
0001
0000
0000
1000
0000
0000
0001
0000
0000
0000
0000
0000
1000
0000
0000
0000
0000
0000
,  // measure 25
2020
0000
0000
0000
0000
0000
0000
3030
0022
0000
0000
0000
0000
0000
0000
0033
0102
0000
0000
0003
0010
0000
0000
0000
2200
0000
0000
0000
0000
0000
0000
3300
,  // measure 26
1001
0000
1000
0000
0010
0000
1000
0001
0010
0100
0000
0100
0010
0100
0001
0000
,  // measure 27
0100
0010
0001
0000
1001
0000
1000
0000
0010
0100
0000
0100
0010
0100
1000
0000
,  // measure 28
1100
0000
0100
0000
0001
0000
0010
0000
0100
1000
0000
1000
0001
0100
0010
0000
,  // measure 29
1010
0000
1000
0100
0000
0100
0001
0000
0001
0010
0000
0010
1000
0000
1100
0000
,  // measure 30
1001
0000
0001
0000
0100
0000
0010
0000
1000
0100
0000
0100
0010
0001
0100
0000
,  // measure 31
1001
0000
1000
0000
0100
0000
0010
0000
0001
0100
0000
0100
0010
1000
0100
0000
,  // measure 32
1001
0000
0100
0010
0100
0000
1001
0000
0001
0010
0100
0010
1000
0010
0100
0010
,  // measure 33
0001
0000
0000
0000
0000
0000
0000
0000
0000
0000
0000
0000
0000
0000
0000
0000
0000
0000
0001
0000
0000
0000
0000
0000
0000
0000
0000
0000
0000
0000
0000
0000
0000
0000
0000
0000
0001
0000
0000
0000
0000
0000
0000
0000
0000
0000
0000
0000
1001
0000
0000
0000
0000
0000
0000
0000
0000
0000
0000
0000
0000
0000
0000
0000
0000
0000
0000
0000
0000
0000
0000
0000
0000
0000
0000
0000
0000
0000
0000
0000
1010
0000
0000
0000
0000
0000
0000
0000
0000
0000
0000
0000
0000
0000
0000
0000
0000
0000
0000
0000
0000
0000
0000
0000
0000
0000
0000
0000
0000
0000
0000
0000
0101
0000
0000
0000
0000
0000
0000
0000
0000
0000
0000
0000
0000
0000
0000
0000
0000
0000
0000
0000
0000
0000
0000
0000
0000
0000
0000
0000
0000
0000
0000
0000
1001
0000
0000
0000
0000
0000
0000
0000
0000
0000
0000
0000
0000
0000
0000
0000
0000
0000
0000
0000
0000
0000
0000
0000
0000
0000
0000
0000
0000
0000
0000
0000
0000
0000
0000
0000
0000
0000
0000
0000
0000
0000
0000
0000
0000
0000
0000
0000
,  // measure 34
1000
0010
1000
0100
M0MM
0100
0001
0010
0001
0000
1000
0000
0001
0100
0001
0000
,  // measure 35
1000
0100
1000
0010
MM0M
0010
0001
0100
0001
0000
1000
0000
0100
0000
0010
0000
,  // measure 36
0001
0000
0100
0000
0001
0000
0010
0000
MM0M
0000
0010
0000
1000
0000
0100
0000
1000
0000
0001
0000
1000
0000
0001
0000
1002
0000
0000
0003
0010
0000
0100
0000
,  // measure 37
0010
0000
0000
0000
0000
0000
0000
0000
0000
0000
0000
0000
0000
0000
0000
0000
0000
0000
0000
0000
0000
0000
0000
0000
0000
0000
0000
0000
0000
0000
0000
0000
2002
0000
0000
0000
0000
0000
0000
0000
0000
0000
0000
0000
0000
0000
0000
0000
0000
0000
0000
0000
0000
0000
0000
0000
0000
0000
0000
0000
3003
0000
0000
0000
2002
0000
0000
0000
0000
0000
0000
0000
0000
0000
0000
0000
0000
0000
0000
0000
0000
0000
0000
0000
0000
0000
0000
0000
0000
0000
0000
0000
3003
0000
0000
0000
0220
0000
0000
0000
0000
0000
0000
0000
0000
0000
0000
0000
0000
0000
0000
0000
0000
0000
0330
0000
0000
0000
0000
0000
0220
0000
0000
0000
0000
0000
0000
0000
0000
0000
0000
0000
0000
0000
0000
0000
0000
0000
0330
0000
0000
0000
0000
0000
2002
0000
0000
0000
0000
0000
0000
0000
0000
0000
0000
0000
0000
0000
0000
0000
0000
0000
0000
0000
0000
0000
0000
0000
0000
0000
0000
0000
0000
0000
0000
0000
0000
0000
0000
0000
0000
0000
0000
0000
0000
0000
3003
0000
0000
0000
0000
0000
,  // measure 38
0001
0010
0001
0100
M0MM
0100
1000
0010
1000
0010
0100
0001
1000
0100
1000
0000
,  // measure 39
0001
0100
0001
0010
MM0M
0010
1000
0100
0010
0001
0010
0100
1000
0000
0001
0000
,  // measure 40
1000
0000
0010
0000
1000
0000
0100
0000
M0MM
0000
0100
0000
0001
0000
0010
0000
0100
0000
1000
0000
0010
0000
0100
0000
0202
0000
0000
0000
0000
0303
0022
0000
,  // measure 41
0000
0000
0000
0033
2200
0000
0000
0000
0000
3300
2020
0000
0000
0000
0000
3030
0202
0000
0000
0000
0000
0000
0000
0303
1001
0000
0000
0000
1000
0000
0100
0000
,  // measure 42
0010
0000
0010
0000
0010
0000
0000
0000
0100
1000
0000
0000
0001
0000
0100
0000
0010
0000
0010
0000
0010
0000
0100
0000
0001
1000
0000
0000
0001
0000
0010
0000
,  // measure 43
0100
0000
0100
0000
0100
0000
0010
0000
0001
0100
0010
1000
0100
0000
0010
0000
0001
0000
0001
0000
0001
0000
0000
0000
1000
0010
0000
0000
0001
0000
0010
0000
,  // measure 44
1000
0000
1000
0000
1000
0000
0000
0000
0001
0010
0000
0000
1000
0000
0010
0000
0001
0000
0001
0000
0001
0000
1000
0000
0001
0100
0000
0000
1000
0000
0100
0000
,  // measure 45
0001
0000
0001
0000
0001
0000
0010
0000
0100
1000
0010
0100
0001
0000
1000
0000
0200
0000
0000
0000
0310
0001
0010
0001
1000
0000
0000
0000
1000
0000
0000
0000
,  // measure 46
0100
0000
0001
0000
0001
0000
0100
0010
0100
0000
1000
0000
0001
0000
0001
0000
,  // measure 47
0100
0010
0000
0010
1000
0001
0000
1000
0100
1000
0100
0010
0001
0000
0001
0000
,  // measure 48
0100
0000
1000
0000
1000
0000
0100
0010
0100
0000
0001
0000
0101
0000
0000
0011
,  // measure 49
0000
0000
1100
0000
0000
1010
0000
1000
0100
0000
0010
0000
0011
0000
0000
0000
,  // measure 50
0001
0100
0000
0010
0000
0010
0000
0100
0001
0000
1000
0000
0001
0000
0001
0000
,  // measure 51
1000
0100
0000
0010
0000
0010
0000
0100
1000
0000
0001
0000
1000
0000
0010
0000
,  // measure 52
0001
0010
0000
1000
0000
1000
0000
0100
0001
0000
0100
0000
1000
0010
1000
0010
,  // measure 53
0100
0001
0100
0001
1000
0100
0010
0001
0200
0000
0000
0300
1001
0000
1000
0000
,  // measure 54
0001
0010
0000
1001
0000
1001
0000
0010
1000
0000
0100
0000
0001
0000
0100
0000
,  // measure 55
1000
0010
0000
1001
0000
1001
0000
0010
0001
0000
1000
0000
1001
0000
0001
0000
,  // measure 56
1000
0010
0000
1001
0000
1001
0000
0010
0001
0000
0100
0000
1000
0000
0100
0000
,  // measure 57
0001
0010
0000
0010
0001
0100
0001
0100
0010
0000
1000
0000
1010
0000
0100
0000
,  // measure 58
0001
0010
0000
1001
0000
1001
0000
0100
1000
0000
0010
0000
0001
0000
0010
0000
,  // measure 59
1000
0100
0000
1001
0000
1001
0000
0010
0001
0000
0100
0000
0101
0000
0010
1000
,  // measure 60
0000
1000
0100
0000
1100
0000
0010
0001
0000
0001
0100
0000
0101
0000
0010
1000
,  // measure 61
0000
1000
0100
0000
1100
0000
0110
0000
0011
0000
0101
0000
1001
0000
1000
0000
,  // measure 62
0001
0010
0100
0010
0000
1010
0000
0010
0100
0010
0001
1000
0010
0000
0100
0000
,  // measure 63
0001
0010
MM0M
0010
1000
0100
M0MM
0100
0001
0000
0010
0000
0110
0000
0100
0000
,  // measure 64
1000
0010
1000
0100
0000
0011
0000
0001
0100
0000
0010
0000
1001
0000
1000
0000
,  // measure 65
0100
1000
0000
1000
0010
0100
0010
0100
0001
0000
0010
0000
0011
0000
0001
0000
,  // measure 66
1000
0010
0100
0010
0000
0011
0000
0010
0100
0010
1000
0001
0010
0000
0100
0000
,  // measure 67
1000
0010
MM0M
0010
0001
0100
M0MM
0100
1000
0000
0010
0000
1010
0000
0001
0000
,  // measure 68
0101
0000
0000
0000
1000
0000
0000
0000
1100
0000
0000
0000
0001
0000
0000
0000
0011
0000
0000
0000
1000
0000
0000
0000
2020
0000
0000
0000
0000
0000
0000
3030
,  // measure 69
0022
0000
0000
0000
0000
0000
0000
0033
0102
0000
0000
0003
0010
0000
0000
0000
2200
0000
0000
0000
0000
0000
0000
3300
1001
0000
0000
0000
1000
0000
0000
0000
,  // measure 70
0001
0010
0001
0200
0300
2000
3000
0002
0023
0030
2000
3000
0001
0010
0001
0000
,  // measure 71
1000
0010
1000
0200
0300
0002
0003
2000
3020
0030
0002
0003
0100
0000
1000
0000
,  // measure 72
0100
0000
0010
0000
0100
0000
0002
0000
0003
0000
0020
0000
0030
0000
0200
0000
2300
0000
3000
0000
0020
0000
0030
0000
2010
0000
0000
3000
0001
0000
0010
0000
,  // measure 73
0100
0000
0010
0000
0100
0000
0010
0000
0022
0000
0000
0000
0000
0000
0000
0033
2200
0000
0000
0000
0000
0000
0000
3300
0022
0000
0000
0000
0000
0000
0000
0033
,  // measure 74
0001
0010
0001
0200
0300
2000
3000
0002
2003
3000
0200
0300
0001
0100
0001
0000
,  // measure 75
1000
0010
1000
0200
0300
0002
0003
2000
3002
0003
0200
0300
1000
0000
0001
0000
,  // measure 76
1000
0000
0100
0000
1000
0000
0020
0000
0030
0000
0002
0000
0003
0000
2000
0000
3200
0000
0300
0000
0002
0000
0003
0000
0012
0000
0000
0003
1000
0000
0010
0000
,  // measure 77
0100
0000
0010
0000
0100
0000
0010
0000
2020
0000
0000
3030
0202
0000
0000
0303
2020
0000
0000
0000
0000
0000
0000
3030
2002
0000
0000
0000
0000
0000
0000
3003
,  // measure 78
0000
0000
0000
0000
0000
0000
0000
0000
2002
0000
0000
0000
0000
3003
2002
0000
0000
0000
0000
3003
2002
0000
0000
0000
0000
3003
0000
0000
0000
0000
0000
0000
;

//---------------dance-single - ----------------
#NOTES:
     dance-single:
     10-15:
     Hard:
     10:
     0.819627,1.080728,0.669765,0.685904,0.887641,711.000000,628.000000,83.000000,85.000000,0.000000,0.000000,0.819627,1.080728,0.669765,0.685904,0.887641,711.000000,628.000000,83.000000,85.000000,0.000000,0.000000:
0000
0000
0000
0000
,
0000
0000
0000
0000
,
0000
0000
0000
0000
,
0000
0000
0000
0000
,
0000
0000
0000
0000
,
0000
0000
0000
0000
,
0011
0000
0000
1100
0000
0000
0010
0000
0001
0100
0000
0001
0100
0000
0010
0000
,
1010
0000
0000
0101
0000
0000
0010
0000
1000
0100
0000
1000
0100
0000
0010
0000
,
0011
0000
0000
1001
0000
0000
1000
0000
0010
0100
0000
0010
0100
0000
0001
0000
,
1000
0000
0100
0000
0010
0000
0001
0000
1000
0000
0000
0000
0000
0000
0000
0000
2020
0000
0000
0000
0000
0000
0000
3030
0202
0000
0000
0000
0000
0000
0000
0303
,
2020
0000
0000
0000
0000
0000
0000
3030
0001
0000
0000
0000
0010
0000
0100
0000
0000
0000
1000
0000
0000
0000
0010
0000
0100
0000
0000
0000
0001
0000
0000
0000
,
1000
0001
1000
0000
0001
0000
0100
0010
0000
1000
0000
0100
0010
0000
0001
0000
,
1000
0000
0010
0000
1000
0000
0001
0010
0000
0100
0000
1000
0001
0000
0100
0000
,
2001
0000
0000
3000
0100
0000
0010
0000
0100
0000
0010
0000
0100
0000
0010
0000
0002
0000
0000
0000
0000
0000
0000
0003
2200
0000
0000
0000
0000
0000
0000
3300
,
0022
0000
0000
0000
0000
0000
0000
0033
1000
0000
0000
0000
0010
0000
0100
0000
0000
0000
1000
0000
0000
0000
0100
0000
0010
0000
0000
0000
1000
0000
0000
0000
,
0001
1000
0001
0000
1000
0000
0001
0010
0000
0100
0000
0001
0100
0000
0010
0000
,
0001
0000
1000
0000
0010
0000
0001
0010
0000
0100
0000
0010
1000
0000
0100
0000
,
1002
0000
0000
0003
0100
0000
0010
0000
0100
0000
0010
0000
0100
0000
0010
0000
2000
0000
0000
3000
0020
0000
0000
0030
2002
0000
0000
0000
0000
0000
0000
3003
,
1000
0000
0100
0000
0010
0001
0000
1000
0001
1000
0000
0001
0100
0000
0010
0000
,
1000
0000
0001
0000
0010
0100
0000
0010
0001
1000
0000
0001
0100
0000
0010
0000
,
1000
0000
0100
0000
1000
0001
0000
1000
0010
1000
0000
0001
1000
0000
0100
0000
,
0010
0000
0001
0000
1000
0010
0000
1000
0100
0000
0001
0000
0100
0000
1000
0000
,
0001
0000
0100
0000
0010
1000
0000
0001
1000
0001
0000
1000
0100
0000
0010
0000
,
0001
0000
0100
0000
0010
1000
0000
0100
0010
0001
0000
0100
0010
0000
1000
0000
,
2002
0000
0000
0000
0000
0000
0000
3003
,
2002
0000
0000
0000
0000
0000
0000
3003
0220
0000
0000
0000
0000
0000
0000
0330
2001
0000
0000
3000
0100
0000
0000
0000
2002
0000
0000
0000
0000
0000
0000
3003
,
0011
0000
0000
0010
0000
0000
0001
0000
1000
0001
0000
0001
0100
0000
0101
0000
,
0000
0000
1010
0000
1010
0000
0000
0000
0010
1000
0000
1000
0100
0000
0011
0000
,
0011
0000
0000
0100
0000
0000
1000
0000
0001
0100
0000
0100
0010
0000
1010
0000
,
1001
0000
0000
1100
0000
0000
1001
0000
0000
0101
0000
0000
1001
0000
0110
0000
,
1001
0000
0000
1000
0000
0000
0100
0000
0010
0001
0000
0010
0001
0000
0101
0000
,
1001
0000
0000
0001
0000
0000
0100
0000
0010
1000
0000
0010
1000
0000
1100
0000
,
1001
0000
0000
0001
0000
0000
0101
0000
1001
0000
0000
1000
0000
0000
1100
0000
,
0002
0000
0000
1003
0000
0110
0000
0110
0000
1001
0000
0000
,
1000
0000
0010
0001
0000
0001
0010
0000
1000
0000
0100
0000
0010
0100
0010
0000
,
0001
0000
0100
1000
0000
1000
0100
0000
0001
0000
0010
0000
0001
0000
0100
0000
,
0001
0000
0000
0000
0010
0000
1000
0000
0000
0000
1000
0000
0010
0000
0000
0000
0001
0000
0000
0000
0100
0000
0000
0000
2020
0000
0000
3030
0000
0000
0000
0000
,
0000
0000
0000
0000
0000
0000
0000
0000
0000
0000
0000
0000
0000
0000
0000
0000
0000
0000
0000
0000
0000
0000
0000
0000
0000
0000
0000
0000
0000
0000
0000
0000
2020
0000
0000
0000
0000
0000
0000
0000
0000
0000
0000
0000
0000
0000
0000
0000
0000
0000
0000
0000
0000
0000
0000
0000
0000
0000
0000
0000
3030
0000
0000
0000
2020
0000
0000
0000
0000
0000
0000
0000
0000
0000
0000
0000
0000
0000
0000
0000
0000
0000
0000
0000
0000
0000
0000
0000
0000
0000
0000
0000
3030
0000
0000
0000
2000
0000
0000
0000
0000
0000
0000
0000
0000
0000
0000
0000
0000
0000
0000
0000
0000
0000
3000
0000
0000
0000
0000
0000
0200
0000
0000
0000
0000
0000
0000
0000
0000
0000
0000
0000
0000
0000
0000
0000
0000
0000
0300
0000
0000
0000
0000
0000
0022
0000
0000
0000
0000
0000
0000
0000
0000
0000
0000
0000
0000
0000
0000
0000
0000
0000
0000
0000
0000
0000
0000
0000
0000
0000
0000
0000
0000
0000
0000
0000
0000
0000
0000
0000
0000
0000
0000
0000
0000
0000
0033
0000
0000
0000
0000
0000
,
1000
0000
0100
0001
0000
0100
1000
0000
0001
0000
0100
0000
0010
1000
0010
0000
,
0100
0000
0001
0010
0000
1000
0010
0000
0001
0000
0100
0000
0010
0000
1000
0000
,
0100
0000
0000
0000
0001
0000
0100
0000
0000
0000
1000
0000
0100
0000
0000
0000
0010
0000
0000
0000
0001
0000
0000
0000
0202
0000
0000
0000
0000
0303
0022
0000
,
0000
0000
0000
0033
2200
0000
0000
0000
0000
3300
2020
0000
0000
0000
0000
3030
2002
0000
0000
0000
0000
0000
0000
3003
1100
0000
0000
0000
1000
0000
0100
0000
,
0010
0100
1000
0000
0101
0000
0001
0100
0010
0100
0001
1000
1100
0000
1000
0010
,
0100
0000
0010
0000
0001
0000
0010
0000
1000
0010
0100
0010
1000
0000
0010
0000
0100
0000
0001
0000
0010
0000
0000
0000
0011
0000
0000
0000
0001
0000
0010
0000
,
0100
0010
0001
0000
1010
0000
1000
0010
0100
0010
1000
0001
0011
0000
0001
0100
,
0010
0000
0100
0000
1000
0000
0100
0000
0001
0010
0100
0010
0001
0000
1000
0000
0200
0000
0000
0000
0310
0000
0001
0000
1000
0000
0000
0000
1000
0000
0000
0000
,
0010
0001
0001
0010
1000
0010
0100
0001
,
1001
0000
0000
0000
1000
0010
0000
1000
0100
0000
0010
0000
0001
0000
0001
0000
,
0010
0000
1000
0000
1000
0000
0010
0000
0001
0000
0010
0000
0110
0000
0000
1100
,
0000
0000
0110
0000
0000
0011
0000
0000
0001
0000
1000
0000
1001
0000
0000
0000
,
0001
0100
0000
0010
0000
0100
0000
0010
0100
0000
0010
0000
1000
0000
0001
0000
,
1000
0100
0000
0010
0000
0100
0000
0010
0100
0000
0010
0000
0001
0000
1000
0000
,
0010
0100
0000
0010
0000
0100
0000
0010
1000
0000
0001
0000
0020
0000
0130
0000
,
0020
0130
2000
3001
0200
0300
1010
0000
,
0010
1000
0000
0001
0000
0001
0000
1000
0100
0000
0010
0000
0001
0000
0100
0000
,
1000
0100
0000
0010
0000
0010
0000
0100
0001
0000
0010
0000
0011
0000
0000
0000
,
0010
0001
0000
1000
0000
1000
0000
0001
0100
0000
0010
0000
1000
0000
0100
0000
,
0010
0001
0000
1000
0010
0000
0001
0000
0010
0000
1000
0000
1001
0000
0000
0000
,
1000
0100
0000
0010
0000
0010
0000
0001
0100
0000
0010
0000
1000
0000
0100
0000
,
0001
0100
0000
0010
0000
0010
0000
0100
1000
0000
0010
0000
1002
0000
0000
0103
,
0000
0100
0001
0000
2001
0000
0000
3100
0000
0100
1000
0000
1002
0000
0000
0103
,
0000
0100
0001
0000
0010
0000
1000
0000
0010
0000
0001
0000
1000
0000
0010
0000
,
1000
0001
0010
0001
0000
1000
0000
0001
0100
0001
0100
0001
1000
0000
0001
0000
,
0010
0100
0000
0001
0000
0100
0000
0010
0001
0000
1000
0000
0001
0000
0100
0000
,
0010
1000
0001
1000
0000
0100
0000
0010
0001
0000
0100
0000
1000
0000
0100
0000
,
0001
0010
0000
0010
0100
0000
1000
0000
0010
0000
0100
0000
0001
0000
0010
0000
,
0001
1000
0010
1000
0000
0001
0000
1000
0100
1000
0100
1000
0001
0000
0100
0000
,
0010
0100
0000
1000
0000
0100
0000
0010
1000
0000
0100
0000
0020
0000
0031
0000
,
0200
0000
0000
0000
1300
0000
0000
0000
0200
0000
0000
0000
0310
0000
0000
0000
0200
0000
0000
0000
0301
0000
0000
0000
2002
0000
0000
0000
0000
0000
0000
3003
,
0220
0000
0000
0000
0000
0000
0000
0330
2001
0000
0000
3000
0100
0000
0000
0000
2002
0000
0000
0000
0000
0000
0000
3003
0001
0000
0000
0000
1000
0000
0000
0000
,
0001
0000
0010
0100
0000
0001
0000
0100
0010
0000
0001
0000
1000
0001
1000
0000
,
0001
0000
1000
0010
0000
0100
0000
1000
0100
0000
0010
0000
1000
0000
0001
0000
,
0010
0000
0000
0000
1000
0000
0010
0000
0000
0000
0100
0000
0000
0000
0010
0000
0001
0000
0000
0000
0100
0000
0000
0000
2001
0000
0000
3000
0010
0000
1000
0000
,
0010
0000
1000
0000
0010
0000
1000
0000
0200
0000
0000
0000
0000
0000
0000
0300
0022
0000
0000
0000
0000
0000
0000
0033
2200
0000
0000
0000
0000
0000
0000
3300
,
1000
0000
0010
0001
0000
1000
0000
0100
0001
0000
1000
0000
0100
0010
0100
0000
,
0010
0000
0001
0010
0000
1000
0000
0001
0100
0000
1000
0000
0010
0000
0001
0000
,
0010
0000
1000
0100
0000
0001
0000
0100
1000
0000
0010
0000
1002
0000
0013
0001
,
0010
0000
0001
0000
0010
0000
0001
0000
0200
0000
0000
0300
0020
0000
0000
0030
2002
0000
0000
0000
0000
0000
0000
3003
2002
0000
0000
0000
0000
0000
0000
3003
,
0000
0000
0000
0000
0000
0000
0000
0000
2002
0000
0000
0000
0000
3003
2002
0000
0000
0000
0000
3003
2002
0000
0000
0000
0000
3003
0000
0000
0000
0000
0000
0000
;

//---------------dance-single - ----------------
#NOTES:
     dance-single:
     09-13:
     Medium:
     9:
     0.664001,0.953583,0.629418,0.726252,0.367160,576.000000,498.000000,78.000000,90.000000,0.000000,0.000000,0.664001,0.953583,0.629418,0.726252,0.367160,576.000000,498.000000,78.000000,90.000000,0.000000,0.000000:
0000
0000
0000
0000
,
0000
0000
0000
0000
,
0000
0000
0000
0000
,
0000
0000
0000
0000
,
0000
0000
0000
0000
,
0000
0000
0000
0000
,
1000
0000
0000
0010
0000
0000
1000
0000
0100
0000
0000
0100
0000
0000
1000
0000
,
0001
0000
0000
0010
0000
0000
0001
0000
0100
0000
0000
0100
0000
0000
0001
0000
,
1000
0000
0000
0010
0000
0000
1000
0000
0001
0000
0000
0010
0000
0000
0001
0000
,
0100
0000
0000
0000
0010
0000
0000
0000
0100
0000
0000
0000
0000
0000
0000
0000
2002
0000
0000
0000
0000
0000
0000
3003
0220
0000
0000
0000
0000
0000
0000
0330
,
2002
0000
0000
0000
0000
0000
0000
3003
1000
0000
0000
0000
0100
0000
0010
0000
0000
0000
0100
0000
0000
0000
0000
0000
0100
0000
0000
0000
0010
0000
0000
0000
,
0001
0000
1000
0000
0001
0000
0100
0010
0000
0100
0000
0000
0100
0000
0001
0000
,
1000
0000
0010
0000
1000
0000
0100
0010
0000
0100
0000
0000
1000
0000
0001
0000
,
2002
0000
0000
3003
0000
0000
0000
0000
0000
0000
0000
0000
0000
0000
0000
0000
2002
0000
0000
0000
0000
0000
0000
3003
0220
0000
0000
0000
0000
0000
0000
0330
,
2002
0000
0000
0000
0000
0000
0000
3003
0001
0000
0000
0000
0000
0000
0010
0000
0000
0000
0010
0000
0000
0000
0001
0000
0100
0000
0000
0000
0010
0000
0000
0000
,
1000
0000
0001
0000
1000
0000
0000
0010
0000
0010
0000
1000
0100
0000
0010
0000
,
0100
0000
1000
0000
0001
0000
0000
1000
0000
0010
0000
0100
0001
0000
1000
0000
,
2002
0000
0000
3003
0000
0000
0000
0000
0000
0000
0000
0000
0000
0000
0000
0000
0200
0000
0000
0300
0020
0000
0000
0030
2002
0000
0000
0000
0000
0000
0000
3003
,
1000
0100
0010
0100
0001
0100
0010
0100
,
1000
0010
0100
0010
0001
0010
0100
0010
,
1000
0001
0010
0100
0001
0100
1000
0010
,
0100
1000
0100
0001
0010
0010
0100
1000
,
0001
0100
0010
0100
1000
0100
0010
0100
,
0001
0010
0100
0010
1000
0010
0100
0010
,
2002
0000
0000
0000
0000
0000
0000
3003
,
0022
0000
0000
0000
0000
0000
0000
0033
0202
0000
0000
0000
0000
0000
0000
0303
0010
0000
0000
0000
1000
0000
0000
0000
2200
0000
0000
0000
0000
0000
0000
3300
,
1001
0000
0000
0001
0000
0000
0100
0000
0010
0000
0000
0100
0000
0000
0101
0000
,
0000
0000
1001
0000
1001
0000
0000
0000
1000
0000
0000
0100
0000
0000
0110
0000
,
0110
0000
0000
1000
0000
0000
0001
0000
0100
0000
0000
0001
0000
0000
1001
0000
,
1001
0000
0000
0011
0000
0000
1001
0000
0000
1010
0000
0000
1000
0000
0001
0000
,
1001
0000
0000
1000
0000
0000
0100
0000
0001
0000
0000
0100
0000
0000
1100
0000
,
1100
0000
0000
0001
0000
0000
0100
0000
1000
0000
0000
0100
0000
0000
0101
0000
,
2002
0000
3003
1100
2002
0000
3003
1000
,
0002
0000
0000
0103
0000
0110
0000
0110
0000
1001
0000
0000
,
1000
0000
0001
0010
0000
0100
0000
0000
0010
0000
0001
0000
0100
0000
1000
0000
,
0100
0000
0001
0010
0000
0100
0000
0000
0010
0000
0100
0000
1000
0000
0010
0000
,
0001
0000
0000
0000
0010
0000
1000
0000
0000
0000
0100
0000
0000
0000
0000
0000
0010
0000
0000
0000
0001
0000
0000
0000
2002
0000
0000
3003
0000
0000
0000
0000
,
0000
0000
0000
0000
0000
0000
0000
0000
0000
0000
0000
0000
0000
0000
0000
0000
0000
0000
0000
0000
0000
0000
0000
0000
0000
0000
0000
0000
0000
0000
0000
0000
2002
0000
0000
0000
0000
0000
0000
0000
0000
0000
0000
0000
0000
0000
0000
0000
0000
0000
0000
0000
0000
0000
0000
0000
0000
0000
0000
0000
3003
0000
0000
0000
2002
0000
0000
0000
0000
0000
0000
0000
0000
0000
0000
0000
0000
0000
0000
0000
0000
0000
0000
0000
0000
0000
0000
0000
0000
0000
0000
0000
3003
0000
0000
0000
0200
0000
0000
0000
0000
0000
0000
0000
0000
0000
0000
0000
0000
0000
0000
0000
0000
0000
0300
0000
0000
0000
0000
0000
0020
0000
0000
0000
0000
0000
0000
0000
0000
0000
0000
0000
0000
0000
0000
0000
0000
0000
0030
0000
0000
0000
0000
0000
2002
0000
0000
0000
0000
0000
0000
0000
0000
0000
0000
0000
0000
0000
0000
0000
0000
0000
0000
0000
0000
0000
0000
0000
0000
0000
0000
0000
0000
0000
0000
0000
0000
0000
0000
0000
0000
0000
0000
0000
0000
0000
3003
0000
0000
0000
0000
0000
,
0001
0000
1000
0010
0000
0100
0000
0000
0010
0000
1000
0000
0100
0000
0001
0000
,
0100
0000
1000
0010
0000
0100
0000
0000
0010
0000
0100
0000
0001
0000
0010
0000
,
1000
0000
0000
0000
0010
0000
0001
0000
0000
0000
0100
0000
0000
0000
0000
0000
0010
0000
0000
0000
1000
0000
0000
0000
2020
0000
0000
0000
0000
3030
0202
0000
,
0000
0000
0000
0303
0022
0000
0000
0000
0000
0033
2200
0000
0000
0000
0000
3300
2002
0000
0000
0000
0000
0000
0000
3003
0101
0000
0000
0000
0001
0000
0100
0000
,
0001
0100
0001
0000
1100
0000
1000
0100
1000
0100
1000
0000
0101
0000
0001
0100
,
0001
0100
0001
0000
1000
0010
0001
0010
0100
0010
1000
0000
1010
0000
0001
0100
,
0001
0100
0001
0000
0011
0000
1000
0100
1000
0100
1000
0000
1010
0000
0001
0100
,
0001
0100
0001
0000
1000
0100
0001
0100
2000
0000
3000
0000
0001
0000
0000
0000
,
0001
0000
0100
0010
0100
0000
1000
0000
,
1000
0000
0100
0010
0100
0000
0001
0000
,
0001
0000
0000
0000
0010
0000
0100
0000
0010
0000
0000
0000
0100
0000
0000
1000
,
0000
0000
0001
0000
0000
1000
0000
0000
0010
0000
1000
0000
1001
0000
0000
0000
,
1001
0000
0100
0010
0100
0000
1001
0000
,
1001
0000
0010
0100
0010
0000
1000
0001
,
0010
0001
1000
0010
1000
0001
0010
1000
,
0010
0001
0200
0000
0310
0000
1001
0000
,
1000
0010
0100
0001
0010
0001
0100
0010
,
1000
0100
0001
0100
1000
0010
1001
0000
,
0001
0010
0001
0100
0010
1000
0100
0001
,
0100
1000
0010
0010
0010
0000
1001
0000
,
0001
0010
1000
0010
0001
0100
1000
0100
,
0001
0000
0010
0000
0100
0000
1000
0000
0010
0000
0100
0000
0102
0000
0000
1003
,
0000
0000
1000
0000
2100
0000
0000
3001
0000
0000
0001
0000
0102
0000
0000
1003
,
0000
1000
0100
0010
0001
0100
0101
0001
,
1000
0001
0010
0001
1000
0001
0101
0100
,
0010
0100
1000
0100
0010
1000
1001
0001
,
0010
0100
0001
0100
0010
0001
1001
1000
,
0010
0100
0001
0001
0010
0100
1100
1000
,
0001
1000
0010
1000
0001
1000
1100
0100
,
0010
0100
0001
0100
1000
0001
2000
3010
,
0002
0000
0000
0000
0013
0000
0000
0000
2000
0000
0000
0000
3100
0000
0000
0000
0002
0000
0000
0000
0103
0000
0000
0000
2200
0000
0000
0000
0000
0000
0000
3300
,
2020
0000
0000
0000
0000
0000
0000
3030
0100
0000
0000
0000
0001
0000
0000
0000
0022
0000
0000
0000
0000
0000
0000
0033
1000
0000
0000
0000
0001
0000
0000
0000
,
1000
0000
0000
0010
0000
0010
0000
1000
0100
0000
0010
0000
0001
0000
1000
0000
,
0001
0000
0000
0010
0000
0010
0000
0001
0100
0000
0010
0000
0100
0000
0001
0000
,
1000
0000
0000
0000
0000
0000
0001
0000
0000
0000
0010
0000
0000
0000
0100
0000
1000
0000
0000
0000
0001
0000
0000
0000
2002
0000
0000
3003
0000
0000
0000
0000
,
0000
0000
0000
0000
0000
0000
0000
0000
2002
0000
0000
0000
0000
0000
0000
3003
0220
0000
0000
0000
0000
0000
0000
0330
2002
0000
0000
0000
0000
0000
0000
3003
,
1000
0000
0000
0100
0000
0001
0000
0100
0010
0000
0100
0000
1000
0000
0001
0000
,
0001
0000
0000
0100
0000
0010
0000
0100
1000
0000
0100
0000
0001
0000
1000
0000
,
1000
0000
0000
0000
0000
0000
0001
0000
0000
0000
0010
0000
0000
0000
1000
0000
0010
0000
0000
0000
0001
0000
0000
0000
2002
0000
0000
3003
0000
0000
0000
0000
,
0000
0000
0000
0000
0000
0000
0000
0000
0200
0000
0000
0300
0020
0000
0000
0030
2002
0000
0000
0000
0000
0000
0000
3003
2002
0000
0000
0000
0000
0000
0000
3003
,
0000
0000
0000
0000
0000
0000
0000
0000
2002
0000
0000
0000
0000
3003
2002
0000
0000
0000
0000
3003
2002
0000
0000
0000
0000
3003
0000
0000
0000
0000
0000
0000
;

//---------------dance-single - ----------------
#NOTES:
     dance-single:
     07-10:
     Easy:
     7:
     0.525668,0.824800,0.556793,0.096834,0.068590,456.000000,387.000000,69.000000,12.000000,0.000000,0.000000,0.525668,0.824800,0.556793,0.096834,0.068590,456.000000,387.000000,69.000000,12.000000,0.000000,0.000000:
0000
0000
0000
0000
,
0000
0000
0000
0000
,
0000
0000
0000
0000
,
0000
0000
0000
0000
,
0000
0000
0000
0000
,
0000
0000
0000
0000
,
1100
0010
0001
0100
,
0101
0010
1000
0100
,
1100
0001
0101
1000
,
2002
3003
1001
0110
,
1001
0000
1000
0000
0010
1000
0100
0000
,
1001
0000
0001
0000
0010
0001
0100
0000
,
1001
0000
1000
0000
0010
1000
0100
0000
,
1001
0000
1001
0110
,
1001
0000
0001
0000
1000
0010
0100
0010
,
1000
0000
1000
0000
0001
0010
0100
0010
,
0001
0000
0001
0000
1000
0010
0100
0001
,
1000
0000
0000
0000
1000
0001
1000
0000
,
0001
0000
0001
0000
0100
0001
0010
0000
,
0001
0000
0001
0000
0010
1000
0100
0000
,
0001
0000
0001
0000
0010
0001
0100
0000
,
0010
0000
1000
0000
0001
1000
0001
0000
,
1000
0000
1000
0000
0100
1000
0010
0000
,
1000
0000
1000
0000
0010
0001
0100
0000
,
2000
0000
0000
3000
,
1010
0101
0011
1100
,
1001
0000
0010
0001
1000
0000
1000
0001
,
0100
0000
0100
0001
1000
0000
0110
0000
,
1001
0000
0010
1000
0001
0000
0001
1000
,
0100
0000
0000
0010
0000
0000
0100
0000
0000
0010
0000
0000
0100
0000
0000
0000
,
1001
0000
1000
0010
0001
0000
0001
0010
,
1000
0000
0001
0010
1000
0000
1000
0010
,
0001
0000
0010
0001
0100
0000
0001
0100
,
0020
0000
0000
0200
0000
0030
0000
0300
0000
1001
0000
0000
,
0100
1000
0010
0100
0001
0000
1001
0000
,
0100
0001
0010
0100
1000
0000
1001
0000
,
0100
1000
0010
0100
0001
0000
1001
0000
,
0000
0000
0000
0000
2002
0000
0000
0000
0000
0000
0000
0000
3000
0000
0000
0003
0000
0000
1001
0000
0000
0000
0000
0000
,
0001
0010
1000
0010
0001
0000
0110
0000
,
1000
0010
0001
0010
1000
0000
0110
0000
,
0001
0000
0100
0000
0010
0000
1000
0000
0100
0000
0000
0000
0010
0000
0000
0100
,
0000
0000
0010
0000
0000
0100
0000
0000
0010
0000
0000
0000
1001
0000
0001
0000
,
0100
0001
0100
0000
1001
0000
1000
0000
0100
1000
0100
0000
1001
0000
0001
0000
,
0100
0001
0100
0000
0010
1000
0100
0000
0010
0001
0100
0000
1010
0000
1000
0000
,
0010
1000
0001
0000
0011
0000
0001
0000
0010
0001
1000
0000
1010
0000
1000
0000
,
0010
1000
0100
0000
0010
0001
0100
0000
0020
0000
0030
0000
1000
0000
0000
0000
,
1000
0010
0010
0100
,
0100
0001
0001
0010
,
0010
0000
0000
0000
0100
0000
0000
0000
0100
0000
0000
0000
1000
0000
0000
0001
,
0000
0000
1000
0000
0000
0001
0000
0000
1000
0000
0000
0000
1001
0000
0000
0000
,
0100
0000
0100
0001
0100
0000
1001
0000
,
0100
0000
0100
1000
0100
0000
1001
0000
,
0010
0001
0100
0000
0010
1000
0100
0000
,
0100
0000
0100
0000
0200
0300
0011
0000
,
0010
0001
1000
0001
0100
0000
1010
0000
,
0010
1000
0001
1000
0100
0000
0011
0000
,
0010
0001
1000
0001
0100
0000
1010
0000
,
1000
0000
0001
1000
0001
0000
0011
0000
,
0100
1000
0010
0100
0001
0000
1010
0000
,
0100
0001
0010
0100
1000
0000
2010
0000
,
3100
0012
0103
2010
,
3100
0000
0010
0001
1000
0000
1001
0000
,
0001
0100
0010
0100
1000
0000
1100
0000
,
1000
0100
0010
0100
0001
0000
1001
0000
,
0001
0010
0100
0010
0001
0000
1001
0000
,
0110
0000
1000
0001
1000
0000
1001
0000
,
1000
0100
0010
0100
0001
0000
0101
0000
,
0001
0100
0010
0100
1000
0000
1010
0000
,
0101
0011
1100
1001
,
1001
0000
1000
0001
1000
0000
1001
0000
,
1000
0000
0001
0010
0100
0010
0001
0000
,
0001
0000
1000
0010
0100
0010
1000
0000
,
1000
0000
0001
0010
0100
1000
0001
0000
,
0000
1001
0110
1001
,
1000
0000
0010
1000
0010
0001
0010
0000
,
1000
0000
0100
1000
0100
0001
0100
0000
,
1000
0000
0100
1000
0010
0100
0001
0000
,
0000
0000
1000
0001
1000
0000
1001
0000
,
0000
0000
0000
0000
1001
0000
0000
1001
0000
0000
1001
0000
0000
0000
0000
0000
;

//---------------dance-single - ----------------
#NOTES:
     dance-single:
     04-06:
     Beginner:
     4:
     0.364279,0.444123,0.298570,0.121042,0.004035,316.000000,279.000000,37.000000,15.000000,0.000000,0.000000,0.364279,0.444123,0.298570,0.121042,0.004035,316.000000,279.000000,37.000000,15.000000,0.000000,0.000000:
0000
0000
0000
0000
,
0000
0000
0000
0000
,
0000
0000
0000
0000
,
0000
0000
0000
0000
,
0000
0000
0000
0000
,
0000
0000
0000
0000
,
1000
1000
0010
0010
,
0100
0100
0001
0001
,
0010
0010
0100
0100
,
2002
3003
1001
0110
,
1001
1000
0010
1000
,
0001
0001
0010
0001
,
1000
1000
0010
1000
,
1001
0000
1001
0110
,
1001
0001
0010
0010
,
0100
1000
0010
0010
,
0100
0001
1000
0100
,
0110
0000
1001
1001
,
0001
0100
0010
1000
,
0100
0010
0001
1000
,
0010
0100
0001
0010
,
0001
0100
0010
1000
,
0100
0010
0001
1000
,
0001
0100
0010
1000
,
0200
0000
0000
0300
,
0011
1100
0011
1100
,
1001
0001
0100
0100
,
1000
1000
0010
0010
,
1000
1000
0100
0100
,
0001
0010
0100
1000
,
0010
0010
0100
0100
,
0001
0001
1000
1000
,
0100
0010
0100
0010
,
0200
0300
0000
1000
,
0010
0001
0010
1000
,
0100
0001
0100
1000
,
0010
0100
0001
1001
,
0000
0000
1001
0000
0000
0000
0000
0000
0000
1001
0000
0000
,
0001
0010
1000
0010
,
0001
0100
1000
0100
,
0001
0010
0100
2002
,
0000
0000
0000
0000
3003
0000
0001
0100
,
0001
0000
0100
0010
0100
0000
1000
0100
,
1000
0000
0100
0100
0001
0000
1000
0100
,
1000
0000
0100
0010
0100
0000
0001
0100
,
0001
0000
0100
0100
1000
0000
0001
0000
,
0100
0001
0100
0010
,
1000
0010
1000
0001
,
0010
0001
0010
0100
,
1000
0100
1000
0001
,
0001
0100
0100
1000
,
1000
0100
0100
0001
,
0001
0010
0010
0100
,
1000
0001
0200
0310
,
0010
1000
0001
0010
,
0010
0001
1000
0010
,
0010
1000
0001
0010
,
0100
1000
0001
0100
,
0100
0010
1000
0100
,
0100
0010
0001
2002
,
3003
0220
0330
2002
,
3003
1000
0001
0010
,
0010
1000
0010
0001
,
0001
0100
1000
0100
,
0100
0001
0010
0001
,
0100
0010
1000
0100
,
0100
0001
0100
1000
,
1000
0010
0100
0001
,
0001
1000
1000
1100
,
0011
1100
0011
1001
,
1000
0010
0010
0100
,
0001
0010
0010
0100
,
1000
0001
0100
1001
,
0000
1001
0110
1001
,
1000
0010
0001
0010
,
1000
0100
0001
0100
,
1000
0010
0100
1001
,
0000
1001
1001
1001
,
0000
0000
2002
0000
0000
3003
0000
0000
;
