#TITLE:Amsterdam;
#SUBTITLE:;
#ARTIST:Jay Hardway;
#TITLETRANSLIT:;
#SUBTITLETRANSLIT:;
#ARTISTTRANSLIT:;
#GENRE:;
#CREDIT:Pilgrimsito;
#BANNER:Amsterdam.png;
#BACKGROUND:Amsterdam-bg.png;
#LYRICSPATH:;
#CDTITLE:cdtitle.png;
#MUSIC:Amsterdam.ogg;
#OFFSET:0.004000;
#SAMPLESTART:78.761986;
#SAMPLELENGTH:15.000000;
#SELECTABLE:YES;
#DISPLAYBPM:64.000000:128.000000;
#BPMS:0.000000=128.000000
,32.000000=64.000000
,84.000000=128.000000
,108.000000=256.000000
,116.000000=64.000000
,118.000000=128.000000
,213.000000=64.000000
;
#STOPS:181.750000=0.470000
;
#BGCHANGES:;
#KEYSOUNDS:;
#ATTACKS:;

//---------------dance-single - ----------------
#NOTES:
     dance-single:
     :
     Hard:
     9:
     0.540160,0.693380,0.251567,0.312552,0.796628,496.000000,463.000000,33.000000,41.000000,56.000000,0.000000,0.540160,0.693380,0.251567,0.312552,0.796628,496.000000,463.000000,33.000000,41.000000,56.000000,0.000000:
// measure 0
0000
0000
0000
0000
,  // measure 1
0000
0000
0000
0000
,  // measure 2
0000
0000
0000
0000
,  // measure 3
0000
0000
0000
0000
,  // measure 4
1010
0000
0001
0000
0001
0000
0010
0000
0010
0000
0001
0000
0200
0000
0000
0300
,  // measure 5
0110
0000
0001
0000
0001
0000
1000
0000
1000
0000
0001
0000
0020
0000
0000
0030
,  // measure 6
1100
0000
0001
0000
0001
0000
1000
0000
1000
0000
0010
0000
0200
0000
0000
0300
,  // measure 7
0110
0000
1000
0000
1000
0000
0001
0000
0001
0000
1000
0000
0020
0000
0000
0030
,  // measure 8
0201
0000
0000
0000
0000
0000
0000
0000
0000
0000
0000
0000
0000
0000
0000
0300
,  // measure 9
0001
0100
0010
1000
0001
0100
0010
1000
0001
0010
0100
1000
0001
0010
0100
1000
,  // measure 10
0010
1000
0100
0010
0100
1000
0010
0100
0001
0010
0100
0010
0001
0100
0010
1000
,  // measure 11
0001
0010
0100
1000
0001
0100
0010
1000
0001
0010
0100
1000
0001
0100
0010
1000
,  // measure 12
0100
1000
0010
0100
0010
1000
0100
0010
0001
0100
0010
0100
0001
0010
0100
1000
,  // measure 13
0020
0000
0100
0100
1000
0000
0100
0130
2000
0000
0100
0100
0001
0000
0100
3100
,  // measure 14
0002
0000
0010
0013
0200
0000
1000
1300
0020
0000
0100
0130
0002
0000
1000
1003
,  // measure 15
0200
0000
0010
0010
1000
0000
0010
0310
2000
0000
0010
0010
0001
0000
0010
3010
,  // measure 16
0002
0000
0100
0103
0020
0000
1000
1030
0200
0000
0010
0310
0002
0000
1000
1003
,  // measure 17
0001
0010
0000
0000
0001
0000
0000
0000
1000
0010
0000
0000
1000
0000
0000
0000
0001
0100
0000
0000
0001
0000
0000
0000
1000
0100
0000
1000
0000
0010
0100
0000
,  // measure 18
0001
0010
0000
0000
0100
0000
0000
0000
1000
0010
0000
0000
0100
0000
0000
0000
0001
1000
0000
0000
0100
0000
0000
0000
0010
0001
0000
1000
0000
0001
0100
0000
,  // measure 19
0010
1000
0000
0000
0100
0000
0000
0000
0010
0001
0000
0000
0100
0000
0000
0000
0010
0100
0000
0000
0001
0000
0000
0000
1000
0100
0000
1000
0000
0001
0100
0000
,  // measure 20
0010
1000
0000
0000
0001
0000
0000
0000
0010
0001
0000
0000
1000
0000
0000
0000
0100
1000
0000
0000
0010
0000
0000
0000
0100
0010
0000
1000
0000
0001
0010
0000
,  // measure 21
0110
0001
0100
0010
,  // measure 22
1000
0100
0010
0001
,  // measure 23
1000
0010
0000
0000
0100
0000
0000
0000
0001
0010
0000
0000
0100
0000
0000
0000
,  // measure 24
1000
0001
0000
0000
0100
0000
0000
0000
0010
0000
0000
0000
1000
0000
0000
0000
,  // measure 25
0001
0010
0100
1000
0010
0100
0001
1000
,  // measure 26
0100
0010
0001
0100
0010
1000
0001
0010
,  // measure 27
0400
M000
0000
M000
0000
M000
0000
M000
,  // measure 28
0000
M000
0000
M000
0000
M000
0000
M000
,  // measure 29
0300
000M
000M
M000
M000
00M0
0M00
0000
0001
0100
0000
0010
0000
0100
0001
0000
,  // measure 30
1000
0020
0000
1030
0200
0000
0000
0000
1300
0001
0000
0100
0000
0001
0010
0100
,  // measure 31
0010
0001
0000
1010
0000
1010
0000
0000
1000
010M
0000
01M0
0000
M100
0001
0000
,  // measure 32
0010
0200
0000
1300
0020
0000
0000
0000
1030
0100
0000
1000
0000
0010
0100
0001
,  // measure 33
1000
0001
0000
1100
0000
1100
0000
0000
0001
0010
0000
0100
0000
0010
0001
0000
,  // measure 34
0100
2000
0000
3100
0002
0000
0000
0000
0013
0100
0000
0010
0000
0001
1000
0010
,  // measure 35
1000
0100
0000
1001
0000
1001
0000
0000
0001
M010
0000
0M10
0000
001M
1000
0000
,  // measure 36
0001
0020
0000
1030
0020
0000
0000
0000
0130
1000
0000
0010
0000
0100
0001
1000
,  // measure 37
0010
0000
1000
0000
0000
0000
0101
0000
0000
0000
0101
0000
0000
0000
0000
MMMM
MMMM
MMMM
0000
0000
0000
0000
1001
0000
0000
0000
1001
0000
0000
0000
0000
0000
,  // measure 38
0001
0020
0000
0031
0200
0000
0000
0000
0301
1000
0000
0100
0000
1000
0010
0100
,  // measure 39
0010
1000
0000
0011
0000
0011
0000
0000
0001
M100
0000
01M0
0000
010M
1000
0000
,  // measure 40
0010
0200
0000
0301
0020
0000
0000
0000
0031
0100
0000
0001
0000
0010
0100
1000
,  // measure 41
0001
1000
0000
0101
0000
0101
0000
0000
1000
0010
0000
0100
0000
0010
1000
0000
,  // measure 42
0100
0002
0000
0103
2000
0000
0000
0000
3010
0100
0000
0010
0000
1000
0001
0010
,  // measure 43
0001
0100
0000
1001
0000
1001
0000
0000
1000
001M
0000
0M10
0000
M010
0001
0000
,  // measure 44
1000
0020
0000
0031
0020
0000
0000
0000
0130
0001
0000
0010
0000
0100
1000
0001
,  // measure 45
0010
0001
0000
1100
0000
1100
0000
00M0
0101
0000
0001
1000
0001
0000
0010
0001
,  // measure 46
0010
0000
0100
0000
1100
0000
1000
0001
1000
0000
0010
1000
0010
0000
0100
0001
,  // measure 47
0100
0000
0010
0000
1010
0000
1000
0001
1000
0000
0100
0010
0100
0000
1000
0001
,  // measure 48
1000
0000
0010
0000
0110
0000
0100
0001
0100
0000
0010
1000
0010
0000
1000
0100
,  // measure 49
1000
0000
0001
0000
1001
0000
1000
0100
0010
0000
0010
0100
1000
0000
0010
0100
,  // measure 50
0001
0000
0010
0000
0011
0000
0001
1000
0100
0000
0100
1000
0001
0000
0001
0100
,  // measure 51
0010
0000
1000
0000
1100
0000
1000
0010
0001
0000
0001
0010
1000
0000
1000
0100
,  // measure 52
0001
0000
0100
0000
0220
000M
000M
000M
0000
M000
M000
M000
0000
000M
000M
000M
,  // measure 53
0000
0330
1002
0000
0000
MM00
0203
0000
,  // measure 54
0000
0000
00MM
0000
2300
0000
0000
3020
0000
0000
MM00
0032
0000
0000
0000
2000
,  // measure 55
0000
3MM3
0000
0000
0000
0000
0000
0000
;

//---------------dance-single - ----------------
#NOTES:
     dance-single:
     :
     Medium:
     8:
     0.362648,0.525288,0.106725,0.236320,0.137218,333.000000,319.000000,14.000000,31.000000,20.000000,0.000000,0.362648,0.525288,0.106725,0.236320,0.137218,333.000000,319.000000,14.000000,31.000000,20.000000,0.000000:
// measure 0
0000
0000
0000
0000
,  // measure 1
0000
0000
0000
0000
,  // measure 2
0000
0000
0000
0000
,  // measure 3
0000
0000
0000
0000
,  // measure 4
1000
0010
1000
0010
1000
0100
2000
0000
,  // measure 5
3001
0010
0001
0010
0001
0100
0002
0000
,  // measure 6
0013
0100
1000
0100
1000
0001
2000
0000
,  // measure 7
3010
0100
0010
0100
0001
1000
0002
0000
,  // measure 8
M103
0000
0000
0000
,  // measure 9
2000
3010
0200
0301
0020
0130
2000
3001
,  // measure 10
2000
3100
0020
0130
2000
3010
0002
0013
,  // measure 11
2000
3100
0020
0031
0200
0310
2000
3001
,  // measure 12
2000
3010
0200
0310
2000
3100
0002
0103
,  // measure 13
2000
0000
0001
0001
0001
0000
0001
0001
3002
0000
0010
0010
0010
0000
0010
0010
,  // measure 14
0023
0000
0100
0100
0100
0000
0100
0100
0230
0000
1000
1000
1000
0000
1000
1000
,  // measure 15
2300
0000
0001
0001
0001
0000
0001
0001
3002
0000
0100
0100
0100
0000
0100
0100
,  // measure 16
0203
0000
0010
0010
0010
0000
0010
0010
0320
0000
1000
1000
1000
0000
1000
1000
,  // measure 17
1030
0001
0000
0000
0000
0000
0000
0000
0010
0100
0000
0000
0000
0000
0000
0000
1000
0001
0000
0000
0000
0000
0000
0000
1000
0100
0000
0000
0000
0000
0000
0000
,  // measure 18
1000
0001
0000
0000
0000
0000
0000
0000
0100
0010
0000
0000
0000
0000
0000
0000
1000
0001
0000
0000
0000
0000
0000
0000
1000
0010
0000
0000
0000
0000
0000
0000
,  // measure 19
1000
0001
0000
0000
0000
0000
0000
0000
0010
0100
0000
0000
0000
0000
0000
0000
1000
0001
0000
0000
0000
0000
0000
0000
1000
0100
0000
0000
0000
0000
0000
0000
,  // measure 20
1000
0001
0000
0000
0000
0000
0000
0000
0100
0010
0000
0000
0000
0000
0000
0000
1000
0001
0000
0000
0000
0000
0000
0000
1000
0010
0000
0000
0000
0000
0000
0000
,  // measure 21
1M01
1001
0110
0110
,  // measure 22
1001
1001
0110
0110
,  // measure 23
1000
0001
0000
0000
1001
0000
0000
0000
0001
1000
0000
0000
1001
0000
0000
0000
,  // measure 24
1000
0100
0000
0000
1100
0000
0000
0000
0110
0000
0000
0000
0011
0000
0000
0000
,  // measure 25
0001
0010
0001
0010
0100
1000
0100
1000
,  // measure 26
0010
1000
0010
1000
0001
0100
0001
0100
,  // measure 27
002M
0000
0000
0000
,  // measure 28
0000
0000
0000
0000
,  // measure 29
M030
0000
0000
0000
1M00
0010
1000
0001
,  // measure 30
1000
0100
0010
0000
0001
0010
0001
1000
,  // measure 31
0001
0100
0010
0000
1000
0100
0010
0100
,  // measure 32
1000
0010
0100
0000
0001
0100
0010
0100
,  // measure 33
0001
0010
0100
0000
1000
0100
0010
0001
,  // measure 34
1000
0010
0100
0000
0001
0010
0100
1000
,  // measure 35
0001
0100
0010
0000
1000
0001
1000
0100
,  // measure 36
0001
0100
1000
0000
0001
1000
0001
0010
,  // measure 37
1000
0010
0001
0000
MMMM
0000
0001
1000
,  // measure 38
0001
0010
0100
0000
1000
0100
1000
0001
,  // measure 39
1000
0010
0100
0000
0001
0010
0100
0010
,  // measure 40
0001
0100
0010
0000
1000
0010
0100
0010
,  // measure 41
1000
0100
0010
0000
0001
0010
0100
1000
,  // measure 42
0001
0100
0010
0000
1000
0100
0010
0001
,  // measure 43
1000
0010
0100
0000
0001
1000
0001
0010
,  // measure 44
1000
0010
0001
0000
1000
0001
1000
0100
,  // measure 45
0001
0000
0100
0000
1000
0000
0000
MMM0
0004
0000
0000
0000
4003
0000
0000
0000
,  // measure 46
3100
4000
3004
4003
,  // measure 47
3010
4000
3400
4300
,  // measure 48
3001
4000
3040
4030
,  // measure 49
3001
0400
0340
4030
,  // measure 50
3100
4000
3040
0430
,  // measure 51
0301
0040
0430
4300
,  // measure 52
3010
4000
3400
0340
,  // measure 53
0031
0000
0220
0000
0000
M00M
0000
0000
,  // measure 54
0000
M00M
0000
0000
0000
M00M
0000
0000
,  // measure 55
0000
M33M
0000
0000
0000
0000
0000
0000
;

//---------------dance-single - ----------------
#NOTES:
     dance-single:
     :
     Easy:
     6:
     0.257012,0.357196,0.121972,0.282059,0.003812,236.000000,220.000000,16.000000,37.000000,18.000000,0.000000,0.257012,0.357196,0.121972,0.282059,0.003812,236.000000,220.000000,16.000000,37.000000,18.000000,0.000000:
// measure 0
0000
0000
0000
0000
,  // measure 1
0000
0000
0000
0000
,  // measure 2
0000
0000
0000
0000
,  // measure 3
0000
0000
0000
0000
,  // measure 4
1000
0010
0100
0001
,  // measure 5
1000
0100
0001
0100
,  // measure 6
1000
0100
0010
0001
,  // measure 7
1000
0010
0001
0010
,  // measure 8
10M0
0000
0000
0000
,  // measure 9
0002
2003
3200
0320
,  // measure 10
0032
2003
3020
0230
,  // measure 11
0302
0023
0230
0320
,  // measure 12
0032
0203
0320
0230
,  // measure 13
0302
0000
2003
0000
,  // measure 14
3020
0230
0302
0023
,  // measure 15
0032
0000
2003
0000
,  // measure 16
3200
0320
0032
0203
,  // measure 17
0310
1000
0001
0010
0100
1000
0001
0100
,  // measure 18
0001
0010
0100
1000
0010
0100
0001
1000
,  // measure 19
0100
1000
0001
0100
0010
1000
0001
0010
,  // measure 20
0001
0100
0010
1000
0100
0010
0001
1000
,  // measure 21
0M01
0001
0001
0001
,  // measure 22
1000
1000
1000
1000
,  // measure 23
0010
0010
0100
0100
,  // measure 24
0010
0010
0100
0100
,  // measure 25
0001
0010
0100
1000
,  // measure 26
0010
0100
0001
1000
,  // measure 27
0002
0000
0000
0000
,  // measure 28
0000
0000
0000
0000
,  // measure 29
0M03
0000
10M1
0001
,  // measure 30
0100
0010
0100
0000
1001
0000
1000
0000
,  // measure 31
0100
0010
0100
0000
1100
0000
1000
0000
,  // measure 32
0001
0010
0001
0000
0101
0000
0100
0000
,  // measure 33
0010
1000
0010
0000
0110
0000
0001
0000
,  // measure 34
1000
0100
1000
0000
0110
0000
1000
0000
,  // measure 35
0001
0100
0001
0000
1010
0000
0010
0000
,  // measure 36
1000
0001
1000
0000
0011
0000
0010
0000
,  // measure 37
0001
1000
0001
0000
MMMM
0000
0001
0000
,  // measure 38
0010
0100
0010
0000
1001
0000
1000
0000
,  // measure 39
0010
0100
0010
0000
1010
0000
1000
0000
,  // measure 40
0001
0100
0001
0000
0011
0000
0010
0000
,  // measure 41
0100
1000
0100
0000
0110
0000
0001
0000
,  // measure 42
1000
0010
1000
0000
0110
0000
1000
0000
,  // measure 43
0001
0010
0001
0000
1100
0000
0100
0000
,  // measure 44
1000
0001
1000
0000
0101
0000
0100
0000
,  // measure 45
0001
0000
1000
0000
0001
0000
0000
0MM0
2000
0000
0000
0000
0001
0000
0000
0000
,  // measure 46
0001
3001
0002
0000
0100
0000
0100
0000
,  // measure 47
0100
0103
0200
0000
0010
0000
0010
0000
,  // measure 48
0010
0310
0020
0000
1000
0000
1000
0000
,  // measure 49
1000
1030
2000
0000
0001
0000
0001
3000
,  // measure 50
0001
0001
0002
0000
0010
0000
0010
0000
,  // measure 51
0010
0013
0020
0000
0100
0000
0100
0000
,  // measure 52
0100
0130
0200
0000
1000
0000
1000
0000
,  // measure 53
1300
0000
1001
0000
0000
M0M0
0000
0000
,  // measure 54
0000
MM00
0000
0000
0000
00MM
0000
0000
,  // measure 55
0000
0M0M
0000
0000
0000
0000
0000
0000
;
