#VERSION:0.83;
#TITLE:Acid Bomb;
#SUBTITLE:~LATINIZE MIX~;
#ARTIST:DJ FX (Remixed by SLAKE);
#TITLETRANSLIT:;
#SUBTITLETRANSLIT:;
#ARTISTTRANSLIT:;
#GENRE:;
#ORIGIN:;
#CREDIT:;
#BANNER:;
#BACKGROUND:;
#PREVIEWVID:;
#JACKET:;
#CDIMAGE:;
#DISCIMAGE:;
#LYRICSPATH:;
#CDTITLE:;
#MUSIC:Acid Bomb(LATINIZE MIX).mp3;
#OFFSET:-0.600000;
#SAMPLESTART:40.400002;
#SAMPLELENGTH:13.100000;
#SELECTABLE:YES;
#BPMS:0.000=145.000;
#STOPS:;
#DELAYS:;
#WARPS:;
#TIMESIGNATURES:0.000=4=4;
#TICKCOUNTS:0.000=4;
#COMBOS:0.000=1;
#SPEEDS:0.000=1.000=0.000=0;
#SCROLLS:0.000=1.000;
#FAKES:;
#LABELS:0.000=Song Start;
#BGCHANGES:;
#KEYSOUNDS:;
#ATTACKS:
;

//---------------dance-single - ----------------
#NOTEDATA:;
#CHARTNAME:;
#STEPSTYPE:dance-single;
#DESCRIPTION:;
#CHARTSTYLE:;
#DIFFICULTY:Challenge;
#METER:10;
#RADARVALUES:0.753121,0.748626,0.011874,0.011874,1.205163,444.000000,443.000000,1.000000,1.000000,0.000000,0.000000,0.000000,0.000000,0.000000,0.753121,0.748626,0.011874,0.011874,1.205163,444.000000,443.000000,1.000000,1.000000,0.000000,0.000000,0.000000,0.000000,0.000000;
#CREDIT:;
#NOTES:
// measure 0
0000
0000
0000
0000
,  // measure 1
0000
0000
0000
0000
,  // measure 2
0000
0000
0000
0000
,  // measure 3
0000
0000
0000
0000
,  // measure 4
0010
0000
0000
0100
0000
0000
0001
0000
1000
0000
0000
0010
0000
0000
0100
0000
,  // measure 5
0001
0000
0000
0100
0000
0000
0010
0000
1000
0000
0000
0100
0000
0000
0010
0000
,  // measure 6
0001
0000
0000
0100
0000
0000
0010
0000
1000
0000
0000
0100
0000
0000
0010
0000
,  // measure 7
0001
0000
0000
0100
0000
0000
0010
0000
1000
0000
0000
0001
1000
0000
0001
0000
,  // measure 8
1001
0000
0000
0010
1000
0000
0100
0000
0001
0000
0000
0010
0001
0000
0100
0010
,  // measure 9
1000
0000
0000
0001
1000
0000
0100
0000
0010
0000
0000
0100
0010
0000
0001
0010
,  // measure 10
1000
0000
0000
0010
1000
0000
0001
0000
0100
0000
0000
1000
0001
0000
0010
0001
,  // measure 11
0100
0000
0000
0001
0100
0000
0000
1000
0010
0000
0000
1000
0001
0000
0100
0010
,  // measure 12
0100
0000
0000
0001
0010
0000
0100
0000
1000
0000
0000
1000
0010
0000
0100
0001
,  // measure 13
1000
0000
0000
0001
0010
0000
1000
0000
0100
0000
0000
1000
0010
0000
0100
0001
,  // measure 14
0010
0000
0000
0100
1000
0000
0000
0001
0010
0000
0000
1000
0010
0000
0100
0001
,  // measure 15
1000
0000
0000
0001
0100
0001
0100
0000
0001
0000
1000
0000
0010
0100
0000
0100
,  // measure 16
0001
0000
0000
1000
0010
0000
1000
0000
0010
1000
0000
0010
1000
0000
0001
1000
,  // measure 17
0100
0000
0000
1000
0001
0000
0010
0000
0100
0000
0000
0100
0010
0000
1000
0010
,  // measure 18
0100
0000
0000
0001
0100
0000
0010
0000
1000
0010
0000
1000
0010
0000
0100
0001
,  // measure 19
1000
0000
0000
0001
1000
0000
0100
0000
0010
0000
0000
0001
0010
0000
0100
1000
,  // measure 20
0001
0000
0000
0100
0001
0000
0100
0000
0001
1000
0000
0001
0010
0000
0100
1000
,  // measure 21
0001
0000
0000
1000
0010
0000
0100
0000
0001
0000
0000
1000
0100
0000
1000
0001
,  // measure 22
0010
0000
0000
0100
0010
0000
1000
0000
0100
0001
0000
0100
0010
0000
0100
0010
,  // measure 23
1000
0000
0000
0001
0100
0010
1000
0000
0001
0000
1000
0000
0001
0100
0000
0100
,  // measure 24
0010
1000
0000
0010
0000
0100
0001
0000
0100
0010
0000
1000
0000
0001
0100
0000
,  // measure 25
0010
1000
0010
1000
0000
0100
0001
0000
0100
0010
0000
1000
0000
0001
0010
0000
,  // measure 26
1000
0100
0000
1000
0000
0001
1000
0000
0010
0100
0000
0010
0000
0100
0001
0000
,  // measure 27
0100
0010
0100
0010
0000
0100
0001
0000
0100
0010
0000
0100
0000
0010
1000
0000
,  // measure 28
0001
0010
0000
0001
0000
1000
0100
0000
1000
0010
0000
0100
0000
0001
0010
0000
,  // measure 29
1000
0001
1000
0010
0000
0100
0001
0000
0010
0100
0000
1000
0000
0010
0001
0000
,  // measure 30
0100
0001
0000
1000
0000
0010
1000
0000
0001
0010
0000
1000
0000
0100
0010
0000
,  // measure 31
0001
0010
0100
1000
0000
0000
0001
0001
0001
1000
1000
1000
,  // measure 32
0010
1000
0000
0001
0100
0000
0010
0000
1000
0100
0000
0001
0010
0000
0100
0001
,  // measure 33
1000
0010
0000
0100
0001
0000
1000
0000
0001
0100
0000
0010
1000
0000
0001
1000
,  // measure 34
0010
0100
0000
0001
0100
0000
1000
0000
0010
1000
0000
0001
0100
0000
0001
1000
,  // measure 35
0010
0100
0000
0001
0010
0000
0100
0000
0001
0010
0000
1000
0100
0000
1000
0001
,  // measure 36
0100
0010
0000
1000
0010
0000
0100
0000
0001
0010
0000
0100
1000
0000
0001
0100
,  // measure 37
0010
1000
0000
0100
0010
0000
0001
0000
1000
0100
0000
0001
1000
0000
0010
0100
,  // measure 38
0001
0010
0000
0100
1000
0000
0010
0000
0100
0001
0000
1000
0010
0000
1000
0001
,  // measure 39
0100
0010
0000
1000
0100
0000
0001
0000
0010
0001
0000
1000
0100
0000
0010
1000
,  // measure 40
0001
0100
0000
0001
0100
0001
1000
0000
0001
0010
0000
1000
0100
1000
0001
0000
,  // measure 41
0100
0001
0000
0001
1000
0001
0100
0000
0010
1000
0000
0100
0001
0100
0010
0100
,  // measure 42
0001
1000
0000
0100
0001
0100
0010
0000
1000
0001
0000
1000
0010
1000
0100
0000
,  // measure 43
0001
0100
0000
0010
1000
0010
0100
0000
0001
1000
0000
0100
0010
0100
0001
1000
,  // measure 44
0100
0001
0000
1000
0001
0100
0010
0000
0001
0100
0000
1000
0100
0001
0010
0000
,  // measure 45
1000
0010
0000
0100
0001
1000
0100
0000
0010
0001
0000
1000
0010
0100
0001
0010
,  // measure 46
0100
1000
0000
0001
0100
0010
1000
0000
0100
0010
0000
0001
0100
0010
1000
0000
,  // measure 47
1000
0100
0010
0001
0000
0000
0100
0100
0100
0010
0010
0020
,  // measure 48
0000
0000
0030
0000
;
