#VERSION:0.83;
#TITLE:ANALYS;
#SUBTITLE:;
#ARTIST:HAYAKO;
#TITLETRANSLIT:;
#SUBTITLETRANSLIT:;
#ARTISTTRANSLIT:;
#GENRE:;
#ORIGIN:;
#CREDIT:;
#BANNER:[Starts with Vowels] - ANALYS.png;
#BACKGROUND:[Starts with Vowels] - ANALYS-bg.png;
#PREVIEWVID:;
#JACKET:[Starts with Vowels] - ANALYS-jacket.png;
#CDIMAGE:;
#DISCIMAGE:;
#LYRICSPATH:;
#CDTITLE:;
#MUSIC:[Starts with Vowels] - ANALYS.ogg;
#OFFSET:1.008000;
#SAMPLESTART:14.874000;
#SAMPLELENGTH:12.000000;
#SELECTABLE:YES;
#BPMS:0.000=170.000;
#STOPS:;
#DELAYS:;
#WARPS:;
#TIMESIGNATURES:0.000=4=4;
#TICKCOUNTS:0.000=4;
#COMBOS:0.000=1;
#SPEEDS:0.000=1.000=0.000=0;
#SCROLLS:0.000=1.000;
#FAKES:;
#LABELS:0.000=Song Start;
#BGCHANGES:2.750=[Starts with Vowels] - ANALYS.avi=1.000=1=0=0=StretchNoLoop==CrossFade==,
99999=-nosongbg-=1.000=0=0=0 // don't automatically add -songbackground-
;
#KEYSOUNDS:;
#ATTACKS:
;

//---------------dance-single - ----------------
#NOTEDATA:;
#CHARTNAME:;
#STEPSTYPE:dance-single;
#DESCRIPTION:;
#CHARTSTYLE:;
#DIFFICULTY:Hard;
#METER:11;
#RADARVALUES:0.907727,1.155208,0.415761,0.188269,0.733466,810.000000,757.000000,53.000000,24.000000,0.000000,0.000000,0.000000,0.000000,0.000000,0.907727,1.155208,0.415761,0.188269,0.733466,810.000000,757.000000,53.000000,24.000000,0.000000,0.000000,0.000000,0.000000,0.000000;
#CREDIT:ohaiimian;
#NOTES:
// measure 0
0000
0000
0000
0000
,  // measure 1
0000
0000
0000
0000
,  // measure 2
0000
0000
0000
0000
,  // measure 3
0000
0000
0000
0000
,  // measure 4
0000
0000
0000
0000
,  // measure 5
0011
0000
0000
1010
0000
0000
0101
0000
,  // measure 6
0000
1100
0000
0000
0110
0000
1001
0000
,  // measure 7
0001
0100
0010
1000
0100
0010
0001
0010
,  // measure 8
0100
1000
0001
0100
0010
1000
0100
0010
,  // measure 9
0001
0010
0100
1000
0010
0100
0001
0100
0010
1000
0100
0010
0001
0100
0010
1000
,  // measure 10
0001
0010
0001
0000
1000
0010
1000
0100
0010
0000
0001
0000
1001
0000
0000
0000
,  // measure 11
0220
0000
0330
0000
0001
0000
1000
0000
0100
0000
1000
0000
0010
0100
0010
0000
,  // measure 12
0100
0001
0010
0000
0100
0000
1000
0000
0001
0000
0100
0000
0001
0000
1000
0000
,  // measure 13
0100
1000
0001
0000
0100
0001
1000
0000
0010
1000
0001
0000
0010
0001
1000
0000
,  // measure 14
0001
0100
1000
0000
0001
0010
1000
0000
0100
0010
0001
0010
0100
0000
1000
0000
,  // measure 15
0002
0000
0000
0000
1003
0000
0001
0000
0100
0000
0001
0000
0010
0100
0010
0000
,  // measure 16
0100
1000
0010
0000
0100
0001
0010
0000
0100
0000
1000
0000
0100
0000
0010
0000
,  // measure 17
0001
1000
0100
0000
1000
0001
0100
0000
0001
1000
0010
0000
1000
0001
0010
0000
,  // measure 18
0001
0010
0001
0010
0100
1000
0100
1000
0010
0000
0100
0000
0001
0000
0000
0000
,  // measure 19
1000
0000
1000
0000
0100
0000
0010
0000
0001
0000
0001
0010
0000
0100
0010
0000
,  // measure 20
0001
0000
0001
0000
0100
0000
0010
0000
1000
0000
1000
0100
0000
0010
0100
0000
,  // measure 21
1000
0100
0010
0000
0001
0010
0100
0000
1000
0010
0100
0000
0001
0100
0010
1000
,  // measure 22
0001
0010
1000
0000
0001
0100
1000
0000
0010
0100
0001
1000
0100
0010
0001
0010
,  // measure 23
0100
0000
0100
0000
1000
0000
0010
0000
0100
0000
0100
0001
0000
1000
0100
0000
,  // measure 24
0010
0000
0010
0000
0001
0000
1000
0000
0010
0000
0010
1000
0000
0001
0010
0000
,  // measure 25
0100
0010
0001
0000
0100
0010
1000
0000
0010
0100
0001
0000
0010
0100
1000
0000
,  // measure 26
0010
0000
0100
0001
0000
1000
0100
0000
0010
0000
0001
0000
1000
0001
1000
0001
,  // measure 27
1000
0100
0010
0001
1000
0100
1100
1000
,  // measure 28
0010
0100
0001
1000
1010
0010
0100
0001
,  // measure 29
0011
0001
0010
0100
1000
0001
0101
0001
,  // measure 30
0010
0100
1000
0001
0011
0010
0100
1000
,  // measure 31
1100
0100
0010
0001
1000
0010
1010
0010
,  // measure 32
0100
0001
1000
0100
1100
1000
0100
0010
,  // measure 33
0002
0000
0000
0000
0000
0000
1003
0100
0010
0000
0000
0000
0001
0000
0100
0000
,  // measure 34
0010
0000
0000
1000
0000
0000
0100
0000
0020
0000
0000
0000
0030
0000
0000
0000
,  // measure 35
0022
0033
0000
0000
0000
0000
0000
0000
,  // measure 36
2200
3300
0000
0000
0000
0000
0000
0000
,  // measure 37
2020
3030
0000
0000
0202
0303
0000
0000
,  // measure 38
0220
0330
2002
3003
1000
0001
0200
0000
,  // measure 39
0310
0000
1000
0000
0010
0000
0100
0000
0010
1000
0000
0010
0000
1000
0000
1000
,  // measure 40
0001
0000
0010
0000
0100
0000
0010
0000
0001
0100
0000
0010
0000
0100
0000
0100
,  // measure 41
0001
0000
1000
0000
0010
0000
1000
0000
0001
0010
0000
0100
0000
1000
0000
1000
,  // measure 42
0001
0000
0010
0000
0100
0000
1000
0000
0001
1000
0001
1000
0001
0100
0010
1000
,  // measure 43
0001
0010
0100
1000
0010
0100
0001
1000
0100
0010
0001
0100
0010
1000
0010
0100
,  // measure 44
0001
0010
0100
1000
0100
0010
0001
0100
0010
1000
0100
0010
0001
0100
0010
1000
,  // measure 45
0001
0000
0000
0000
1000
0000
0100
0000
1100
0000
0000
1001
0000
0000
0101
0000
,  // measure 46
0000
1010
0000
0000
0110
0000
0100
0000
0001
0000
0001
0000
1000
0000
1000
0000
,  // measure 47
0100
0010
0001
0010
0001
0010
0001
0010
0100
1000
0100
0000
0010
0100
0010
0000
,  // measure 48
0001
0010
0001
1000
0010
1000
0001
0010
0001
1000
0010
0100
0001
1000
0100
0010
,  // measure 49
0002
0000
2003
0000
3020
0000
0230
0000
0301
0010
0001
0000
0010
0100
0010
0000
,  // measure 50
1000
0100
1000
0001
0100
0001
1000
0100
1000
0001
0010
0100
1000
0001
0100
0010
,  // measure 51
1000
0001
0100
0001
0100
0001
0100
0001
1000
0000
0100
0000
0010
0001
0100
0000
,  // measure 52
0001
0000
0100
0000
0010
1000
0100
1000
0100
0010
0001
0010
0100
1000
0010
0100
,  // measure 53
0001
0010
0001
0010
0100
1000
0100
1000
0010
1000
0010
0100
0001
0100
0001
0010
,  // measure 54
0100
0000
0100
0000
1000
0001
1000
0001
0100
0000
0100
0000
0010
0000
0010
0000
,  // measure 55
1000
0100
0001
0100
0020
0000
0000
0000
0031
0000
0001
0000
1000
0010
1000
0000
,  // measure 56
0001
0000
0001
0000
1000
0010
1000
0000
0100
0010
0100
0000
0010
0001
0010
0000
,  // measure 57
0001
0100
0001
0100
0010
0000
1000
0000
0100
0000
0100
0000
0010
0001
0010
0000
,  // measure 58
0100
0000
0100
0000
0010
0001
0010
0000
0001
0100
0001
0000
0100
0010
0100
0000
,  // measure 59
0010
1000
0100
0000
0010
0001
0100
0000
0010
0000
0010
0000
1000
0100
1000
0000
,  // measure 60
0010
0000
0010
0000
1000
0100
1000
0000
0010
1000
0010
0000
0100
0001
0100
0000
,  // measure 61
0010
1000
0100
0010
0001
0100
0010
1000
0001
0010
0100
1000
0100
0010
0001
0100
,  // measure 62
0010
1000
0010
1000
0100
1000
0100
0010
0001
0000
0001
0000
1000
0000
1000
0000
,  // measure 63
0100
0010
0001
1000
0010
0100
0001
0010
,  // measure 64
0100
0010
0001
1000
0010
0100
0010
1000
,  // measure 65
0100
0010
0001
0010
0100
1000
0010
0100
,  // measure 66
0001
1000
0100
0010
0100
1000
0001
0100
,  // measure 67
0010
0100
0001
1000
0100
1000
0001
0100
,  // measure 68
0001
1000
0010
1000
0001
0010
0001
1000
,  // measure 69
0100
0010
0001
0010
0100
1000
0010
0100
,  // measure 70
0001
0100
0010
1000
0100
0010
0001
1000
,  // measure 71
0001
0100
0010
1000
0100
1000
0010
0001
,  // measure 72
0010
0100
0001
0010
0100
1000
0100
0001
,  // measure 73
0100
0010
0001
1000
0010
0100
0010
1000
,  // measure 74
0001
0010
0100
1000
0001
0010
0100
1000
,  // measure 75
0010
0100
0001
1000
0010
0100
0001
1000
,  // measure 76
0100
1000
0001
0100
0001
1000
0010
1000
,  // measure 77
1010
0000
0000
0000
1000
0000
0001
0000
0011
0000
0000
1001
0000
0000
0101
0000
,  // measure 78
0000
1010
0000
0000
1001
0000
0000
0011
0000
0000
0110
0000
0100
1000
0100
1000
,  // measure 79
0100
0000
0000
0011
0000
0000
1000
0001
1000
0000
0001
0000
1001
0000
0000
0000
,  // measure 80
0011
0000
0000
1010
0000
0000
0101
0000
,  // measure 81
0000
1100
0000
0000
0110
0000
1001
0000
,  // measure 82
1010
0000
0000
0101
0000
0000
0011
0000
,  // measure 83
0000
0000
1100
0000
0000
0000
0000
0000
1000
0100
1000
0000
0001
0100
0001
0000
,  // measure 84
0011
0000
0000
1100
0000
0000
1010
0000
,  // measure 85
0000
0011
0000
0000
0110
0000
1001
0000
,  // measure 86
1000
0010
0100
0001
0010
0100
1000
0100
,  // measure 87
0010
0001
1000
0010
0100
0001
0010
0100
,  // measure 88
1000
0100
0010
0001
0100
0010
1000
0010
0100
0001
0010
0100
1000
0010
0100
0001
,  // measure 89
0020
0030
0000
0000
;

//---------------dance-single - ----------------
#NOTEDATA:;
#CHARTNAME:;
#STEPSTYPE:dance-single;
#DESCRIPTION:;
#CHARTSTYLE:;
#DIFFICULTY:Medium;
#METER:7;
#RADARVALUES:0.533430,0.595107,0.117668,0.368694,0.031378,476.000000,461.000000,15.000000,47.000000,0.000000,0.000000,0.000000,0.000000,0.000000,0.533430,0.595107,0.117668,0.368694,0.031378,476.000000,461.000000,15.000000,47.000000,0.000000,0.000000,0.000000,0.000000,0.000000;
#CREDIT:ohaiimian;
#NOTES:
0000
0000
0000
0000
,
0000
0000
0000
0000
,
0000
0000
0000
0000
,
0000
0000
0000
0000
,
0000
0000
0000
0000
,
2000
0000
0000
3002
0000
0000
0023
0000
,
0000
0230
0000
0000
1000
0000
1000
0000
,
0310
0001
0010
0001
0010
0001
0010
0001
,
1000
0010
1000
0010
1000
0010
1000
0010
,
0100
0001
0100
0001
1000
0100
1000
0100
,
0020
0030
0020
0030
0010
0001
1001
0000
,
0220
0330
0010
1000
0100
0000
0010
0010
,
0001
1000
0001
0000
0100
0010
1000
0000
,
0100
0010
0001
0010
0100
1000
0100
0010
,
0001
0001
1000
1000
0020
0000
0230
0000
,
0301
0000
1001
1000
0100
0000
0010
0010
,
0001
1000
0010
0000
0100
0001
0100
0000
,
0020
2030
3200
0302
,
0013
1000
0100
0010
0001
0000
1001
0000
,
1000
0001
1000
0000
0010
1000
0010
0000
,
0100
0001
0100
0000
0001
0010
0001
0010
,
0100
1000
0010
0100
0001
0100
0010
1000
,
0001
0001
1000
1000
0200
0000
0320
0000
,
0130
1000
0100
0000
0010
0001
0010
0000
,
0001
0100
0001
0000
1000
0010
1000
0000
,
0200
2300
3020
0032
,
0103
1000
0010
0100
0001
0010
0100
0100
,
0020
0000
0000
0032
,
0000
0000
2003
0000
,
3020
0000
0000
2030
,
0000
0000
3002
0000
,
0203
0000
0000
0320
,
0000
0000
2030
0000
,
3001
0000
0000
1000
0100
0000
0010
0001
,
1000
0000
0000
0010
0000
0000
0100
0000
0001
0000
0000
0000
0000
0000
0000
0000
,
1001
0000
0000
0000
,
0110
0000
0000
0000
,
1001
0000
0110
0000
,
1001
0110
1001
0000
,
1000
0000
1000
0000
1000
0100
1000
0000
,
0001
0000
0001
0000
0001
0010
0001
0000
,
1000
0000
1000
0000
1000
0010
1000
0000
,
0001
0000
0001
0000
0001
0100
0001
0000
,
1000
0010
1000
0000
0001
0010
0001
0000
,
1000
0100
0010
0001
0100
0010
1000
0000
,
0001
0000
0000
0000
0010
0000
0100
0000
0010
0000
0000
0100
0000
0000
1000
0000
,
0000
0001
0000
0000
0001
0000
0001
0000
0100
0000
0100
0000
0010
0000
0010
0000
,
1000
0100
0010
0001
0100
0010
0100
0010
,
0100
0001
0100
0001
0100
0010
0100
0010
,
0200
0000
0302
0000
1003
0100
1000
0100
,
0010
0100
0010
0100
1000
0100
1000
0100
,
0010
0001
0100
0010
1000
1000
0100
0000
,
0010
0010
0001
0000
0001
0010
0100
1000
,
0010
0100
0010
0100
0001
0100
0010
1000
,
0100
0010
0100
0000
1000
1000
0001
0001
,
0100
0010
2000
0000
3001
0001
0010
0000
,
0010
0010
0100
0000
0100
0100
1000
0000
,
1000
1000
0001
0000
0001
0001
0100
0000
,
0100
0100
0010
0000
0010
0010
1000
0000
,
0002
0000
2003
0000
3010
0100
0001
0000
,
0010
0100
1000
0000
0100
0010
0001
1000
,
0010
0100
0010
0000
1000
0100
1000
0000
,
0001
0010
0001
0000
0010
0010
0100
0100
,
1000
0100
0010
0000
0001
0010
0100
0000
,
1000
0100
0010
0001
0100
0010
1000
0000
,
0001
0100
0010
0000
1000
0010
0100
0000
,
0001
0100
0010
1000
0100
0010
0001
0000
,
0010
0100
0010
0000
1000
0100
1000
0000
,
0010
0100
0010
1000
0100
1000
0001
0000
,
0010
0001
0010
0000
0100
0010
0100
0000
,
0010
0001
0010
0100
0010
0100
1000
0000
,
1001
0000
0001
0100
0010
1000
0001
0000
,
1001
0000
1000
0100
0010
0001
1000
0000
,
0001
0100
0001
0000
1000
0100
1000
0000
,
0010
0100
0010
0000
1000
0001
1000
0000
,
0100
0010
0001
0000
0100
0010
1000
0000
,
0010
0100
0001
0000
0010
0100
1000
0000
,
0110
0000
0000
0000
0010
0000
0001
0000
1000
0000
0000
0010
0000
0000
0100
0000
,
0000
0001
0000
0000
0010
0000
0000
0100
0000
0000
1000
0000
0000
0001
0000
0000
,
0100
0000
0000
0010
0000
0000
1000
0000
0001
0000
1000
0000
1001
0000
0000
0000
,
0002
0000
0000
2003
0000
0000
3020
0000
,
0000
0230
0000
0000
0001
0000
0001
0000
,
0320
0000
0000
2030
0000
0000
3200
0000
,
0000
0320
0000
0000
0100
0000
0100
0000
,
0032
0000
0000
2003
0000
0000
3200
0000
,
0000
0320
0000
0000
0001
0000
0001
0000
,
0130
1000
0100
1000
0100
1000
0100
1000
,
0001
0100
0001
0100
0001
0100
0001
0100
,
0010
1000
0010
1000
0001
0010
0001
0010
,
0200
0300
0000
0000
;

//---------------dance-single - ----------------
#NOTEDATA:;
#CHARTNAME:;
#STEPSTYPE:dance-single;
#DESCRIPTION:;
#CHARTSTYLE:;
#DIFFICULTY:Beginner;
#METER:2;
#RADARVALUES:0.206200,0.314174,0.047067,0.070601,0.000000,184.000000,178.000000,6.000000,9.000000,0.000000,0.000000,0.000000,0.000000,0.000000,0.206200,0.314174,0.047067,0.070601,0.000000,184.000000,178.000000,6.000000,9.000000,0.000000,0.000000,0.000000,0.000000,0.000000;
#CREDIT:ohaiimian;
#NOTES:
0000
0000
0000
0000
,
0000
0000
0000
0000
,
0000
0000
0000
0000
,
0000
0000
0000
0000
,
0000
0000
0000
0000
,
1000
0000
0000
1000
,
0000
0000
0001
0000
,
0002
0000
0000
0000
,
0000
0000
0000
0003
,
0100
0000
0100
0000
,
0010
0010
0010
0000
,
1001
0000
1000
0000
,
0001
0000
0100
0000
,
0010
0010
0010
0000
,
0100
0100
0100
0000
,
0001
0000
1000
0000
,
0100
0000
0010
0000
,
0001
0001
0001
0000
,
1000
1000
1000
0000
,
0001
0000
0100
0000
,
0001
0000
0100
0000
,
0010
0100
0010
0000
,
0100
0010
0100
0000
,
0010
0000
1000
0000
,
0100
0000
1000
0000
,
0001
1000
0001
0000
,
1000
0001
1000
0000
,
0002
0000
0000
0000
,
0000
0000
0000
0003
,
2000
0000
0000
0000
,
0000
0000
0000
3000
,
0002
0000
0000
0000
,
0000
0000
0000
0003
,
1000
0000
0000
0000
,
0000
0000
0000
0000
,
1001
0000
0000
0000
,
1001
0000
0000
0000
,
1001
0000
1001
0000
,
1001
1000
0001
0000
,
0100
0100
0100
0000
,
0100
0100
0100
0000
,
0010
0010
0010
0000
,
0010
0010
0010
0000
,
1000
0000
0100
0000
,
0010
0000
0001
0000
,
0200
0000
0000
0000
,
0000
0000
0300
0000
,
0020
0030
1000
0000
,
1000
0000
0001
0000
,
0001
0000
0100
0000
,
0100
0000
0010
0000
,
0020
0030
0100
0000
,
0001
0000
0010
0000
,
0100
0000
1000
0000
,
0001
0000
1000
1000
,
0001
0000
1000
0000
,
0001
0000
1000
0000
,
0010
0000
0100
0000
,
0010
0000
0100
0000
,
0001
0001
0010
0000
,
0100
0000
1000
0000
,
0010
0000
0100
0000
,
0001
0000
0001
0001
,
1000
0100
1000
0000
,
0001
0100
0001
0000
,
0100
0010
0100
0000
,
0010
0100
0010
0000
,
1000
0010
1000
0000
,
0001
0010
0001
0000
,
1000
0100
0010
0000
,
0001
0100
0010
0000
,
1000
1000
1000
0000
,
0001
0001
0001
0000
,
0010
0010
0010
0000
,
0001
0001
0001
0000
,
1000
1000
1000
0000
,
0010
0010
0010
0000
,
0100
0000
0100
0000
,
0001
0000
0001
0000
,
0010
0000
0020
0030
,
0100
0000
0000
1000
,
0000
0000
0001
0001
,
0010
0000
0000
0001
,
0000
0000
1000
1000
,
0100
0000
0000
1000
,
0000
0000
0001
0001
,
2000
0000
0000
0000
,
0000
0000
0000
3000
,
0001
1000
0001
1000
,
0001
0000
0000
0000
;

//---------------dance-single - ----------------
#NOTEDATA:;
#CHARTNAME:;
#STEPSTYPE:dance-single;
#DESCRIPTION:;
#CHARTSTYLE:;
#DIFFICULTY:Easy;
#METER:4;
#RADARVALUES:0.298093,0.383991,0.070601,0.172580,0.000000,266.000000,257.000000,9.000000,22.000000,0.000000,0.000000,0.000000,0.000000,0.000000,0.298093,0.383991,0.070601,0.172580,0.000000,266.000000,257.000000,9.000000,22.000000,0.000000,0.000000,0.000000,0.000000,0.000000;
#CREDIT:ohaiimian;
#NOTES:
0000
0000
0000
0000
,
0000
0000
0000
0000
,
0000
0000
0000
0000
,
0000
0000
0000
0000
,
0000
0000
0000
0000
,
1000
0000
0000
0001
0000
0000
1000
0000
,
0000
0010
0000
0000
0100
0000
0010
0000
,
0020
0000
0000
0000
,
0000
0000
0000
0000
,
1030
1000
0001
0001
,
1000
0100
0010
0001
,
1001
1000
0100
0010
,
0001
0100
0010
1000
,
0001
0001
0001
0000
,
1000
1000
1000
0000
,
0001
0010
0100
1000
,
0001
0100
0010
1000
,
0100
0100
0100
0000
,
0010
0010
0010
0000
,
0001
0000
1000
0000
,
0001
0000
1000
0000
,
0010
0010
0010
0000
,
0100
0100
0100
0000
,
0001
0000
0010
0000
,
0100
0000
1000
0000
,
0001
0001
0001
0000
,
1000
1000
1000
0000
,
0020
0000
0000
0230
,
0000
0000
0302
0000
,
2003
0000
0000
3002
,
0000
0000
0203
0000
,
0320
0000
0000
2030
,
0000
0000
3200
0000
,
0310
0000
0000
0000
,
0000
0000
0000
0000
,
1001
0000
0000
0000
,
0110
0000
0000
0000
,
1001
0000
0110
0000
,
1001
0110
2002
3003
,
0001
0001
0001
0001
,
1000
1000
1000
1000
,
0100
0100
0100
0100
,
0010
0010
0010
0010
,
0001
0100
0001
0100
,
0010
1000
0100
0010
,
0001
0000
1000
0000
,
0010
0000
0100
0100
,
0002
0000
1003
0100
,
0010
0100
1000
0010
,
0200
0302
1003
0100
,
0010
0001
1000
0100
,
0020
0000
0031
0100
,
0010
0100
0001
0010
,
0200
2300
3002
0203
,
0310
1000
0001
0001
,
0010
0200
1300
0001
,
0100
0001
1000
0100
,
1000
0010
0100
0001
,
0010
0100
1000
0001
,
1000
1000
0010
0100
,
0001
1000
0100
0010
,
0001
0010
0100
0010
,
0001
1000
0010
0010
,
1000
1000
0100
0100
,
0010
0010
0001
0001
,
0100
0100
0010
0010
,
0100
0100
0001
0001
,
1000
1000
0100
0100
,
0010
0010
0100
0100
,
1000
1000
0001
0001
,
0100
0100
0010
0010
,
1000
0100
0010
0010
,
0001
0100
0001
0001
,
1000
0100
1000
1000
,
0001
0010
0001
0001
,
0010
0100
1000
1000
,
0010
0100
0001
0001
,
1000
0000
0100
0000
,
0010
0000
0001
0000
,
1000
0000
0001
0000
,
0100
0000
0000
0010
0000
0000
1000
0000
,
0000
0001
0000
0000
0010
0000
0010
0000
,
0100
0000
0000
1000
0000
0000
0001
0000
,
0000
0100
0000
0000
0001
0000
0001
0000
,
1000
0000
0000
0100
0000
0000
0010
0000
,
0000
0001
0000
0000
0010
0000
0010
0000
,
0200
0000
0000
0000
,
0000
0000
0000
0000
,
1300
0100
0010
0001
,
1001
0000
0000
0000
;
