#TITLE:ACCELLOID;
#SUBTITLE:;
#ARTIST:Ras;
#TITLETRANSLIT:;
#SUBTITLETRANSLIT:;
#ARTISTTRANSLIT:;
#GENRE:;
#CREDIT:;
#BANNER:ACCELLOID.png;
#BACKGROUND:ACCELLOID-bg.png;
#LYRICSPATH:;
#CDTITLE:;
#MUSIC:ACCELLOID.ogg;
#OFFSET:-0.008000;
#SAMPLESTART:40.590023;
#SAMPLELENGTH:15.000000;
#SELECTABLE:YES;
#BPMS:0.000000=142.000000
;
#STOPS:
;
#BGCHANGES:;
#KEYSOUNDS:;
#ATTACKS:;

//---------------dance-single - ----------------
#NOTES:
     dance-single:
     :
     Hard:
     7:
     0.521449,0.501126,0.295293,0.475749,0.118937,351.000000,36.000000,58.000000,0.000000,0.000000,0.000000,0.521449,0.501126,0.295293,0.475749,0.118937,351.000000,36.000000,58.000000,0.000000,0.000000,0.000000:
0000
0000
0000
0000
,
0000
0000
0000
0000
,
0000
0000
0000
0000
,
0000
0000
0000
0000
,
1000
0000
0000
1000
0001
0000
0000
0000
,
1000
0000
0000
0100
0000
0000
1000
0000
0001
0000
0000
0000
0000
0000
0000
0000
,
0001
0000
0000
0001
1000
0000
0000
0000
,
0001
0000
0000
0100
0110
0000
0110
0000
,
0020
1030
0200
0301
,
0020
0000
1030
0000
1000
0001
0010
0000
,
0020
0031
0200
1300
,
0020
0000
0230
0000
0310
0001
0010
0001
,
2000
3010
0002
0013
,
2000
3100
0002
0103
,
1100
0000
0000
1100
0000
0000
0000
0000
0101
0000
0000
0101
0000
0000
0000
0000
,
0001
0000
0000
0100
0000
0000
0010
0000
1000
0000
0100
0000
0100
0000
0100
0000
,
1000
0000
0000
0000
0101
0000
0000
0000
1000
0010
0000
0010
0100
0000
0000
0000
,
0001
0000
0000
0000
1100
0000
0000
0000
0001
0100
0000
0100
0010
0000
0000
0000
,
1000
0000
0000
0000
0101
0000
0000
0000
0010
0001
0000
0001
0100
0000
0000
0000
,
0001
0000
0000
0000
1100
0000
0000
0000
1000
0100
0000
0100
0020
0000
0000
0000
,
0031
0000
0000
0000
1010
0000
0000
0000
0001
1000
0000
1000
0010
0000
0000
0000
,
1000
0000
0000
0000
0011
0000
0000
0000
0010
0100
0000
0100
1000
0000
0000
0000
,
0001
0000
0000
0000
0011
0000
0000
0000
0110
0000
0000
0000
1100
0000
0000
1000
,
0020
0030
0020
0030
0020
0130
0100
0100
,
0001
0000
0101
0000
0001
0100
0010
0000
,
1000
0100
0010
0000
0100
0000
1100
0000
,
1000
0100
1000
0000
0001
0100
0001
0000
,
2000
0000
3002
0000
0103
0010
0010
0100
,
0001
0000
0000
0000
0011
0000
0000
0000
1000
0010
0000
0010
0000
0000
0010
0000
,
1000
0001
0100
0001
0010
0001
1000
0100
,
0010
1100
0011
1100
,
0001
1000
0001
1000
0002
0003
0002
0003
,
0001
0002
0000
2003
0000
3200
0000
2300
,
0000
3002
0000
0203
0000
0302
0000
0203
,
0310
0100
0001
0000
0010
0100
1000
0000
,
0002
0000
2003
0000
3100
0010
0010
0100
,
1000
0000
0000
0000
1010
0000
0000
0000
0001
0010
0000
0010
0000
0000
0010
0000
,
0001
1000
0100
1000
0010
1000
1000
0010
,
0100
0101
1001
1100
,
0110
0000
1001
0000
0001
1000
0020
0000
,
2030
0100
0010
3100
,
0001
0100
0001
0000
0010
0100
0010
0000
,
0002
0100
0010
1003
,
0020
0000
0032
0000
1003
0100
0010
0100
,
2000
0010
0001
3100
,
0001
0100
0010
0000
1000
0100
0010
0000
,
0002
0010
0100
0013
,
1000
0000
1000
0000
1000
0001
0020
0000
,
0031
0100
0010
1000
0010
0100
0002
0000
,
1003
0001
0010
0100
0010
0001
2000
0000
,
3001
0100
0002
0000
1003
0100
2000
0000
,
3002
0000
2003
0000
3010
0100
0100
0010
,
1000
0001
0010
0000
1000
0100
0010
0000
,
0001
0010
0100
0000
0001
0100
0010
1000
,
0010
0000
0000
0010
0100
0000
0000
0100
0001
0000
0000
1000
0000
0000
0001
0000
,
0000
1000
0000
0000
0100
0000
0000
0010
0000
0000
0001
0000
2002
0000
3003
0000
,
2000
3100
0200
0310
,
0020
0000
0031
0000
0001
1000
0001
0000
,
0002
0103
0200
0310
,
0020
0000
0230
0000
0301
1000
0100
1000
,
0002
0013
0020
0130
,
0200
0000
1300
0000
1000
0000
0001
1000
,
0010
0000
0000
1010
0000
0000
1000
0000
0001
0000
0000
0011
0000
0000
0010
0000
,
0001
0000
0000
0001
0000
0000
0100
0000
0020
0000
0000
0000
0030
0000
0000
0000
,
1000
1000
0100
0100
,
0010
0010
0100
0100
,
1000
1000
0001
0001
,
0100
0100
0010
0010
,
1000
1100
0001
0101
,
1000
1010
0001
0011
,
1000
0110
0001
0110
,
1000
0001
1000
0001
0020
0030
0020
0030
;

//---------------dance-single - ----------------
#NOTES:
     dance-single:
     :
     Challenge:
     9:
     0.745262,0.736950,0.311698,0.426534,0.725927,546.000000,38.000000,52.000000,0.000000,0.000000,0.000000,0.745262,0.736950,0.311698,0.426534,0.725927,546.000000,38.000000,52.000000,0.000000,0.000000,0.000000:
0000
0000
0000
0000
,
0000
0000
0000
0000
,
0000
0000
0000
0000
,
0000
0000
0000
0000
,
2000
0000
3000
1000
0101
0000
0000
0000
,
0002
0000
0000
2003
0000
0000
3001
0000
1100
0000
0000
0000
0000
0000
0000
0000
,
0002
0000
0003
0001
1010
0000
0000
0000
,
2000
0000
0000
3002
0000
0000
1003
0000
0001
0000
0100
0000
1000
0000
0100
0000
,
0000
0001
0000
0001
0010
0000
0000
0001
0000
0001
0000
1000
0010
0000
0000
1000
,
0000
1000
0000
0100
0010
0000
0000
0001
0000
0001
0000
0010
0100
1000
0100
1000
,
0001
0000
0100
0001
0000
0000
1000
0000
1000
0000
0100
1000
0000
0000
0010
0000
,
0010
0000
0100
0010
0000
0000
0010
0000
1000
0001
0000
0001
1000
0000
0100
1000
,
0000
0010
0000
0100
0010
0000
0000
1000
0000
0010
0000
1000
0001
0000
0000
0010
,
0000
0001
0000
0010
0100
0000
0000
1000
0000
0100
0000
1000
0001
0010
0001
1000
,
0010
0000
0100
0010
0000
0000
0100
0000
0100
0000
0001
0100
0000
0000
0010
0000
,
0010
0000
0000
0110
0000
0000
1001
0000
1001
0000
0001
0100
0001
0100
0001
0100
,
0001
0000
0100
0010
2000
0000
0000
0000
3001
0100
0000
0001
0020
0000
0000
0000
,
0031
0000
0100
0010
2000
0000
0000
0000
3001
0100
0000
0010
0200
0000
0000
0000
,
0301
0000
0010
0100
2000
0000
0000
0000
3001
0100
0000
0001
0020
0000
0000
0000
,
0031
0000
0010
0100
2000
0000
3000
0000
1100
0000
0000
0000
0011
0000
0000
0000
,
0010
0000
0100
0010
0002
0000
0000
0000
1003
0100
0000
0010
0200
0000
0000
0000
,
1300
0000
0100
0010
0002
0000
0000
0000
1003
0010
0000
0100
0020
0000
0000
0000
,
1030
0000
0010
0100
0002
0000
0000
0000
1003
0100
0000
0100
0020
0000
0030
0100
,
0020
0000
0030
0100
0020
0000
0030
0100
0020
0000
0130
1000
0001
0010
0100
1000
,
0001
0000
1000
0100
1000
0000
0010
0000
0010
0000
1000
0100
0000
0000
1000
0001
,
0100
0000
0100
0001
0000
0022
0000
0000
0033
0000
0010
0000
0100
0000
0010
0000
,
0001
0000
0100
0001
0010
0000
0010
0000
0110
0000
0000
0000
1001
0000
0000
0000
,
0001
0000
0100
0010
0000
0010
1000
0000
0001
0000
0200
0000
0320
0000
0230
0000
,
0301
0000
1000
0000
1100
0000
0100
0000
1000
0001
0000
0101
0000
0000
0001
0000
,
0010
0000
0001
1000
0001
0000
0010
0000
0100
0000
1000
0000
1000
0000
0001
0100
,
0001
0000
1000
0100
1000
0000
0100
0000
1000
0010
0000
0010
0000
0100
0010
0100
,
0001
0001
1000
1000
0200
0310
0200
0000
,
0310
0002
0103
0002
1003
0002
0103
0002
,
1003
0020
0130
0020
0031
0020
0130
0020
,
1030
0200
0310
0200
0301
0200
0310
0200
,
1300
0000
0001
0010
0000
0001
1000
0000
0010
0000
0100
0000
0100
0000
0010
0000
,
1000
0000
0001
0000
0011
0000
0010
0000
0100
1000
0000
1010
0000
0000
0001
0000
,
0010
0000
0010
0001
0100
0000
0001
0000
1000
0000
0100
0000
1000
0000
0010
0000
,
0100
0000
0001
1000
0010
0000
1000
0001
0010
0000
0010
0100
0000
0000
0010
0000
,
0001
1000
0001
1000
0010
0010
0020
0000
,
1030
0000
0000
1000
0100
0000
0000
0100
1000
0000
0001
0010
0000
0000
0010
0000
,
0001
0000
0000
0001
0100
0000
0000
0100
0001
0000
1000
0100
0000
0000
0010
0000
,
0001
0000
0000
0001
0010
0000
0000
0010
0001
0000
1000
0100
0000
0000
0100
0000
,
1000
0000
0010
0100
0000
0100
0010
0000
1000
0000
1000
0000
0001
0000
0010
0000
,
0100
0000
0000
1000
0001
0000
0000
0001
0100
0000
0010
1000
0000
0000
0001
0000
,
0100
0000
0000
0001
0010
0000
0000
0010
0100
0000
0100
1000
0000
0000
0010
0000
,
0100
0001
0100
0010
1000
0100
1000
0001
,
0002
0000
0000
0000
2003
0000
0000
0000
3100
0000
0100
0000
0010
0001
0010
0001
,
1000
0000
0010
0000
0110
0000
0100
0000
0001
0000
1000
0100
0000
0000
0110
0000
,
0001
0000
0010
0000
0110
0000
0100
0000
1000
0000
0001
0100
0000
0000
0020
0000
,
0130
0000
0001
0000
1001
0000
1000
0000
0010
0000
0100
0001
0000
0000
1001
0000
,
1000
0000
0001
0010
0000
0010
0001
0000
2000
0000
0100
0000
0100
0000
0100
0000
,
3001
0000
0100
0000
1010
0000
0001
0000
1000
0100
0000
0011
0000
0000
1000
0000
,
0010
0000
1000
0001
0100
0000
0100
0000
0001
0000
0010
0000
1000
0000
0010
0000
,
0001
0000
0000
0001
0100
0000
0000
0100
0010
0000
0000
1010
0000
0000
1100
0000
,
0000
0011
0000
0000
1001
0000
0000
0110
0000
0000
1001
0000
2002
0000
3003
0000
,
0000
1000
0000
1000
0100
0000
0000
1000
0000
0010
0000
0010
0100
0000
0000
0010
,
0000
1000
0000
1000
0001
0000
0000
1000
0000
0100
0000
0100
1000
0001
1000
0001
,
0100
0000
0100
0010
0000
0000
1000
0000
1000
0000
0001
0010
0000
0000
0100
0000
,
1000
0000
1000
0010
0000
0000
0100
0000
0001
0100
0000
0100
0020
0000
0000
0000
,
0030
0010
0000
1000
0010
0000
0000
1000
0000
1000
0000
0100
1000
0000
0000
0001
,
0000
0001
0000
0100
0001
0000
0000
0010
0000
0010
0000
0001
0010
0100
0010
0100
,
1000
0000
0001
1000
0000
0000
0001
0000
0001
0000
1000
0001
0000
0000
1000
0000
,
1000
0000
0100
0000
0010
0000
0001
0000
1000
0000
0010
0200
0000
0000
0310
0000
,
0100
0000
0000
0001
0100
0000
0100
0000
0001
0000
0000
0010
0001
0000
0001
0000
,
0010
0000
0000
0100
0010
0000
0010
0000
0100
1000
0000
1000
0100
0000
0100
0000
,
1000
0000
0000
0010
1000
0000
1000
0000
0001
0000
0000
1000
0001
0000
0001
0000
,
0100
0000
0000
0001
0100
0000
0100
0000
0001
0000
1000
0000
1100
0000
0110
0000
,
0000
0001
0000
1000
0100
0000
0010
0000
0000
0100
0000
1000
0001
0000
0100
0000
,
0000
0010
0000
0100
0001
0000
1000
0000
0000
0010
0000
1000
0001
0000
0010
0000
,
0001
0000
0000
0000
1001
0000
0000
0000
0011
0000
0000
0110
0000
0000
1100
0000
,
0000
1001
0000
0110
0000
1001
0000
0001
2000
0000
3000
0000
2000
0000
3000
0000
;

//---------------dance-single - ----------------
#NOTES:
     dance-single:
     :
     Medium:
     5:
     0.365600,0.412692,0.131241,0.213267,0.016405,270.000000,16.000000,26.000000,0.000000,0.000000,0.000000,0.365600,0.412692,0.131241,0.213267,0.016405,270.000000,16.000000,26.000000,0.000000,0.000000,0.000000:
0000
0000
0000
0000
,
0000
0000
0000
0000
,
0000
0000
0000
0000
,
0000
0000
0000
0000
,
1000
0000
0000
1000
0100
0000
0000
0000
,
0001
0000
0000
0001
0100
0000
0000
0000
,
2000
3000
0002
0003
,
1000
0001
2002
3003
,
1000
0100
1000
0001
,
1000
0010
0100
0100
,
0001
0010
0001
1000
,
0001
0100
0010
0110
,
0001
0010
0100
0010
,
0100
1000
0001
0100
,
0010
0010
0100
0100
,
0001
0000
0000
1000
0000
0000
0001
0000
0200
0000
0000
0000
0300
0000
0000
0000
,
0001
0100
0001
0100
,
0010
1000
0010
1000
,
0100
1000
0100
1000
,
0001
0010
0002
0013
,
0100
1000
0001
0100
,
0010
1000
0001
0010
,
0001
0100
0010
1000
,
1000
0000
1000
0000
2000
0001
3001
0001
,
1000
0100
0010
0010
,
0001
0001
1000
1100
,
0001
0000
0001
0100
0020
0000
0030
0000
,
0100
0000
0100
0000
0001
1000
0001
0000
,
1000
1001
0110
1001
,
0001
0100
0010
0010
,
1000
0100
0001
0100
,
1000
0000
0001
0000
1000
0020
0000
0000
,
0130
0010
1000
0010
,
0100
0001
0010
0010
,
0100
1000
0001
0010
,
0001
0000
1000
0000
0010
0100
0010
0100
,
0001
0000
1010
0000
0001
1000
0010
0000
,
1000
1000
0100
0100
,
0010
0100
1000
0001
,
0020
0030
0020
0030
0010
0010
0002
0000
,
1003
1100
1001
1100
,
1000
0010
0010
1000
,
0001
0101
1001
0101
,
0001
0001
0010
0010
,
0200
1300
2000
3001
,
0001
0100
0010
0100
,
0002
0013
0020
0130
,
0110
1001
0220
0330
,
1000
0100
0010
0001
,
1000
0100
0001
0010
,
1000
0010
0100
0001
,
1000
0010
0001
0100
,
1000
0100
0001
0100
,
1000
0100
0001
0010
,
1000
0000
0000
0000
0010
0000
0000
0000
1000
0000
0000
0001
0000
0000
0010
0000
,
0000
0100
0000
0000
0010
0000
0000
0001
0000
0000
1000
0000
0020
0000
0000
0000
,
1030
0100
0010
0100
,
0001
0100
0010
0100
,
1000
0010
0100
0010
,
0001
0010
0100
0100
,
0001
0010
0100
0010
,
1000
0010
0100
0010
,
0001
0001
1000
1000
,
0010
0010
0020
0030
,
2000
0100
0000
3100
,
0002
0100
0000
0103
,
2000
0010
0000
3010
,
0002
0010
0000
0013
,
1000
0100
1000
0100
,
0010
0001
0010
0001
,
0100
0001
0100
0001
,
1000
0000
0100
0000
0020
0030
0020
0030
;

//---------------dance-single - ----------------
#NOTES:
     dance-single:
     :
     Easy:
     3:
     0.269513,0.294780,0.082026,0.082026,0.000000,210.000000,10.000000,10.000000,0.000000,0.000000,0.000000,0.269513,0.294780,0.082026,0.082026,0.000000,210.000000,10.000000,10.000000,0.000000,0.000000,0.000000:
0000
0000
0000
0000
,
0000
0000
0000
0000
,
0000
0000
0000
0000
,
0000
0000
0000
0000
,
1000
0000
0001
0000
,
1000
1000
0001
0000
,
0100
0000
0010
0000
,
0100
0100
0010
0000
,
1000
0100
0000
0100
,
0000
0010
0000
0010
,
0001
0000
0001
0000
,
0100
0000
0100
0100
,
0000
0010
0000
0010
,
0000
1000
0000
1000
,
0001
0000
1000
0000
,
0001
0010
0100
0000
,
1000
0100
0000
0100
,
1000
0001
0000
0001
,
1000
0010
0000
0010
,
1000
0001
1000
0001
,
0001
0100
0000
0100
,
0001
1000
0000
1000
,
0001
0010
0000
0010
,
0010
0010
0020
0030
,
0001
0100
0010
0000
,
1000
0010
0000
1000
,
0100
1000
0001
0000
,
0010
0001
0000
1000
,
0010
0100
0100
0010
,
1000
0001
1000
1000
,
0100
0100
0010
0010
,
0001
0001
0002
0003
,
1000
0010
0100
0000
,
0001
0100
0000
0010
,
1000
1000
0100
0000
,
0010
0200
0300
0010
,
0001
0001
1000
1000
,
0001
0100
0010
1000
,
0100
0100
0010
0000
,
0100
1000
0001
0200
,
0310
0010
1000
1000
,
0010
1000
0001
0000
,
0010
0010
0001
0001
,
1000
0001
0010
0000
,
0001
0001
0100
0100
,
0010
1000
0001
0000
,
1000
1000
0100
0100
,
0010
0010
0020
0030
,
0001
1000
0010
1000
,
0001
0100
0001
0000
,
1000
0001
0010
0001
,
1000
0100
1000
1000
,
0001
0100
0010
1000
,
0001
0100
0001
0000
,
1000
0100
0010
0001
,
1000
0100
0200
0300
,
0000
1000
0000
1100
,
0000
0001
0000
0101
,
0001
0000
0011
0000
,
1000
0000
1010
0010
,
0000
1000
0000
1100
,
0000
0001
0000
0101
,
0101
0000
1010
0000
,
0110
0000
2002
3003
,
1000
0100
1000
0000
,
0001
0100
0010
0000
,
0100
0001
0100
0000
,
0010
1000
0100
0000
,
1000
0001
0010
0001
,
1000
0010
0100
0010
,
1000
0100
0010
0001
,
0010
0000
0100
0000
2000
3000
2000
3000
;

//---------------dance-single - ----------------
#NOTES:
     dance-single:
     :
     Beginner:
     1:
     0.159364,0.206346,0.000000,0.016405,0.000000,134.000000,0.000000,2.000000,0.000000,0.000000,0.000000,0.159364,0.206346,0.000000,0.016405,0.000000,134.000000,0.000000,2.000000,0.000000,0.000000,0.000000:
// measure 0
0000
0000
0000
0000
,  // measure 1
0000
0000
0000
0000
,  // measure 2
0000
0000
0000
0000
,  // measure 3
0000
0000
0000
0000
,  // measure 4
0000
0000
0000
0000
,  // measure 5
0000
0000
0000
0000
,  // measure 6
0000
0000
0000
0000
,  // measure 7
0000
0000
0000
0000
,  // measure 8
0000
1000
0000
1000
,  // measure 9
0000
0001
0000
0001
,  // measure 10
0000
1000
0000
1000
,  // measure 11
0000
0001
0000
0001
,  // measure 12
0000
0100
0000
0100
,  // measure 13
0000
0010
0000
0010
,  // measure 14
0010
0000
0100
0000
,  // measure 15
0010
0000
0010
0000
,  // measure 16
0000
1000
0000
1000
,  // measure 17
0000
0100
0000
0100
,  // measure 18
0000
0010
0000
0010
,  // measure 19
0000
0001
0000
0001
,  // measure 20
0000
0001
0000
0001
,  // measure 21
0000
0100
0000
0100
,  // measure 22
0000
0010
0000
0010
,  // measure 23
0010
0010
0010
0000
,  // measure 24
1000
1000
1000
0000
,  // measure 25
0100
0100
0000
0000
,  // measure 26
1000
0000
0010
0000
,  // measure 27
0100
0000
0001
0000
,  // measure 28
1000
0000
0001
0000
,  // measure 29
1000
1000
0001
0000
,  // measure 30
0100
0000
0100
0000
,  // measure 31
0010
0010
0010
0000
,  // measure 32
0000
0001
0000
0001
,  // measure 33
0000
0100
0000
0100
,  // measure 34
0000
0010
0000
0010
,  // measure 35
0000
1000
0000
1000
,  // measure 36
0000
0100
0000
0100
,  // measure 37
0000
0010
0000
0010
,  // measure 38
0001
0000
1000
0000
,  // measure 39
0001
0001
0001
0000
,  // measure 40
0000
1000
0000
0100
,  // measure 41
0000
1000
0000
0100
,  // measure 42
0000
0010
0000
0001
,  // measure 43
0000
0010
0000
0001
,  // measure 44
0000
0100
0000
0001
,  // measure 45
0000
0100
0000
0001
,  // measure 46
0000
1000
0000
0010
,  // measure 47
1000
1000
1000
0000
,  // measure 48
0000
0001
0000
0100
,  // measure 49
0000
0001
0000
0100
,  // measure 50
0000
0010
0000
1000
,  // measure 51
0000
0010
0000
1000
,  // measure 52
0000
0100
0000
1000
,  // measure 53
0000
0100
0000
1000
,  // measure 54
0000
0001
0000
0010
,  // measure 55
0010
0000
0000
0000
,  // measure 56
0000
0001
0000
0001
,  // measure 57
0000
1000
0000
1000
,  // measure 58
0000
0001
0000
0001
,  // measure 59
0000
1000
0000
1000
,  // measure 60
0000
0100
0000
0100
,  // measure 61
0000
0010
0000
0010
,  // measure 62
0000
0100
0000
0100
,  // measure 63
0000
0010
0010
0000
,  // measure 64
0000
1000
0000
0001
,  // measure 65
0000
1000
0000
0001
,  // measure 66
0000
0100
0000
0010
,  // measure 67
0000
0100
0000
0010
,  // measure 68
0000
1000
0000
0001
,  // measure 69
0000
1000
0000
0001
,  // measure 70
0000
0010
0000
0100
,  // measure 71
0000
0000
0010
0000
0200
0300
0200
0300
;
