#TITLE:A Dumb Idea I Had When I Was Playing Mario Kart With Tim, and He Made Me Make It;
#SUBTITLE:;
#ARTIST:Jab50Yen;
#TITLETRANSLIT:;
#SUBTITLETRANSLIT:;
#ARTISTTRANSLIT:;
#GENRE:;
#CREDIT:;
#BANNER:[Starts with Vowels] - A Dumb Idea I Had When I Was Playing Mario Kart With Tim, and He Made Me Make It-bn.png;
#BACKGROUND:[Starts with Vowels] - A Dumb Idea I Had When I Was Playing Mario Kart With Tim, and He Made Me Make It-bg.png;
#LYRICSPATH:;
#CDTITLE:cdtitle.png;
#MUSIC:[Starts with Vowels] - A Dumb Idea I Had When I Was Playing Mario Kart With Tim, and He Made Me Make It.ogg;
#OFFSET:-0.292000;
#SAMPLESTART:0.292000;
#SAMPLELENGTH:12.000000;
#SELECTABLE:YES;
#BPMS:0.000000=195.000000
;
#STOPS:
;
#BGCHANGES:;
#KEYSOUNDS:;
#ATTACKS:TIME=0.000000:LEN=58.000000:MODS=3x, Boost, 25% Mini, Distant:TIME=19.830000:LEN=19.230000:MODS=3x, Boost, Drunk, 25% Mini, Distant:TIME=56.910000:LEN=1.230000:MODS=-100% Mini;

//---------------dance-single - ----------------
#NOTES:
     dance-single:
     :
     Challenge:
     8:
     0.637951,0.615183,0.061595,1.308900,0.123191,290.000000,286.000000,4.000000,85.000000,0.000000,0.000000,0.637951,0.615183,0.061595,1.308900,0.123191,290.000000,286.000000,4.000000,85.000000,0.000000,0.000000:
// measure 0
1000
0100
1000
0100
1000
0100
1000
0100
,  // measure 1
1000
0001
1000
0001
1000
0001
1000
0001
,  // measure 2
0010
0001
0010
0001
0010
0001
0010
0001
,  // measure 3
0100
0001
0100
0001
0100
0010
0100
0001
,  // measure 4
1000
0001
1000
0001
1000
0001
1000
0001
,  // measure 5
1000
0010
1000
0010
1000
0010
1000
0010
,  // measure 6
0100
0001
0100
0001
0100
0001
0100
0001
,  // measure 7
0010
0001
0010
0001
0010
0001
0001
1000
,  // measure 8
0001
0100
0001
0100
0001
0100
0001
0100
,  // measure 9
0001
1000
0001
1000
0001
1000
0001
1000
,  // measure 10
0010
1000
0010
1000
0010
1000
0010
1000
,  // measure 11
0100
1000
0100
1000
0100
0010
0100
1000
,  // measure 12
0001
1000
0001
1000
0001
1000
0001
1000
,  // measure 13
0001
0010
0001
0010
0001
0010
0001
0010
,  // measure 14
0100
1000
0100
1000
0100
1000
0100
1000
,  // measure 15
0010
1000
0010
1000
0010
1000
1000
0010
,  // measure 16
2000
0000
0000
3200
0000
0000
0320
0000
,  // measure 17
0032
0000
0000
2000
0003
0000
3002
0000
,  // measure 18
0203
0000
0302
0023
0000
0000
0230
0000
,  // measure 19
2300
0000
0000
0000
3002
0000
0203
0000
0000
0000
0000
0000
0310
1000
0010
1000
,  // measure 20
0002
0000
0023
0230
0000
2300
3002
0000
,  // measure 21
2003
0000
3200
0320
0000
0032
2003
0000
,  // measure 22
3020
0000
0000
0230
0000
0000
0302
0000
,  // measure 23
2003
0000
0000
3200
0000
0000
0320
0000
,  // measure 24
0032
0000
2003
3020
0000
0230
0302
0000
,  // measure 25
2003
0000
3200
0320
0000
0230
2300
0000
,  // measure 26
3002
0000
0023
0230
0000
0000
2300
0000
,  // measure 27
3002
0000
0000
0000
0000
0000
0000
0000
0000
0000
0000
0000
1003
0010
1000
0010
,  // measure 28
0200
0000
0302
2003
0000
0000
3200
0000
,  // measure 29
0320
0000
0230
2300
0000
0000
3020
0000
,  // measure 30
0200
0000
0000
0000
,  // measure 31
0330
0002
0023
0230
,  // measure 32
1300
0100
1000
0100
1000
0100
0010
0001
,  // measure 33
0100
0001
0100
0001
0100
0010
1000
0001
,  // measure 34
0010
0100
0010
0100
0010
0001
1000
0010
,  // measure 35
0100
0010
0100
0010
0100
0001
1000
0100
,  // measure 36
0010
0001
0010
0001
0010
0100
1000
0001
,  // measure 37
0100
0001
0100
0001
0100
0010
1000
0001
,  // measure 38
1000
0100
1000
0100
1000
0001
0010
0001
,  // measure 39
1000
0001
1000
0001
1000
0001
0100
0010
,  // measure 40
2000
3000
0200
0300
0020
0030
0002
0003
0200
0300
2000
3000
,  // measure 41
0002
0003
0020
0030
2000
3000
0002
0003
0020
0030
0200
0300
,  // measure 42
2000
3000
0020
0030
0200
0300
0002
0003
2000
3000
0200
0300
,  // measure 43
0020
0000
0031
1000
,  // measure 44
0001
0020
0000
0032
0000
0000
1003
0000
,  // measure 45
0010
0000
2020
3030
0202
0303
0022
0033
,  // measure 46
2002
0000
0000
0000
,  // measure 47
3003
0000
0000
0000
;
