#TITLE:아잉♡;
#SUBTITLE:;
#ARTIST:Orange Caramel;
#TITLETRANSLIT:A~ing;
#SUBTITLETRANSLIT:;
#ARTISTTRANSLIT:;
#GENRE:;
#CREDIT:;
#BANNER:;
#BACKGROUND:;
#LYRICSPATH:;
#CDTITLE:;
#MUSIC:A_ing.ogg;
#OFFSET:0.000000;
#SAMPLESTART:48.575001;
#SAMPLELENGTH:14.696000;
#SELECTABLE:YES;
#BPMS:0.000000=148.000000
;
#STOPS:
;
#BGCHANGES:;
#KEYSOUNDS:;
#ATTACKS:;

//---------------dance-single - ----------------
#NOTES:
     dance-single:
     :
     Hard:
     9:
     0.573234,0.604068,0.755675,0.513859,0.128465,531.000000,431.000000,100.000000,68.000000,0.000000,0.000000,0.573234,0.604068,0.755675,0.513859,0.128465,531.000000,431.000000,100.000000,68.000000,0.000000,0.000000:
// measure 0
0000
0000
0000
0000
,  // measure 1
0000
0000
0000
0000
,  // measure 2
1000
0001
0010
0200
0000
1000
1300
0000
,  // measure 3
1010
1000
0001
0200
0000
0010
0310
0000
,  // measure 4
1000
0000
0001
0000
0010
0000
2000
0000
0000
0000
3010
0000
0001
0100
0001
0100
,  // measure 5
0010
0000
1000
0210
0000
0301
0010
0000
,  // measure 6
0110
0100
0010
0001
2001
0000
3001
0100
,  // measure 7
0120
0000
1030
0002
0000
0013
0100
0000
,  // measure 8
1000
0010
1000
0010
0200
0000
0301
0010
,  // measure 9
0110
1100
0202
0303
,  // measure 10
2000
0010
3010
0100
0101
0000
0101
0000
,  // measure 11
0002
0010
0013
0100
1100
0000
1100
0000
,  // measure 12
1000
0000
0001
0000
0010
0000
1000
0000
0001
0000
0100
0000
,  // measure 13
1100
0000
0000
0000
0011
0000
0000
0000
1002
0000
0000
0000
0103
0010
0100
0010
,  // measure 14
1000
0000
0100
0000
0010
0000
0001
0000
2001
0000
0000
3002
0000
0000
0103
0000
,  // measure 15
0110
0000
0001
2000
0000
3100
0010
0000
,  // measure 16
0001
0100
0001
0100
0010
0000
1000
0100
,  // measure 17
0002
0203
2300
3001
,  // measure 18
2000
0100
3100
0010
1001
0000
1001
0000
,  // measure 19
0002
0100
0103
0010
1001
0000
1001
0000
,  // measure 20
0001
0000
1000
0000
0010
0000
0001
0000
1000
0000
0100
0000
,  // measure 21
0101
0000
0000
0000
0011
0000
0000
0000
2100
0000
0000
0000
3100
0010
0100
0010
,  // measure 22
0002
0100
1000
0010
,  // measure 23
0203
1000
0001
0010
,  // measure 24
1300
0100
0001
0000
0001
0010
1000
0000
,  // measure 25
1010
0110
0011
1001
,  // measure 26
1000
0100
1000
0001
0020
0100
0130
1000
,  // measure 27
0000
0001
0100
0010
2000
0001
3001
0000
,  // measure 28
1100
0000
0101
0000
1100
0000
0201
0000
0000
0310
0000
0000
,  // measure 29
1010
0000
0011
0000
1010
0000
0022
0000
0000
0033
0000
0000
,  // measure 30
1010
0000
0101
0001
1000
0001
0010
0110
,  // measure 31
0000
1100
1000
0001
1000
0010
0100
0201
,  // measure 32
0000
0301
0010
0010
0100
0100
1000
0001
,  // measure 33
0100
1000
0100
0001
1000
0100
0010
0000
,  // measure 34
0012
0103
2100
3010
,  // measure 35
1002
0000
0013
0200
0000
1300
0001
0000
,  // measure 36
1010
0000
0011
0000
1010
0000
0012
0000
0000
1003
0000
0000
,  // measure 37
0101
0000
1100
0000
0101
0000
2200
0000
0000
3300
0000
0000
,  // measure 38
0011
0000
1100
1000
0001
0010
0100
0110
,  // measure 39
0000
1001
1000
0010
0001
0010
0100
0102
,  // measure 40
0000
0013
0100
0010
0001
0100
1000
0100
,  // measure 41
0010
1000
0100
0010
0001
0100
0010
0000
,  // measure 42
2010
3100
0102
0013
,  // measure 43
0110
0000
0001
2000
0000
3010
0100
0000
,  // measure 44
0101
0000
0000
1000
1100
0000
0000
0001
,  // measure 45
0101
0100
0010
0010
1000
1000
0001
1000
,  // measure 46
0001
0001
0010
0100
1000
1000
0010
0100
,  // measure 47
0001
0001
1000
0100
0020
0001
0031
1000
,  // measure 48
0001
0001
0100
1000
0100
0100
0010
1000
,  // measure 49
0100
0100
0010
0100
0002
0100
0103
0010
,  // measure 50
0001
0101
1100
1010
,  // measure 51
0012
0203
0320
1030
,  // measure 52
0001
0000
0020
0000
0130
1000
0000
1001
,  // measure 53
0001
0000
1000
0000
0010
0000
0001
0000
1000
0000
0100
0000
0010
0100
0010
0200
,  // measure 54
0020
0000
0000
0000
,  // measure 55
0000
0000
0000
0330
,  // measure 56
0002
0000
0000
1003
,  // measure 57
0020
0000
0000
0130
,  // measure 58
0002
0000
0000
0013
,  // measure 59
0200
0000
0000
1300
,  // measure 60
0001
0001
0100
0100
,  // measure 61
0010
0010
1000
1000
,  // measure 62
0101
0000
1100
0000
0101
0000
2200
0000
0000
3300
0000
0000
,  // measure 63
0011
0000
1010
0000
0011
0000
1020
0000
0000
0130
0000
0000
,  // measure 64
0101
0000
0110
1000
0001
1000
0100
0110
,  // measure 65
0000
0011
0001
1000
0001
0100
0010
1020
,  // measure 66
0000
1030
0100
0100
0010
0010
0001
1000
,  // measure 67
0010
0001
0010
1000
0001
0010
0100
0000
,  // measure 68
2100
3010
0012
0103
,  // measure 69
2001
0000
3010
0200
0000
0301
1000
0000
,  // measure 70
1100
0000
0000
0001
0011
0000
0000
1000
,  // measure 71
1010
0010
0100
0100
0001
0001
1000
0001
,  // measure 72
0011
0000
0100
2100
0000
0001
0000
3010
,  // measure 73
0000
0000
0101
0000
0000
0000
1200
0000
0000
0000
0000
0000
0310
0000
0001
1000
,  // measure 74
0001
0000
0100
0120
0000
0001
0000
1030
,  // measure 75
0000
0000
0110
0000
0000
0000
2001
0000
0000
0000
3100
0000
0010
0000
0001
0100
,  // measure 76
0010
0000
1000
1200
0000
0001
0000
0310
,  // measure 77
0000
0000
1100
0000
0000
0000
0101
0000
0001
0000
0010
0000
0100
0000
1000
0001
,  // measure 78
0100
0000
0001
0102
0000
1000
0000
0013
,  // measure 79
0000
0000
1100
0000
0000
0000
2001
0000
0000
0000
0000
0000
3100
0010
0100
0010
;

//---------------dance-single - ----------------
#NOTES:
     dance-single:
     :
     Medium:
     7:
     0.411303,0.453405,0.196476,0.544086,0.075568,381.000000,355.000000,26.000000,72.000000,0.000000,0.000000,0.411303,0.453405,0.196476,0.544086,0.075568,381.000000,355.000000,26.000000,72.000000,0.000000,0.000000:
// measure 0
0000
0000
0000
0000
,  // measure 1
0000
0000
0000
0000
,  // measure 2
1000
0000
0001
0200
0000
0301
1000
0000
,  // measure 3
0010
0000
1000
0002
0000
0013
0100
0000
,  // measure 4
0010
0000
0001
2000
0000
3001
0100
0000
,  // measure 5
0010
0000
1000
0002
0000
0000
0013
0000
,  // measure 6
1100
0000
0000
0000
0220
0000
0000
0330
,  // measure 7
1001
0000
0001
0100
0000
0100
0010
0000
,  // measure 8
1000
0010
1000
0010
0100
0000
0001
1000
,  // measure 9
0100
0110
0011
0000
,  // measure 10
2000
0000
0000
3000
0101
0000
1100
0000
,  // measure 11
0002
0000
0000
0003
1100
0000
0101
0000
,  // measure 12
1000
0000
1000
0000
1000
0000
0001
0000
0001
0000
0001
0000
,  // measure 13
2000
3200
0320
0031
,  // measure 14
0011
0000
0000
0000
0220
0000
0000
0330
,  // measure 15
1001
0000
1000
0010
0000
0100
0001
0000
,  // measure 16
0001
0010
0001
0010
0100
0000
1000
0001
,  // measure 17
0100
1010
0110
0000
,  // measure 18
0002
0000
0000
0003
0011
0000
1010
0000
,  // measure 19
2000
0000
0000
3000
1010
0000
0011
0000
,  // measure 20
0001
0000
0001
0000
0001
0000
1000
0000
1000
0000
1000
0000
,  // measure 21
0020
0230
0302
1003
,  // measure 22
0020
1000
0100
1030
,  // measure 23
2000
0100
0001
3010
,  // measure 24
0002
0010
1000
0103
,  // measure 25
2000
0010
0001
3100
,  // measure 26
1000
0000
0001
0010
0200
0000
0310
0001
,  // measure 27
0000
1000
0001
0100
0020
0000
1030
0000
,  // measure 28
0001
0000
0010
0000
0001
0000
0022
0000
0000
0033
0000
0000
,  // measure 29
1000
0000
0100
0000
1000
0000
2200
0000
0000
3300
0000
0000
,  // measure 30
0001
0000
0100
0010
1000
0001
0000
0010
,  // measure 31
0000
0100
0010
0001
0010
0100
0000
1000
,  // measure 32
0000
0001
0100
0001
1000
0100
1000
0002
,  // measure 33
0100
0103
0010
1000
0000
1000
0001
0000
,  // measure 34
0020
1030
0020
0031
,  // measure 35
1000
0000
0001
0100
0000
0010
1000
0000
,  // measure 36
0010
0000
0100
0000
0010
0000
0220
0000
0000
0330
0000
0000
,  // measure 37
1000
0000
0001
0000
1000
0000
2002
0000
0000
3003
0000
0000
,  // measure 38
1000
0000
0010
0001
0010
1000
0000
0001
,  // measure 39
0000
0010
0100
1000
0100
0001
0000
0200
,  // measure 40
0000
1300
0100
0010
0001
0100
0010
2000
,  // measure 41
0001
3001
1000
0001
0000
0100
0010
0000
,  // measure 42
0200
1300
0200
0301
,  // measure 43
1000
0000
0100
0010
0000
0001
1000
0000
,  // measure 44
0010
0000
0000
1000
0001
0000
0000
0010
,  // measure 45
0100
1000
0001
0100
0010
1000
0001
0000
,  // measure 46
0020
0000
0130
1000
0002
0000
0103
0010
,  // measure 47
2000
0000
3100
0010
0001
1000
1000
0000
,  // measure 48
0002
0000
0103
0010
2000
0000
3001
0010
,  // measure 49
2000
0000
3010
0001
1000
0010
0010
0000
,  // measure 50
0100
0002
0023
0230
,  // measure 51
2300
3001
0201
0310
,  // measure 52
1000
0000
0200
0000
0310
0001
0000
0100
,  // measure 53
0010
1000
0001
0010
0100
1000
0010
0000
,  // measure 54
0220
0000
0000
0000
,  // measure 55
0330
0000
0000
0000
,  // measure 56
0020
0000
0000
1030
,  // measure 57
0002
0000
0000
0013
,  // measure 58
0200
0000
0000
1300
,  // measure 59
0020
0000
0000
0130
,  // measure 60
0002
0000
1000
0000
0100
0000
1003
0100
,  // measure 61
0020
0001
0100
0031
,  // measure 62
1000
0000
0010
0000
0100
0000
0202
0000
0000
0303
0000
0000
,  // measure 63
0001
0000
0010
0000
0100
0000
2200
0000
0000
3300
0000
0000
,  // measure 64
0001
0000
0010
1000
0010
0001
0000
2000
,  // measure 65
0000
3010
0100
0001
0100
1000
0000
0200
,  // measure 66
0000
0301
0100
0010
1000
0100
0010
0002
,  // measure 67
1000
1003
0001
1000
0000
0100
0010
0000
,  // measure 68
0200
0301
0200
1300
,  // measure 69
0001
0000
0100
0010
0000
1000
0001
0000
,  // measure 70
0010
0000
0000
0001
1000
0000
0000
0010
,  // measure 71
0100
0001
1000
0100
0010
0001
1000
0000
,  // measure 72
0001
0000
0100
0010
0000
1000
0000
0001
,  // measure 73
0000
0010
0000
2000
0000
0000
3010
0000
,  // measure 74
0001
0000
0100
0010
0000
1000
0000
0100
,  // measure 75
0000
0010
0000
0002
0000
0000
1003
0000
,  // measure 76
0001
0000
1000
0010
0000
0100
0000
0001
,  // measure 77
0000
0001
0000
2000
0000
0000
3100
0000
,  // measure 78
0010
0000
0001
0100
0000
0010
0000
1000
,  // measure 79
0000
0100
0000
0002
0000
0000
0103
0000
,  // measure 80
1000
0000
0000
0000
;

//---------------dance-single - ----------------
#NOTES:
     dance-single:
     :
     Challenge:
     10:
     0.794538,0.845695,0.846356,0.445848,0.472297,736.000000,624.000000,112.000000,59.000000,0.000000,0.000000,0.794538,0.845695,0.846356,0.445848,0.472297,736.000000,624.000000,112.000000,59.000000,0.000000,0.000000:
0000
0000
0000
0000
,
0000
0000
0000
0000
,
0011
0010
0100
2100
0000
3001
1000
0000
,
1100
0100
0010
0102
0000
1003
0010
0100
,
0110
0000
1000
0000
0001
0000
0021
0000
0000
0000
0130
0000
1000
0100
0010
0001
,
1000
0010
1000
0010
0100
0001
0100
0001
1000
0100
0010
0001
1000
0010
0100
0001
,
1000
0000
0000
0000
0220
0000
0000
0030
,
0301
1000
1100
0001
0000
0010
0011
1000
,
0001
0100
0110
0010
1000
0000
1100
0001
,
0020
0130
0210
0310
0002
1003
1001
1000
,
1020
0100
0130
0010
1001
0000
0110
0000
,
0021
0100
0130
0010
1001
0000
0110
0000
,
1010
0000
0011
0000
0101
0000
1100
0000
1010
0000
0011
0000
,
2001
0000
0000
0000
3200
0000
0000
0000
0310
0001
0010
0001
1000
0100
1000
0100
,
0010
0000
0000
0000
2200
0000
0000
0300
,
3001
1000
1010
0100
0000
0001
0101
1000
,
0001
0010
0011
0100
1000
0001
1001
0001
,
0200
0310
0210
0310
2000
3001
1001
1000
,
1200
0010
0310
0100
1001
0000
0110
0000
,
0201
0010
0310
0100
1001
0000
0110
0000
,
0011
0000
1010
0000
1100
0000
0101
0000
0011
0000
1010
0000
,
1002
0000
0000
0000
0203
0000
0000
0000
0310
1000
0010
1000
0001
0100
0001
0100
,
0020
1000
0001
0100
,
2030
0100
0001
0010
,
3200
0010
0001
1000
,
0320
1000
0001
1030
,
0001
0010
0011
0100
1000
0001
0101
1000
,
0000
0010
0110
1000
0001
0010
0110
1000
,
1001
0000
0000
0000
0000
0000
0000
0000
1010
0000
0000
0000
0000
0000
0000
0000
0110
0000
0000
0000
0000
0000
0000
0000
0001
0000
0000
0100
0000
0000
0001
0000
0000
0100
0000
0000
0010
0000
0000
1000
0000
0000
0010
0000
0000
1000
0000
0000
,
0100
0000
0000
0000
0000
0000
0000
0000
0011
0000
0000
0000
0000
0000
0000
0000
0110
0000
0000
0000
0000
0000
0000
0000
1000
0000
0000
0100
0000
0000
1000
0000
0000
0100
0000
0000
0010
0000
0000
0001
0000
0000
0010
0000
0000
0001
0000
0000
,
0100
0010
0110
1000
0001
0010
0110
0001
,
0000
1000
1010
0100
0001
0010
0011
0100
,
1000
0000
1000
0100
0010
0000
0010
0001
0100
0000
0100
0010
1000
0000
0001
0000
,
0010
0100
0110
1000
0001
0100
0210
0000
,
0302
1000
2003
0010
3020
0100
0230
0001
,
0302
1000
2003
3200
0000
0310
0001
1000
,
1010
0000
0000
0000
0000
0000
0000
0000
0101
0000
0000
0000
0000
0000
0000
0000
1100
0000
0000
0000
0000
0000
0000
0000
0010
0000
0000
0001
0000
0000
0010
0000
0000
0001
0000
0000
1000
0000
0000
0010
0000
0000
1000
0000
0000
0010
0000
0000
,
0100
0000
0000
0000
0000
0000
0000
0000
0101
0000
0000
0000
0000
0000
0000
0000
1100
0000
0000
0000
0000
0000
0000
0000
0100
0000
0000
1000
0000
0000
0100
0000
0000
1000
0000
0000
0001
0000
0000
0100
0000
0000
0001
0000
0000
0100
0000
0000
,
0010
1000
1010
0100
0001
1000
1001
0100
,
0000
0010
0011
1000
0001
0100
0110
1000
,
0001
0000
0001
0010
0100
0000
0100
1000
0010
0000
0010
0100
0001
0000
1000
0000
,
0001
0010
0011
0100
1000
0001
1002
0000
,
2003
0010
3020
0100
0230
1000
2300
0100
,
3200
0001
0302
0023
0000
0130
0110
1000
,
1001
0000
0011
0100
1000
0000
1010
0100
,
0001
0100
0001
0100
0010
1000
0010
1000
0001
0010
0100
1000
0001
0100
0010
1000
,
0001
0010
0110
0100
1000
0001
0101
0100
,
0010
1000
1100
0100
0010
0011
0011
1000
,
0001
0100
0101
0010
1000
0100
1100
0100
,
0010
0001
0101
0100
0010
0110
1001
1000
,
0001
0100
0000
0100
1000
0100
0000
0100
,
0001
0001
1000
1000
0100
0100
0010
0010
,
0001
0100
0010
1000
0100
0010
0001
1000
,
0001
0100
0001
0100
0010
1000
0010
1000
0001
0010
0100
1000
0010
0100
0001
0010
,
0200
0000
0000
0000
,
0000
0000
0000
0300
,
2000
0000
3010
0100
0010
1000
0000
0001
,
0000
0010
0100
0010
0001
1000
0000
0001
,
0000
0100
0010
0100
1000
0100
0001
2000
,
0000
0000
3000
0200
,
0310
0001
0010
0000
0001
0100
0001
0000
0100
0010
0100
0000
0010
1000
0010
0000
,
1000
0001
1000
0000
0001
0010
0001
0000
0010
0100
0010
0000
0100
1000
0001
0000
,
1100
0000
0000
0000
0000
0000
0000
0000
0110
0000
0000
0000
0000
0000
0000
0000
0011
0000
0000
0000
0000
0000
0000
0000
1000
0000
0000
0100
0000
0000
1000
0000
0000
0100
0000
0000
0010
0000
0000
0001
0000
0000
0010
0000
0000
0001
0000
0000
,
0100
0000
0000
0000
0000
0000
0000
0000
0110
0000
0000
0000
0000
0000
0000
0000
1010
0000
0000
0000
0000
0000
0000
0000
0001
0000
0000
0100
0000
0000
0001
0000
0000
0100
0000
0000
0010
0000
0000
1000
0000
0000
0010
0000
0000
1000
0000
0000
,
0100
0010
0110
0001
1000
0010
0110
2000
,
0000
3001
0011
0100
1000
0010
1010
0100
,
0001
0000
0001
0010
0100
0000
0100
1000
0010
0000
0010
0100
0001
0000
1000
0000
,
0001
0010
0110
1000
0001
0100
0120
0000
,
2030
0001
3002
0010
0023
0100
0230
0001
,
0302
0100
0203
2300
0000
3010
0110
0001
,
1001
0000
1010
0100
0001
0000
0011
0100
,
1000
0100
1000
0100
0010
0001
0010
0001
1000
0010
0100
0001
1000
0100
0010
0001
,
1000
0010
0110
0002
0000
1003
0101
0010
,
0100
0000
0010
0000
0110
0000
2000
0000
0000
0000
3001
0000
0110
0000
1000
0001
,
0100
0001
0101
0020
0000
1030
0110
1000
,
0001
0100
0001
0100
0010
1000
0010
1000
0001
0010
0100
1000
0001
0100
0010
1000
,
0001
1000
1100
0020
0000
0031
0110
0010
,
0001
0000
0100
0000
0101
0000
0010
1000
0010
0100
0001
1000
0100
0010
0001
1000
,
0010
0100
1010
0002
0000
0013
1001
0100
,
1000
0010
1000
0010
0100
0001
0100
0001
1000
0100
0010
0001
1000
0010
0100
0001
;

//---------------dance-single - ----------------
#NOTES:
     dance-single:
     :
     Easy:
     4:
     0.277441,0.392951,0.188919,0.400508,0.000000,257.000000,232.000000,25.000000,53.000000,0.000000,0.000000,0.277441,0.392951,0.188919,0.400508,0.000000,257.000000,232.000000,25.000000,53.000000,0.000000,0.000000:
0000
0000
0000
0000
,
0000
0000
0000
0000
,
0001
0100
0001
0000
,
1000
0100
0010
0000
,
0001
1000
0010
0000
,
1000
0001
0100
0000
,
0110
0000
1001
0000
,
0110
1000
0000
0001
,
1000
0100
0010
0001
,
1000
1000
1000
0000
,
0020
0000
0100
0130
,
0002
0000
1000
1003
,
0002
0000
0023
0000
,
0230
2300
3001
0000
,
0110
0000
1001
0000
,
0110
0001
0000
1000
,
0001
0100
0010
1000
,
0001
0001
0001
0000
,
0020
0000
0100
0130
,
2000
0000
0001
3001
,
0200
0000
0320
0000
,
2030
3002
2003
0000
,
3200
0000
0010
0310
,
0002
0000
1000
1003
,
0020
0000
0130
0100
,
0001
0010
0100
1000
,
0001
0100
0020
0030
,
1000
0100
0020
0030
,
0001
1000
2002
3003
,
0010
0100
0220
0330
,
1000
0010
0100
0100
,
0001
1000
0100
0100
,
1000
0100
0010
0001
,
0100
0010
1000
0001
,
0020
0000
0230
0000
,
1300
0001
1000
0000
,
0001
0010
0022
0033
,
1000
0100
2200
3300
,
1000
0010
0100
0100
,
0001
1000
0100
0100
,
0010
0001
0100
0010
,
1000
0100
0010
0001
,
2000
0000
3200
0000
,
0310
0001
1000
0000
,
0101
0000
1100
0000
,
1001
0110
1001
0110
,
0001
0000
1000
0000
,
0100
0010
0001
1000
,
0001
0000
0100
0000
,
0010
1000
0001
1000
,
0200
0300
0020
0030
,
0001
1000
0020
0030
,
0100
0001
1000
0001
,
0020
0000
0200
0330
,
2002
0000
0000
0000
,
3003
0000
0000
0000
,
2000
0000
0000
3000
,
0020
0000
0000
0030
,
0002
0000
0000
0003
,
0200
0000
0000
0300
,
2000
0000
0000
0000
,
0002
0000
0000
3003
,
0010
0100
0220
0330
,
1000
0001
2002
3003
,
0001
0100
0001
1000
,
0010
0100
0010
1000
,
0001
0010
0100
1000
,
0001
0100
0010
1000
,
0002
0010
0010
0010
,
2003
3010
0100
0001
,
1001
0000
0110
0000
,
1001
0110
1001
0110
,
0001
1000
0001
0100
,
0010
1000
0002
0003
,
1000
0001
1000
0100
,
0010
0001
2000
3000
,
0100
1000
0001
1000
,
0010
0100
0002
0000
,
0103
0001
1000
0001
,
0010
0100
2000
0000
,
3001
0000
0000
0000
;

//---------------dance-single - Ending----------------
#NOTES:
     dance-single:
     :
     Edit:
     1:
     0.061534,0.513458,0.098238,0.052897,0.018892,57.000000,44.000000,13.000000,7.000000,0.000000,0.000000,0.061534,0.513458,0.098238,0.052897,0.018892,57.000000,44.000000,13.000000,7.000000,0.000000,0.000000:
0000
0000
0000
0000
,
0000
0000
0000
0000
,
0000
0000
0000
0000
,
0000
0000
0000
0000
,
0000
0000
0000
0000
,
0000
0000
0000
0000
,
0000
0000
0000
0000
,
0000
0000
0000
0000
,
0000
0000
0000
0000
,
0000
0000
0000
0000
,
0000
0000
0000
0000
,
0000
0000
0000
0000
,
0000
0000
0000
0000
,
0000
0000
0000
0000
,
0000
0000
0000
0000
,
0000
0000
0000
0000
,
0000
0000
0000
0000
,
0000
0000
0000
0000
,
0000
0000
0000
0000
,
0000
0000
0000
0000
,
0000
0000
0000
0000
,
0000
0000
0000
0000
,
0000
0000
0000
0000
,
0000
0000
0000
0000
,
0000
0000
0000
0000
,
0000
0000
0000
0000
,
0000
0000
0000
0000
,
0000
0000
0000
0000
,
0000
0000
0000
0000
,
0000
0000
0000
0000
,
0000
0000
0000
0000
,
0000
0000
0000
0000
,
0000
0000
0000
0000
,
0000
0000
0000
0000
,
0000
0000
0000
0000
,
0000
0000
0000
0000
,
0000
0000
0000
0000
,
0000
0000
0000
0000
,
0000
0000
0000
0000
,
0000
0000
0000
0000
,
0000
0000
0000
0000
,
0000
0000
0000
0000
,
0000
0000
0000
0000
,
0000
0000
0000
0000
,
0000
0000
0000
0000
,
0000
0000
0000
0000
,
0000
0000
0000
0000
,
0000
0000
0000
0000
,
0000
0000
0000
0000
,
0000
0000
0000
0000
,
0000
0000
0000
0000
,
0000
0000
0000
0000
,
0000
0000
0000
0000
,
0000
0000
0000
0000
,
0000
0000
0000
0000
,
0000
0000
0000
0000
,
0000
0000
0000
0000
,
0000
0000
0000
0000
,
0000
0000
0000
0000
,
0000
0000
0000
0000
,
0000
0000
0000
0000
,
0000
0000
0000
0000
,
0000
0000
0000
0000
,
0000
0000
0000
0000
,
0000
0000
0000
0000
,
0000
0000
0000
0000
,
0000
0000
0000
0000
,
0000
0000
0000
0000
,
0000
0000
0000
0000
,
0000
0000
0000
0000
,
0000
0000
0000
0000
,
0000
0000
0000
0000
,
1010
0000
0100
0102
0000
1000
0000
0013
,
0000
0000
1100
0000
0000
0000
0201
0000
0000
0000
0000
0000
0310
0000
1000
0001
,
1000
0000
0100
0120
0000
1000
0000
0031
,
0000
0000
0110
0000
0000
0000
1002
0000
0000
0000
0103
0000
0010
0000
1000
0100
,
0010
0000
0001
0201
0000
1000
0000
0310
,
0000
0000
0101
0000
0000
0000
1100
0000
1000
0000
0010
0000
0100
0000
0001
1000
,
0100
0000
1000
2100
0000
0001
0000
3010
,
0000
0000
0101
0000
0000
0000
1002
0000
0000
0000
0000
0000
0103
0010
0100
0010
;
