#VERSION:0.83;
#TITLE:ようかい体操第一;
#SUBTITLE:;
#ARTIST:Dream5;
#TITLETRANSLIT:YOUKAI TAISOU DAIICHI;
#SUBTITLETRANSLIT:;
#ARTISTTRANSLIT:;
#GENRE:Youkai Pop;
#ORIGIN:;
#CREDIT:;
#BANNER:[Playing with Numbers] - YOUKAI TAISOU DAIICHI.png;
#BACKGROUND:[Playing with Numbers] - YOUKAI TAISOU DAIICHI-bg.png;
#PREVIEWVID:;
#JACKET:[Playing with Numbers] - YOUKAI TAISOU DAIICHI-jacket.png;
#CDIMAGE:;
#DISCIMAGE:;
#LYRICSPATH:;
#CDTITLE:cdtitle.png;
#MUSIC:[Playing with Numbers] - YOUKAI TAISOU DAIICHI.ogg;
#OFFSET:-0.319000;
#SAMPLESTART:6.019000;
#SAMPLELENGTH:15.000000;
#SELECTABLE:YES;
#BPMS:0.000=125.000;
#STOPS:;
#DELAYS:;
#WARPS:;
#TIMESIGNATURES:0.000=4=4;
#TICKCOUNTS:0.000=4;
#COMBOS:0.000=1;
#SPEEDS:0.000=1.000=0.000=0;
#SCROLLS:0.000=1.000;
#FAKES:;
#LABELS:0.000=Song Start;
#BGCHANGES:-0.500=[Playing with Numbers] - Youkai Taisou Daiichi.avi=1.000=0=0=0=StretchNoLoop==CrossFade_Fastest==,
99999=-nosongbg-=1.000=0=0=0 // don't automatically add -songbackground-
;
#KEYSOUNDS:;
#ATTACKS:
;

//---------------dance-single - ----------------
#NOTEDATA:;
#CHARTNAME:;
#STEPSTYPE:dance-single;
#DESCRIPTION:;
#CHARTSTYLE:;
#DIFFICULTY:Beginner;
#METER:1;
#RADARVALUES:0.080197,0.125415,0.000000,0.000000,0.000000,47.000000,47.000000,0.000000,0.000000,0.000000,0.000000,0.000000,0.000000,0.000000,0.080197,0.125415,0.000000,0.000000,0.000000,47.000000,47.000000,0.000000,0.000000,0.000000,0.000000,0.000000,0.000000,0.000000;
#CREDIT:;
#NOTES:
0000
0000
0000
0000
,
0000
0000
0000
0000
,
0000
0000
0000
0000
,
1000
0000
0000
0000
,
0001
0000
0000
0000
,
1000
0000
0000
0000
,
0001
0000
0000
0000
,
1000
0000
0001
0000
,
0001
0000
0000
0000
,
1000
0000
1000
0000
,
0001
0000
0000
0000
,
1000
0000
0001
0000
,
1000
0000
0001
0000
,
1000
0000
0000
0000
,
0000
0000
0000
0000
,
0001
0000
0000
0000
,
1000
0000
0000
0000
,
0001
0000
0000
0000
,
1000
0000
0000
0000
,
0001
0000
0000
0000
,
1000
0000
0000
0000
,
0001
0000
0000
0000
,
0000
0000
0001
0000
,
0001
0000
1000
0000
,
1000
0000
0001
0000
,
0000
0000
1000
0000
,
0000
0000
1000
0000
,
0000
0000
0001
0000
,
0000
0000
0001
0000
,
0000
0000
0000
0000
,
0000
0000
0000
0000
,
1000
0000
0000
0000
,
0001
0000
0000
0000
,
1000
0000
0000
0000
,
0001
0000
0000
0000
,
1000
0000
0001
0000
,
0001
0000
0000
0000
,
1000
0000
1000
0000
,
0001
0000
0000
0000
,
1000
0000
0001
0000
,
1000
0000
0001
0000
,
1000
0000
0000
0000
,
0001
0000
0000
0000
;

//---------------dance-single - ----------------
#NOTEDATA:;
#CHARTNAME:;
#STEPSTYPE:dance-single;
#DESCRIPTION:;
#CHARTSTYLE:;
#DIFFICULTY:Easy;
#METER:2;
#RADARVALUES:0.163807,0.181852,0.000000,0.131387,0.000000,96.000000,96.000000,0.000000,11.000000,0.000000,0.000000,0.000000,0.000000,0.000000,0.163807,0.181852,0.000000,0.131387,0.000000,96.000000,96.000000,0.000000,11.000000,0.000000,0.000000,0.000000,0.000000,0.000000;
#CREDIT:;
#NOTES:
0000
0000
0000
0000
,
0000
0000
0000
0000
,
0000
0000
0000
0000
,
1000
0000
0001
0000
,
0010
0000
0100
0000
,
1000
0000
0001
0000
,
0100
0000
0010
0000
,
1000
0000
1000
0000
,
0001
0001
0001
0000
,
1000
0000
0001
0000
,
0100
0000
0020
0030
,
1000
1000
0001
0000
,
0010
0010
0200
0300
,
1000
0000
0001
0000
,
1000
0000
0001
0000
,
0002
0003
0010
0001
,
2000
3000
0010
1000
,
0002
0003
0100
0010
,
2000
3000
0100
0010
,
0002
0003
0100
0010
,
2000
3000
0100
0010
,
0001
0000
0001
1000
,
0000
0000
1000
1000
,
0001
0001
0100
0000
,
0001
0000
1000
1000
,
0000
0000
1000
0000
,
0010
0000
1000
0000
,
0001
0000
1000
1000
,
0001
0001
1000
0000
,
0001
0000
1000
0000
,
0001
0000
1000
0001
,
1000
0000
0001
0000
,
0010
0000
0100
0000
,
1000
0000
0001
0000
,
0100
0000
0010
0000
,
1000
0000
1000
0000
,
0001
0001
0001
0000
,
1000
0000
0001
0000
,
0100
0000
0020
0030
,
1000
1000
0001
0000
,
0010
0010
0200
0300
,
1000
0000
0001
0000
,
0200
0000
0000
0000
,
0000
0000
0300
0000
;

//---------------dance-single - ----------------
#NOTEDATA:;
#CHARTNAME:;
#STEPSTYPE:dance-single;
#DESCRIPTION:;
#CHARTSTYLE:;
#DIFFICULTY:Medium;
#METER:5;
#RADARVALUES:0.296901,0.363704,0.119443,0.453883,0.000000,174.000000,164.000000,10.000000,38.000000,0.000000,0.000000,0.000000,0.000000,0.000000,0.296901,0.363704,0.119443,0.453883,0.000000,174.000000,164.000000,10.000000,38.000000,0.000000,0.000000,0.000000,0.000000,0.000000;
#CREDIT:;
#NOTES:
0000
0000
0000
0000
,
0000
0000
0000
0000
,
0000
0000
0000
0000
,
2000
3010
0002
0013
,
1000
0000
0001
0000
0100
0010
0100
0000
,
0002
0013
2000
3010
,
0001
0000
1000
0000
0100
0010
0100
0000
,
1000
0000
0001
0000
0100
0010
0100
0000
,
0001
1000
2002
3003
,
0002
0103
0020
1030
,
0200
1300
0010
1001
,
1000
0001
1000
0000
0010
0100
0010
0000
,
1000
0001
1000
0000
0100
0000
1001
0000
,
0001
0100
1000
0100
,
0001
0010
1000
0010
,
0002
1000
0013
0001
,
2000
0001
3010
1000
,
0002
0100
1003
0010
,
2000
0100
3001
0010
,
0002
0000
0103
0000
0010
0100
0010
0000
,
2000
0000
3100
0000
0010
0100
0010
0000
,
0001
1000
0000
0010
0000
2002
0000
0000
,
0000
3003
2000
3020
,
0230
0302
1003
0100
,
0001
0010
1000
2002
,
0000
3003
0002
0100
,
0020
0033
0001
0100
,
0010
1000
0001
1000
,
0100
0010
0100
0000
2002
0000
3003
0000
,
1000
0100
0001
0100
,
1000
0010
0001
0010
,
2000
3100
0002
0103
,
1000
0000
0001
0000
0010
0100
0010
0000
,
0002
0103
2000
3100
,
0001
0000
1000
0000
0010
0100
0010
0000
,
1000
0000
0001
0000
0010
0100
0010
0000
,
0001
1000
2002
3003
,
0002
0013
0200
1300
,
0020
1030
0100
1001
,
1000
0001
1000
0000
0100
0010
0100
0000
,
1000
0001
1000
0000
0010
0000
1001
0000
,
0001
0100
0010
1000
,
2002
0000
0000
0000
,
0000
0000
3003
0000
;

//---------------dance-single - ----------------
#NOTEDATA:;
#CHARTNAME:;
#STEPSTYPE:dance-single;
#DESCRIPTION:;
#CHARTSTYLE:;
#DIFFICULTY:Hard;
#METER:7;
#RADARVALUES:0.400987,0.441640,0.262774,0.465827,0.000000,235.000000,213.000000,22.000000,39.000000,0.000000,0.000000,0.000000,0.000000,0.000000,0.400987,0.441640,0.262774,0.465827,0.000000,235.000000,213.000000,22.000000,39.000000,0.000000,0.000000,0.000000,0.000000,0.000000;
#CREDIT:;
#NOTES:
// measure 0
0000
0000
0000
0000
,  // measure 1
0000
0000
0000
0000
,  // measure 2
0000
0000
0000
0000
,  // measure 3
2001
0100
3002
0010
,  // measure 4
1003
0100
0001
0000
0001
0100
1000
0000
,  // measure 5
1002
0100
2003
0010
,  // measure 6
3001
0100
1000
0000
1000
0100
0001
0000
,  // measure 7
0011
0000
1100
0000
1000
0010
0100
0000
,  // measure 8
0001
0010
0100
0000
0110
0000
1001
0000
,  // measure 9
2000
0010
3020
0100
,  // measure 10
0230
0000
0001
0000
0301
1000
0010
0000
,  // measure 11
1000
0001
0100
0010
1000
0001
0010
0100
,  // measure 12
1000
0010
0100
0001
1000
0001
1001
0000
,  // measure 13
0001
0000
0100
0001
1000
0000
0100
1000
,  // measure 14
0001
0000
0010
0001
1000
0000
0010
1000
,  // measure 15
0002
0000
0010
0000
0103
0001
1000
0000
,  // measure 16
0100
0010
0001
1000
0020
0000
1030
0000
,  // measure 17
2000
0000
0010
0000
3100
1000
0001
0000
,  // measure 18
0100
0010
1000
0001
0200
0000
0310
0000
,  // measure 19
2000
0000
3001
0100
0010
0000
1001
0000
,  // measure 20
0002
0000
1003
0100
0010
0000
1001
0000
,  // measure 21
0001
1000
0000
0110
0000
2002
0000
3003
,  // measure 22
0001
0001
1000
1000
0020
0000
0230
0000
,  // measure 23
0302
0000
2003
0000
3020
0000
1030
0100
,  // measure 24
0001
0100
1000
0010
0100
0001
2002
0000
,  // measure 25
3003
1000
0010
0100
0002
0000
0010
0000
,  // measure 26
0100
0100
0100
0000
1000
0000
0010
0000
,  // measure 27
0100
0000
0013
0000
0001
0100
0010
1000
,  // measure 28
0100
0010
0001
1000
2002
0000
3003
0000
,  // measure 29
0002
0000
2003
0000
3001
0100
0010
1000
,  // measure 30
0001
0000
1001
0000
1000
0100
0010
0001
,  // measure 31
2001
0100
3002
0100
,  // measure 32
1003
0010
0001
0000
0001
0010
1000
0000
,  // measure 33
1002
0100
2003
0100
,  // measure 34
3001
0010
1000
0000
1000
0010
0001
0000
,  // measure 35
0101
0000
1010
0000
1000
0100
0010
0000
,  // measure 36
0001
0100
0010
0000
0110
0000
1001
0000
,  // measure 37
2000
0100
3200
0010
,  // measure 38
0320
0000
0001
0000
0031
1000
0100
0000
,  // measure 39
1000
0001
0010
0100
1000
0001
0100
0010
,  // measure 40
1000
0100
0010
0001
1000
0000
1001
0000
,  // measure 41
0002
0000
2003
0000
3010
0100
0001
0000
,  // measure 42
2002
0003
0200
0000
,  // measure 43
0000
0000
3300
0000
;

//---------------dance-single - ----------------
#NOTEDATA:;
#CHARTNAME:;
#STEPSTYPE:dance-single;
#DESCRIPTION:;
#CHARTSTYLE:;
#DIFFICULTY:Challenge;
#METER:8;
#RADARVALUES:0.534080,0.519577,0.394162,0.238886,0.161248,313.000000,280.000000,33.000000,20.000000,0.000000,0.000000,0.000000,0.000000,0.000000,0.534080,0.519577,0.394162,0.238886,0.161248,313.000000,280.000000,33.000000,20.000000,0.000000,0.000000,0.000000,0.000000,0.000000;
#CREDIT:;
#NOTES:
// measure 0
0000
0000
0000
0000
,  // measure 1
0000
0000
0000
0000
,  // measure 2
0000
0000
0000
0000
,  // measure 3
1001
0000
0000
1000
0010
0000
0000
0010
0001
0000
0000
0001
0010
0000
0000
0010
,  // measure 4
1000
0100
0001
0100
1000
0010
0100
0000
,  // measure 5
1001
0000
0000
0001
0010
0000
0000
0010
1000
0000
0000
1000
0010
0000
0000
0010
,  // measure 6
0001
0100
1000
0100
0001
0010
0100
0000
,  // measure 7
1001
0000
0000
1000
0100
0000
0000
0100
0001
0000
0100
0000
1000
0000
0000
1000
,  // measure 8
0010
0001
0010
1000
0100
0010
0001
0000
,  // measure 9
2001
0000
3100
1000
0002
0000
0103
0001
,  // measure 10
2000
0000
3010
1000
0100
0010
1001
0000
,  // measure 11
0001
0100
0100
1000
0001
0010
0010
1000
,  // measure 12
0100
0010
0001
0100
0010
1000
1001
0000
,  // measure 13
0011
0000
0000
0001
0100
0000
0010
0000
1000
0000
0000
1000
0100
0000
0010
0000
,  // measure 14
0001
0000
0000
0001
1000
0000
0010
0000
0100
0000
0001
0000
0010
0000
0100
0000
,  // measure 15
2100
0000
3010
0100
0001
0010
0100
1000
,  // measure 16
0001
0100
1000
0100
0002
0000
1003
0000
,  // measure 17
0102
0000
0013
0100
1000
0010
0100
0001
,  // measure 18
1000
0100
0001
0100
1000
0001
0100
0000
,  // measure 19
1010
0000
0000
1000
0001
0000
0010
0000
0100
0000
1000
0000
1001
0000
0000
0000
,  // measure 20
0011
0000
0000
0001
1000
0000
0010
0000
0100
0000
0001
0000
1001
0000
0000
0000
,  // measure 21
1000
1100
0000
0011
0000
2002
0000
3003
,  // measure 22
1000
0100
1000
0000
0001
0010
0001
0000
0101
0000
0000
0000
1010
0000
0000
0000
,  // measure 23
1100
0000
0011
0000
2001
0000
3100
0001
,  // measure 24
0100
1000
0010
0001
0010
1000
2002
0000
,  // measure 25
3003
0001
0010
0100
2000
0000
0010
0000
,  // measure 26
0100
0100
0100
0000
3002
0000
2003
0000
,  // measure 27
3020
0000
0230
0000
0301
0001
1000
1000
,  // measure 28
0010
0100
0001
1000
2002
0000
3003
0000
,  // measure 29
0110
0000
0000
0000
1001
0000
0000
0001
1000
0000
0100
0000
0010
0000
0001
0000
,  // measure 30
1000
0000
1001
0000
0001
0100
0010
1000
,  // measure 31
0001
0000
0010
0100
0010
0000
0001
0000
1000
0000
0100
0010
0100
0000
1000
0000
,  // measure 32
0001
0100
1000
0001
0010
1000
0001
0000
,  // measure 33
1000
0000
0010
0100
0010
0000
1000
0000
0001
0000
0100
0010
0100
0000
0001
0000
,  // measure 34
1000
0100
0001
1000
0010
0001
1000
0000
,  // measure 35
0001
0000
1000
0010
1000
0000
0100
0000
1000
0000
0001
0010
0001
0000
1000
0001
,  // measure 36
1000
0010
0001
0010
1000
0100
0010
0001
,  // measure 37
1000
0100
0001
0100
1000
0001
0010
1000
,  // measure 38
0010
0001
1000
0100
0010
0110
1001
0000
,  // measure 39
1000
0100
0100
0001
1000
0010
0010
0001
,  // measure 40
0100
0010
1000
0100
0010
0110
1001
0000
,  // measure 41
0011
0000
0000
0000
1100
0000
0000
1000
0001
0000
0100
0000
0010
0000
1000
0000
,  // measure 42
1002
0100
0200
0000
,  // measure 43
0000
0000
0303
0000
;
