#TITLE:Two Phace;
#SUBTITLE:;
#ARTIST:Sound Souler vs. litmus*;
#TITLETRANSLIT:;
#SUBTITLETRANSLIT:;
#ARTISTTRANSLIT:;
#GENRE:;
#CREDIT:TiKAL;
#MUSIC:[Playing With Numbers] - Two Phace.ogg;
#BANNER:[Playing With Numbers] - Two Phace.png;
#BACKGROUND:[Playing With Numbers] - Two Phace-bg.png;
#CDTITLE:;
#SAMPLESTART:48.623;
#SAMPLELENGTH:24.304;
#SELECTABLE:YES;
#OFFSET:-0.015;
#BPMS:0.000=158.000;
#STOPS:;
#BGCHANGES:;
#FGCHANGES:;

//--------------- dance-single - TiKAL ----------------
#NOTES:
     dance-single:
     TiKAL:
     Hard:
     8:
     0,0,0,0,0:
0000
0000
0000
0000
,
0000
0000
0000
0000
,
0000
0000
0000
0000
,
0000
0000
0000
0000
,
1000
0000
0001
0100
0000
0010
0000
1000
,
0001
0000
0001
0010
0100
0000
0100
1000
,
0000
0001
0100
0010
1000
0001
0010
0100
,
1000
0001
0100
0010
1000
0100
0010
0001
,
1001
0000
1000
0100
0001
0000
0001
0100
,
0000
1000
1000
0001
0100
0010
1000
0001
,
0010
0000
0100
0100
1000
0001
0001
0001
,
0000
0000
1000
0001
1000
0000
0000
0000
0010
0000
0010
0000
0100
0000
0000
0000
,
0001
1000
0001
0010
1000
0010
0001
1000
,
0000
0001
0100
0001
1000
0100
0010
0000
,
0001
0100
0010
1000
0001
0010
0010
0100
,
1000
0001
0001
0100
0100
0010
1000
0000
,
1001
0000
0001
0100
1000
0000
1000
0100
,
0000
0001
0001
1000
0100
0010
0001
1000
,
0010
0000
0100
0100
0001
1000
1000
1000
,
0000
0000
0001
1000
0001
0000
0000
0000
0010
0000
0010
0000
0100
0000
0000
0000
,
1000
0001
1000
0010
0001
0010
1000
0001
,
0000
1000
0100
1000
0001
0100
0010
0000
,
1000
0100
0010
0001
1000
0010
0010
0100
,
0001
1000
1000
0100
0100
0010
0001
0000
,
1002
0000
0103
0000
0010
1000
0100
0000
,
2100
0000
3001
0000
0010
0001
1000
0001
,
0100
0010
1000
0000
0001
0010
0100
1000
,
0001
0100
0001
1000
0100
1000
0001
0000
,
2001
0000
3100
0000
0010
0001
0100
0000
,
0102
0000
1003
0000
0010
1000
0001
1000
,
0100
0010
0001
0000
1000
0010
0100
0001
,
1000
0100
1000
0001
0100
0001
1000
0000
,
1001
0000
0001
0010
0010
1000
0010
0010
,
0001
1000
0010
0001
0010
1000
0001
0000
,
0210
0000
0301
0100
1000
0001
0010
1000
,
0001
0010
1000
0001
0100
1000
0001
0000
,
1000
0000
0000
0100
0000
0000
1000
0000
0001
0000
0000
0100
0000
0000
0001
0000
,
1000
0000
0000
1000
0000
0000
1000
0000
0001
0000
0000
0001
0000
0000
0001
0000
,
1000
0000
0000
0010
0000
0000
1000
0000
0001
0000
0000
0001
0000
0000
0001
0000
,
0010
0000
0100
0000
1000
0001
1000
0001
,
1001
0000
0001
1000
1000
0000
0001
0100
,
0001
1000
0100
0001
1000
0010
0001
0000
,
0210
0000
0000
0000
0000
0000
1300
0000
0000
0100
0000
0000
1000
0000
0001
0000
1000
0000
0001
0000
0000
0010
0000
0000
,
0001
0000
0000
0100
0000
0000
0001
0000
1000
0000
0001
0000
1000
0000
0000
0010
0000
0000
1000
0000
0000
0000
0000
0000
,
0001
0000
0000
0100
0000
0000
0001
0000
1000
0000
0000
0100
0000
0000
1000
0000
,
0001
0000
0000
0001
0000
0000
0001
0000
1000
0000
0000
1000
0000
0000
1000
0000
,
0001
0000
0000
0010
0000
0000
0001
0000
1000
0000
0000
1000
0000
0000
1000
0000
,
0040
0000
0000
0000
0000
0030
0110
0000
,
2002
0000
0000
0000
,
0000
0000
0000
0000
,
0000
0000
0000
0000
,
0000
0000
0000
3003
,
1000
0000
0100
0000
0010
0000
0001
1000
,
0001
0100
0001
0000
0010
0000
0100
1000
,
0001
0000
0100
0000
0010
0000
1000
0001
,
1000
0000
0000
0100
0000
0000
0010
0000
0001
0000
0000
0100
0000
0000
0010
0000
,
1000
0100
0001
0000
0001
0100
1000
0001
,
0000
0100
0000
0010
1000
0001
1000
0000
,
0001
0010
1000
0000
1000
0010
0001
1000
,
0001
0100
0010
1000
0001
0000
1000
0000
,
0001
0100
1000
0000
1000
0100
0001
1000
,
0000
0100
0000
0010
0001
1000
0001
0000
,
1000
0010
0001
0000
0001
0010
1000
0001
,
1000
0100
0010
0001
1000
0000
0001
0000
,
1002
0000
0013
0000
0100
1000
0010
0000
,
2010
0000
3001
0000
0100
0001
1000
0001
,
0010
0100
1000
0000
0001
0100
0010
1000
,
0001
0010
0001
1000
0010
1000
0001
0000
,
2001
0000
3010
0000
0100
0001
0010
0000
,
0012
0000
1003
0000
0100
1000
0001
1000
,
0010
0100
0001
0000
1000
0100
0010
0001
,
1000
0010
1000
0001
0010
0001
1000
0000
,
1001
0000
0001
0010
1000
0001
0100
1000
,
1001
0000
1000
0010
0100
0001
1000
1000
,
0001
0010
0000
0001
0010
0000
0100
0000
0100
0000
0100
0000
1000
0000
1000
0000
,
0001
0100
1000
0001
0010
1000
0001
0000
,
0120
0000
1030
0010
1000
0001
1000
1000
,
0210
0000
0301
0100
0001
1000
0001
0001
,
1000
0000
0100
0000
0000
1000
0000
0000
0001
0000
0100
0000
0000
0001
0000
0000
,
0100
0000
0010
0000
0000
1000
0000
0000
0001
0000
1000
0000
0001
0000
1000
0000
,
1001
0000
1000
0001
0001
0000
1000
1000
,
0001
1000
0100
0001
1000
0010
0001
0000
,
0210
0000
0000
0000
0000
0000
1300
0000
0000
0100
0000
0000
1000
0000
0001
0000
1000
0000
0001
0000
0000
0010
0000
0000
,
0001
0000
0000
0100
0000
0000
0001
0000
1000
0000
0001
0000
1000
0000
0000
0010
0000
0000
1000
0000
0000
0000
0000
0000
,
0210
0000
0301
0010
1000
0001
0100
1000
,
0001
0100
1000
0001
0010
1000
0001
0001
,
1000
0010
0100
0001
1000
0100
0010
0001
,
0400
0000
0000
0000
0000
0300
0110
0000
,
0202
0000
0000
0000
0000
0300
0000
2000
,
0000
0000
0000
0000
0003
0000
3200
0020
,
0000
0000
0000
0000
,
0000
0000
0000
0000
,
0330
0000
0000
0000
;

//--------------- dance-single - TiKAL ----------------
#NOTES:
     dance-single:
     TiKAL:
     Challenge:
     12:
     0,0,0,0,0:
0000
0000
0000
0000
,
0000
0000
0000
0000
,
0000
0000
0000
0000
,
0000
0000
0000
0000
,
1000
0000
0100
0000
1000
0000
0100
1000
0001
0000
0100
0000
0001
0000
0100
0001
,
1000
0000
0010
0000
1000
0000
0010
1000
0001
0000
0010
0001
1000
0000
0001
0000
,
1000
0000
0000
0100
0000
0000
0010
0000
0000
0001
0000
0000
1000
0000
0000
0010
0000
0000
0100
0000
0000
0001
0000
0000
4000
0000
0004
0000
0000
0000
0000
0000
0000
0000
0000
0000
0000
0000
0000
0000
0000
0000
0000
0000
0000
3003
0000
0000
,
0001
0000
0000
0010
0100
0000
1000
0000
0001
0100
0010
1000
0002
0000
0000
0003
,
1001
0000
1100
0100
0001
0000
0101
0100
,
1000
0000
0001
1000
0001
0000
0100
0010
1000
0000
0001
0000
0010
0000
0100
0000
,
0010
0000
0011
0001
1000
0010
0010
0010
,
0100
0000
0001
1000
0001
0010
0100
0000
1000
0000
1000
0000
0002
0000
0000
0000
,
1003
0010
0100
1000
0100
0001
1000
0100
,
0010
0000
0001
1000
0001
0000
0100
0010
1000
0000
0001
0000
2000
0000
0000
0000
,
3100
0000
0010
0000
0001
0000
1000
0000
0010
0100
0010
0000
1000
0000
0001
0000
,
0010
0000
0100
0000
0100
0000
1000
0001
1000
0010
0100
0001
1000
0100
0010
0001
,
1000
0000
0010
0000
0100
0000
4000
0000
3100
0000
0001
1000
0001
0010
0100
1000
,
0001
0000
1000
0001
0100
0010
0400
0000
0301
0000
1000
0001
0400
0300
0040
0030
,
1000
0000
0001
0010
0001
0000
0400
0000
0310
0000
1000
0000
4000
0000
3001
0000
,
0010
0000
0100
0010
0001
1000
0004
0000
1003
0000
1000
0000
0040
0030
0400
0300
,
0001
0000
0010
0000
0100
0000
0004
0000
0103
0000
1000
0001
0100
0010
0100
0001
,
1000
0000
0100
0010
0001
1000
0004
0000
0103
0000
0010
1000
0004
0003
4000
3000
,
0001
0000
0001
0000
1000
0100
0040
0130
1000
0000
1000
0000
0004
0103
0010
0100
,
0001
1000
0100
1000
0001
0100
0004
0000
1003
0000
0010
1000
0004
0003
0040
0030
,
0110
0000
1100
0000
0001
0100
1000
0100
,
0001
0000
1000
0000
1100
0000
0000
0000
0001
0000
0010
0000
0100
1000
0100
1000
,
0001
0000
0100
0010
1000
0000
0000
0000
0001
0000
0010
0000
0100
0000
1000
0000
,
0001
0000
0200
0000
0310
0000
1000
0000
0001
0010
0001
1000
0010
1000
0001
0100
,
0010
0000
0010
1000
0001
0000
0001
0000
1000
0000
1000
0000
0100
0000
0100
0000
,
0010
0000
0010
0001
1000
0000
1000
0000
0001
0000
0001
0000
0100
0000
0100
0000
,
0010
1000
0001
0010
0100
1000
0001
0100
0010
0100
0001
1000
0100
0010
0100
1000
,
0001
0000
0000
0100
0001
0000
1000
0000
0001
0010
0100
1000
0002
0000
0000
0003
,
1001
0000
0000
0000
1000
0000
1000
0100
1000
0000
1000
0000
0001
0000
0100
0000
,
0100
0000
0010
0100
0010
1000
0001
0000
1000
0100
0010
0001
1000
0000
0001
0000
,
0200
0000
0310
1000
0100
0010
0001
0100
,
0010
0000
1000
0001
1000
0000
0100
0000
1000
0000
0001
0000
0100
0000
0010
0000
,
1000
0001
1000
0100
0010
0001
1000
0010
0100
0010
1000
0001
0010
0100
1000
0001
,
0100
0001
1000
0100
1000
0001
0010
0001
1000
0001
0100
0010
1000
0001
0010
0100
,
1000
0100
0010
0100
1000
0001
0100
0010
0100
0001
1000
0100
0010
0001
1000
0010
,
0100
0010
1000
0001
0010
0100
0010
0001
2000
0000
3002
0000
2003
0000
3002
0000
,
0103
0000
0010
1000
1001
0000
0001
0001
,
0010
0000
0100
1000
0001
1000
0010
0000
0100
0001
1000
0001
0010
0000
0100
0000
,
2000
0000
0000
0000
0000
0000
0000
0000
0000
0000
0000
0000
3001
0000
0000
0000
0000
0000
0100
0000
0000
0010
0000
0000
1000
0000
0000
0000
0001
0000
0000
0000
0010
0000
0000
0000
0100
0000
0000
1000
0000
0000
0001
0000
0000
0000
0000
0000
,
1000
0000
0000
0000
0000
0000
0010
0000
0000
0100
0000
0000
0001
0000
0000
0000
1000
0000
0000
0000
0100
0000
0000
0000
0010
0000
0000
0000
0000
0000
0001
0000
0000
1000
0000
0000
0001
0000
0000
0000
0000
0000
1000
0000
0000
0000
0000
0000
,
0001
1000
0001
0100
0010
1000
0001
0010
0100
0010
0001
1000
0010
0100
0001
1000
,
0100
1000
0001
0100
0001
1000
0010
1000
0001
1000
0100
0010
0001
1000
0010
0100
,
0001
0100
0010
0100
0001
1000
0100
0010
0100
1000
0001
0100
0010
1000
0001
0010
,
0400
0040
0000
0000
0000
0000
0000
0000
0000
0000
0000
0000
0000
0000
0000
0330
0000
0000
1001
0000
0000
0000
0000
0000
,
0220
0000
0000
0000
,
0000
0000
0000
0000
,
0000
0000
0000
0000
,
0000
0000
0000
0330
,
1000
0000
0000
0100
1000
0000
0001
0000
1000
0010
0000
0000
0100
0000
0001
0000
,
1000
0000
0010
1000
0001
0000
1000
0000
0100
1000
0000
0000
0010
0000
0100
0000
,
0001
0000
0000
0010
0001
0000
1000
0000
0001
0100
0000
0000
0010
0000
1000
0000
,
0001
0000
0000
0100
0001
0000
1000
0000
0001
0000
0010
0100
1000
0000
0001
0000
,
1000
0000
0100
0000
0010
0000
4000
0000
3010
0000
0001
1000
0001
0100
0010
1000
,
0001
0000
1000
0001
0010
0100
0040
0000
0031
0000
1000
0001
0040
0030
0400
0300
,
1000
0000
0001
0100
0001
0000
0040
0000
0130
0000
1000
0000
4000
0000
3001
0000
,
0100
0000
0010
0100
0001
1000
0004
0000
1003
0000
1000
0000
0400
0300
0040
0030
,
0001
0000
0100
0000
0010
0000
0004
0000
0013
0000
1000
0001
0010
0100
0010
0001
,
1000
0000
0010
0100
0001
1000
0004
0000
0013
0000
0100
1000
0004
0003
4000
3000
,
0001
0000
0001
0000
1000
0010
0400
0310
1000
0000
1000
0000
0004
0013
0100
0010
,
0001
1000
0000
0010
1000
0001
0040
0000
0130
0000
1000
0001
0400
0300
0040
0030
,
0110
0000
1010
0000
0001
0010
1000
0010
,
0001
0000
1000
0000
1010
0000
0000
0000
0001
0000
0100
0000
0010
1000
0010
1000
,
0001
0000
0010
0100
1000
0000
0000
0000
0001
0000
0100
0000
0010
0000
1000
0000
,
0001
0000
0020
0000
0130
0000
1000
0000
0001
0100
0001
1000
0100
1000
0001
0010
,
0100
0000
0100
1000
0001
0000
0001
0000
1000
0000
1000
0000
0010
0000
0010
0000
,
0100
0000
0100
0001
1000
0000
1000
0000
0001
0000
0001
0000
0010
0000
0010
0000
,
0100
1000
0001
0100
0010
1000
0001
0010
0100
0010
0001
1000
0010
0100
0010
1000
,
0001
0000
0000
0010
0001
0000
1000
0000
0001
0100
0010
1000
0002
0000
0000
0003
,
1001
0000
0000
0000
1000
0000
1000
0010
0000
0100
0001
0000
1000
0001
1000
0001
,
0200
0000
0000
0000
0310
0000
1000
0001
0010
0100
1000
0000
1000
0000
0010
0000
,
0100
0001
0000
1000
0001
0000
0010
0001
0010
0100
1000
0000
0001
0000
0100
0000
,
0010
0000
1000
0001
1000
0000
0100
0000
1000
0000
0001
0100
0010
1000
0001
0000
,
2002
0000
0000
3003
1000
0000
0010
0100
0001
1000
0100
0000
0010
0001
0010
0001
,
2000
0000
0000
0000
3010
0000
0100
0000
0001
1000
0001
0000
0010
0000
0100
0000
,
1000
0001
0100
0010
1000
0001
0010
0100
0010
0001
1000
0100
0010
0100
1000
0001
,
0100
0010
0100
0001
1000
0010
0100
0010
2000
0000
3002
0000
2003
0000
3002
0000
,
0013
0000
0100
1000
1001
0000
0001
0001
,
0100
0000
0010
1000
0001
1000
0100
0000
0010
0001
1000
0001
0100
0000
0010
0000
,
2000
0000
0000
0000
0000
0000
0000
0000
0000
0000
0000
0000
3001
0000
0000
0000
0000
0000
0010
0000
0000
0100
0000
0000
1000
0000
0000
0000
0001
0000
0000
0000
0100
0000
0000
0000
0010
0000
0000
1000
0000
0000
0001
0000
0000
0000
0000
0000
,
1000
0000
0000
0000
0000
0000
0100
0000
0000
0010
0000
0000
0001
0000
0000
0000
1000
0000
0000
0000
0010
0000
0000
0000
0100
0000
0000
0000
0000
0000
0001
0000
0000
1000
0000
0000
0001
0000
0000
0000
0000
0000
1000
0000
0000
0000
0000
0000
,
2002
0000
0000
3003
0001
0000
0001
0100
0001
0000
1000
0000
1000
0100
1000
0000
,
0001
0000
0001
0010
0001
1000
0010
0000
0100
0001
1000
0000
0100
0000
0010
0000
,
0001
0010
0100
0010
0001
1000
0010
0100
0010
1000
0001
0010
0100
1000
0001
0100
,
0040
0400
0000
0000
0000
0000
0000
0000
0000
0000
0000
0000
0000
0000
0000
0330
0000
0000
1001
0000
0000
0000
0000
0000
,
22M0
0000
000M
0000
00M0
3000
000M
0020
,
M000
0000
000M
0000
M300
0000
0M32
2000
,
00M0
0M00
00M0
0M00
,
00M0
0M00
00M0
0M00
,
3003
0000
0000
0000
;
