#TITLE:Shakin' 31;
#SUBTITLE:;
#ARTIST:DJ Remo-con;
#TITLETRANSLIT:;
#SUBTITLETRANSLIT:;
#ARTISTTRANSLIT:;
#GENRE:;
#CREDIT:;
#BANNER:[Playing with Numbers] - Shakin 31.png;
#BACKGROUND:[Playing with Numbers] - Shakin 31-bg.png;
#LYRICSPATH:;
#CDTITLE:cdtitle.png;
#MUSIC:[Playing with Numbers] - Shakin 31.ogg;
#OFFSET:-0.348000;
#SAMPLESTART:72.740067;
#SAMPLELENGTH:13.000000;
#SELECTABLE:YES;
#DISPLAYBPM:132.000000;
#BPMS:0.000000=132.000000
;
#STOPS:
;
#BGCHANGES:;
#KEYSOUNDS:;
#ATTACKS:;

//---------------dance-single - ----------------
#NOTES:
     dance-single:
     :
     Beginner:
     1:
     0.098787,0.180715,0.064541,0.175183,0.000000,75.000000,68.000000,7.000000,19.000000,0.000000,0.000000,0.098787,0.180715,0.064541,0.175183,0.000000,75.000000,68.000000,7.000000,19.000000,0.000000,0.000000:
// measure 0
0000
0000
0000
0000
,  // measure 1
0000
0000
0000
0000
,  // measure 2
0000
0000
0000
0000
,  // measure 3
0001
0001
0001
0001
,  // measure 4
0001
0000
0000
0000
,  // measure 5
1000
0000
0000
0000
,  // measure 6
0001
0000
0000
0000
,  // measure 7
1000
0000
0000
0000
,  // measure 8
0010
0000
0000
0000
,  // measure 9
0100
0000
0000
0000
,  // measure 10
0010
0000
0000
0000
,  // measure 11
0100
0000
0000
0100
,  // measure 12
0100
0000
0100
0000
,  // measure 13
0200
0000
0300
0000
,  // measure 14
0010
0000
0010
0000
,  // measure 15
0010
0000
0000
0000
,  // measure 16
1000
0000
0001
0000
,  // measure 17
2000
0000
3000
0000
,  // measure 18
0010
0000
0100
0000
,  // measure 19
0010
0010
0010
0010
,  // measure 20
0020
0000
0000
0000
,  // measure 21
0030
0000
0000
0000
,  // measure 22
2002
0000
0000
0000
,  // measure 23
3003
0000
0000
0000
,  // measure 24
0220
0000
0000
0000
,  // measure 25
0330
0000
0000
0000
,  // measure 26
2002
0000
0000
0000
,  // measure 27
3003
0000
0000
0000
,  // measure 28
0020
0000
0030
0000
,  // measure 29
0020
0000
0030
0000
,  // measure 30
0100
0000
0100
0000
,  // measure 31
0100
0000
0100
0100
,  // measure 32
0100
0000
0000
0000
,  // measure 33
0010
0000
0000
0000
,  // measure 34
0001
0000
0000
0000
,  // measure 35
0100
0000
0000
0000
,  // measure 36
1000
0000
0000
0000
,  // measure 37
0010
0000
0000
0000
,  // measure 38
0001
0000
0000
0000
,  // measure 39
1000
1000
1000
0000
,  // measure 40
2002
0000
0000
0000
,  // measure 41
3003
0000
0000
0000
,  // measure 42
0220
0000
0000
0000
,  // measure 43
0330
0000
0000
0000
,  // measure 44
2002
0000
0000
0000
,  // measure 45
3003
0000
0000
0000
,  // measure 46
0220
0000
0000
0000
,  // measure 47
0330
0000
0000
0000
,  // measure 48
0001
0000
0010
0000
,  // measure 49
1000
0000
0000
0000
,  // measure 50
0100
0000
0001
0000
,  // measure 51
0010
0000
0000
0000
,  // measure 52
0100
0000
1000
0000
,  // measure 53
0010
0000
0000
0000
,  // measure 54
0001
0000
0000
0000
,  // measure 55
0100
0100
0100
0100
,  // measure 56
0100
0000
0000
0000
;

//---------------dance-single - ----------------
#NOTES:
     dance-single:
     :
     Easy:
     3:
     0.272653,0.361430,0.165963,0.424127,0.000000,207.000000,189.000000,18.000000,46.000000,0.000000,0.000000,0.272653,0.361430,0.165963,0.424127,0.000000,207.000000,189.000000,18.000000,46.000000,0.000000,0.000000:
0000
0000
0000
0000
,
0000
0000
0000
0000
,
0000
0000
0000
0000
,
1001
1001
1001
1001
,
0020
0130
0020
0130
,
1000
0001
1000
0000
,
0002
1003
0002
1003
,
0010
0100
0010
0000
,
2000
3010
0200
0301
,
1000
0001
1000
0000
,
0002
0013
0200
1300
,
0001
1000
0001
0000
,
2000
3001
2000
3001
,
2000
0000
3001
0000
,
0020
0130
0020
0130
,
0020
0100
0130
0110
,
2000
3010
0200
0301
,
2000
0000
3001
0000
,
0002
0013
0200
1300
,
0011
0011
0011
1100
,
2000
0100
0001
3010
,
0020
1000
0100
0031
,
0020
0001
0100
1030
,
2000
0100
0001
3010
,
0002
0010
1000
0103
,
0200
0001
0010
1300
,
0200
1000
0010
0301
,
0002
0100
1000
0013
,
2000
0100
0000
0100
,
0100
0000
0100
3100
,
0001
0000
0001
0000
,
0001
0000
0001
0000
,
2000
3010
2000
3010
,
0100
0001
0100
0000
,
0002
0013
0002
0013
,
0100
1000
0100
0000
,
2000
3001
2000
3001
,
0100
0010
0100
0000
,
0002
1003
0002
1003
,
0110
0110
0110
0110
,
2001
0100
0010
3001
,
0001
0010
0100
0000
,
1002
0100
0010
1003
,
1000
0010
0100
0000
,
0201
0010
1000
0301
,
1000
0100
0010
0000
,
0201
0010
1000
0301
,
0100
1000
0010
0000
,
2000
0010
3001
0000
,
0010
0100
0010
0000
,
0002
1000
1000
1003
,
0100
0010
0100
0000
,
2000
0100
0001
3010
,
0020
1000
0100
0031
,
0002
0010
1000
0103
,
0200
0001
0010
1300
,
1100
0000
0000
0000
;

//---------------dance-single - ----------------
#NOTES:
     dance-single:
     :
     Medium:
     6:
     0.380661,0.387247,0.313485,0.212064,0.000000,289.000000,255.000000,34.000000,23.000000,0.000000,0.000000,0.380661,0.387247,0.313485,0.212064,0.000000,289.000000,255.000000,34.000000,23.000000,0.000000,0.000000:
0000
0000
0000
0000
,
0000
0000
0000
0000
,
0000
0000
0000
0000
,
0001
1000
0001
1000
0001
1000
0001
0000
,
2001
0000
3100
0000
0010
0001
0100
0000
,
0102
1000
0013
0000
,
1002
0000
0103
0000
0010
1000
0100
0000
,
2100
0001
3010
0000
,
0210
0000
0301
0000
0100
0010
1000
0000
,
2001
0010
3100
0000
,
0120
0000
1030
0000
0100
0010
0001
0000
,
1002
0010
0103
0000
,
1000
0100
1000
0000
0100
1000
0100
0000
,
1000
0100
1000
0002
0000
0000
0003
0000
,
1000
0010
1000
0000
0010
1000
0010
0000
,
1000
0001
0100
0001
0100
0001
0100
0000
,
0010
1000
0100
0000
0010
0001
0100
0000
,
0010
1000
0100
0020
0000
0000
0030
0000
,
0001
0100
0010
0000
1000
0100
0010
0000
,
0001
0100
0010
0100
0010
0100
0010
0000
,
1010
1010
0001
0100
,
0010
1000
0010
1000
0010
0000
0000
0000
,
1100
1100
0001
0010
,
0100
1000
0100
1000
0100
0000
0000
0000
,
0011
0011
0100
1000
,
0001
0010
0001
0010
0001
0000
0000
0000
,
0101
0101
1000
0010
,
0100
0001
0100
0001
0100
0000
0000
0000
,
0002
0023
0230
2300
,
3001
0001
0200
0000
0310
0010
0000
0000
,
1000
0100
0000
0000
0001
0100
0000
0000
,
1000
0100
0000
0000
0001
0100
0000
0000
,
1000
0010
1000
0000
0001
0010
0001
0000
,
2001
0100
3010
0000
,
0001
0100
0001
0000
1000
0100
1000
0000
,
1002
0100
0013
0001
,
1000
0010
1000
0000
0010
1000
0010
0000
,
0011
0011
0202
0303
,
0001
0010
0001
0000
0010
0001
0010
0000
,
1100
1100
1010
0101
,
0001
0001
0001
0000
0010
0010
0010
0000
,
0100
0100
1000
1000
0010
0000
0000
0000
,
1000
1000
1000
0000
0010
0010
0010
0000
,
0100
0100
0001
0001
0010
0000
0011
0000
,
1000
1000
1000
0000
0100
0100
0100
0000
,
0010
0010
0001
0001
1000
0000
0000
0000
,
0001
0001
0001
0000
0100
0100
0100
0000
,
0010
0010
1000
1000
0001
0000
1001
0000
,
0102
0010
2000
0003
,
0001
0001
0001
0001
3001
0000
0000
0000
,
0220
0000
0000
0330
,
0001
0010
0100
1000
,
0010
0000
1000
0000
0001
0001
0001
0000
,
0010
0000
0001
0000
0100
0100
0100
0000
,
0010
0000
0010
0000
1000
1000
1000
0000
,
1100
1100
0011
0011
,
1001
0000
0000
0000
;

//---------------dance-single - ----------------
#NOTES:
     dance-single:
     :
     Hard:
     8:
     0.447836,0.542145,0.387247,0.184403,0.041491,340.000000,298.000000,42.000000,20.000000,0.000000,0.000000,0.447836,0.542145,0.387247,0.184403,0.041491,340.000000,298.000000,42.000000,20.000000,0.000000,0.000000:
0000
0000
0000
0000
,
0000
0000
0000
0000
,
0000
0000
0000
0000
,
1000
0010
1000
0010
1000
0010
0101
0000
,
0002
1000
0010
0103
,
0000
0001
0001
0001
0001
0001
0001
0001
,
2000
0100
0001
3010
,
0000
1000
1000
1000
1000
1000
1000
1000
,
0020
1000
0100
0031
,
0000
0010
0010
0010
0010
0010
0010
0010
,
0200
0001
0010
1300
,
0000
0100
0100
0100
0100
0100
0100
0100
,
0010
1000
0100
0000
0010
1000
0100
0000
,
0010
1000
0100
0022
0000
0000
0033
0000
,
0010
0001
0100
0000
0010
0001
0100
0000
,
0010
0001
0100
0001
0100
0001
0100
0001
,
0000
1001
0000
0000
1001
0000
0000
0000
,
1001
0000
0000
2200
0000
0000
3300
0000
,
0000
0101
0000
0000
0101
0000
0000
0000
,
0101
1000
0010
1000
0010
1000
0010
1000
,
0001
0010
0001
1000
0200
0010
0310
0000
,
0011
0011
1001
1001
1100
0000
0000
0000
,
1000
0100
1000
0001
0020
0001
0031
0000
,
1000
1000
0001
0001
0100
0000
1001
0000
,
0010
0001
0100
0001
2000
0010
3010
0000
,
1100
1100
1001
1001
0011
0000
0000
0000
,
1000
0010
0100
0010
2000
0001
3001
0000
,
0100
0100
0010
0010
1000
0001
1001
1001
,
0020
0100
1000
0130
,
0002
0010
1000
0103
,
0101
0000
0010
0000
1000
0000
0000
0101
0000
0000
0010
0000
1000
0000
0000
0000
,
0101
0000
0010
0000
1000
0000
0000
0101
0000
0000
0010
0000
1000
0000
0000
0000
,
0001
0010
0100
0000
0010
0100
1000
0000
,
0010
0000
1000
0000
0010
0000
1000
0002
0000
0000
0000
0000
0003
0000
0000
0000
,
1000
0010
0100
0000
0010
0100
0001
0000
,
0010
0000
0001
0000
0010
0000
0001
2000
0000
0000
0000
0000
3000
0000
0000
0000
,
0010
1000
0100
0000
1000
0100
0010
0000
,
0001
0000
0100
0000
0010
0000
1000
0002
0000
0000
0000
0000
0003
0000
0000
0000
,
0100
0001
0010
0000
0001
0010
0100
0000
,
1000
0000
0100
0000
0010
0000
0001
2000
0000
0000
0000
0000
3001
0000
0000
0000
,
0101
0101
0010
0000
1000
0100
1000
0000
,
0001
0001
0010
0010
0100
0000
0000
0000
,
1100
1100
0010
0000
0001
0100
0001
0000
,
1000
1000
0010
0010
0100
0000
1001
0000
,
0110
0110
1000
0000
0010
0100
0010
0000
,
1000
1000
0001
0001
0010
0000
0000
0000
,
0110
0110
1000
0000
0100
0010
0100
0000
,
1000
1000
0010
0010
0100
0000
1001
0000
,
0020
1000
0100
0031
,
0010
1000
0100
1000
0010
0000
1000
0000
,
0200
0001
0010
1300
,
0010
1000
0001
0100
0010
0000
0110
0000
,
1001
0000
0000
0000
0010
0000
0000
0100
0000
0000
0010
0000
0100
0000
0010
0000
,
1001
0000
0000
0000
0100
0000
0000
0010
0000
0000
0100
0000
0010
0000
0100
0000
,
1001
0000
0000
0000
0010
0000
0000
0100
0000
0000
1000
0000
0100
0000
0010
0000
,
0001
0100
0001
0100
0001
0100
1010
0000
,
0101
0000
0000
0000
;
