#TITLE:千本桜;
#SUBTITLE:;
#ARTIST:黒うさP feat. 初音ミク;
#TITLETRANSLIT:Senbonzakura;
#SUBTITLETRANSLIT:;
#ARTISTTRANSLIT:Kurousa-P feat. Hatsune Miku;
#GENRE:Vocaloid Rock;
#CREDIT:;
#BANNER:[Playing with Numbers] - Senbonzakura.png;
#BACKGROUND:[Playing with Numbers] - Senbonzakura-bg.png;
#LYRICSPATH:;
#CDTITLE:cdtitle.png;
#MUSIC:[Playing with Numbers] - Senbonzakura.ogg;
#OFFSET:0.885109;
#SAMPLESTART:68.855156;
#SAMPLELENGTH:12.447529;
#SELECTABLE:YES;
#BPMS:0.000000=154.000000
;
#STOPS:
;
#BGCHANGES:0.000=[Playing with Numbers] - Senbonzakura.avi=1.000=1=0=0=StretchNoLoop==CrossFade==,
99999=-nosongbg-=1.000=0=0=0 // don't automatically add -songbackground-
;
#KEYSOUNDS:;
#ATTACKS:;

//---------------dance-single - ----------------
#NOTES:
     dance-single:
     10-14:
     Challenge:
     10:
     0.792079,0.816157,0.369037,0.315031,0.612061,616.000000,575.000000,41.000000,35.000000,0.000000,0.000000,0.792079,0.816157,0.369037,0.315031,0.612061,616.000000,575.000000,41.000000,35.000000,0.000000,0.000000:
// measure 0
0000
0000
0000
0000
,  // measure 1
0000
0000
0000
0000
,  // measure 2
0000
0000
0000
0000
,  // measure 3
0000
0000
0000
0000
,  // measure 4
0000
0000
0000
0000
,  // measure 5
0001
0000
1000
0000
0001
0100
0001
0100
0001
0000
1000
0000
0001
0010
0001
0010
,  // measure 6
0001
0000
1000
0000
0001
0100
0001
0100
0001
0000
1000
0100
0010
0000
0001
0000
,  // measure 7
1000
0000
0010
0000
1000
0001
1000
0001
1000
0000
0100
0000
1000
0001
1000
0001
,  // measure 8
1000
0000
0010
0000
0001
0000
0010
0000
1000
0100
0010
0001
1000
0000
0010
0000
,  // measure 9
0100
0000
0001
0000
1000
0100
1000
0100
1000
0000
0001
0000
1000
0010
1000
0010
,  // measure 10
1000
0000
0001
0000
1000
0100
1000
0100
1000
0000
0001
0100
0010
0000
1000
0000
,  // measure 11
0100
0000
0010
0001
0010
0000
0001
1000
0001
0000
0100
0001
0100
0001
0100
0010
,  // measure 12
1000
0000
0001
1000
0001
0000
0010
0000
1000
0000
0010
0000
0001
0000
0001
0000
,  // measure 13
0100
0000
0001
0000
1000
0100
1000
0100
0010
0000
0100
0000
1000
0010
1000
0010
,  // measure 14
0100
0000
0010
0000
1000
0100
1000
0100
0010
0000
0001
0100
0010
0000
1000
0000
,  // measure 15
0001
0000
0010
0000
0001
0100
0001
0100
0010
0000
1000
0000
0100
0010
0100
0010
,  // measure 16
0001
0000
0010
0000
1000
0000
0010
0000
0001
0100
0010
1000
0001
0000
0010
0000
,  // measure 17
0100
0000
1000
0000
0001
0100
0001
0100
0010
0000
0100
0000
0001
0010
0001
0010
,  // measure 18
0100
0000
0010
0000
0001
0100
0001
0100
0010
0000
1000
0100
0010
0000
0001
0000
,  // measure 19
1000
0010
1000
0010
0100
0001
0100
0010
1000
0000
0001
0000
1000
0000
0100
0000
,  // measure 20
0110
0000
0000
0110
0000
0000
1001
0000
0220
0000
0000
0000
0330
0000
0000
0000
,  // measure 21
1001
0000
0000
0000
1001
0000
0000
1000
0100
1000
0100
0000
0010
0000
0001
0000
,  // measure 22
1001
0000
0000
0000
1001
0000
0000
0001
0100
0000
1000
0000
0100
0000
0001
0000
,  // measure 23
0101
0000
0000
0000
0101
0000
0000
0001
1000
0001
1000
0000
0100
0000
0010
0000
,  // measure 24
2000
0000
0000
0000
3020
0000
0000
0000
0031
1000
0001
0000
0100
0000
0000
0000
,  // measure 25
1001
0000
0000
1000
0001
0000
0000
0001
0100
0001
0100
0000
0010
0000
1000
0000
,  // measure 26
1001
0000
0000
1000
0001
0000
1000
0000
0100
0000
0001
0000
0100
0000
1000
0000
,  // measure 27
1100
0000
0000
1000
0010
0000
1000
0000
0001
0100
0001
0000
1000
0000
0001
0000
,  // measure 28
0011
0000
0000
0000
1100
0000
0000
1000
0010
0100
0001
0100
0001
0000
1000
0000
,  // measure 29
1200
0302
0023
2030
,  // measure 30
3100
0000
0100
1000
0001
0000
1000
0000
0020
0000
1000
0000
1030
0000
0000
0000
,  // measure 31
0001
0010
1000
0000
1010
0000
0011
0000
,  // measure 32
1002
0000
0000
0000
1003
0010
0100
0001
1000
0000
0100
0000
0010
0000
0001
0000
,  // measure 33
0201
2300
3020
0032
,  // measure 34
0103
0000
0100
0001
1000
0000
0001
0000
0020
0000
0000
0000
0130
0000
1000
0000
,  // measure 35
1001
1001
0000
0101
0110
0000
1010
0000
,  // measure 36
2001
0000
3100
2002
3003
0000
0001
0100
,  // measure 37
0120
0000
0000
0100
0000
0000
1000
0000
2000
0000
0000
0000
3030
0000
1000
0000
,  // measure 38
0010
0001
0010
1000
0001
0000
1000
0100
,  // measure 39
0020
0000
0000
0100
0000
0000
0001
0000
0002
0000
0000
0000
0033
0000
0001
0000
,  // measure 40
0010
1000
0010
0001
1000
0000
0010
0100
,  // measure 41
0102
0000
0000
0100
0000
0000
1000
0000
1000
0000
0000
0000
1003
0000
0100
0000
,  // measure 42
0001
0100
1000
0010
1000
0000
0100
0010
,  // measure 43
0002
0203
2300
3200
,  // measure 44
0301
0000
0010
0000
0100
0000
0010
0000
0001
0100
0001
0100
0010
1000
0010
1000
,  // measure 45
0001
0000
0000
0001
0100
0000
0010
0000
2000
0000
0000
3001
0100
0000
1000
0000
,  // measure 46
0001
0000
0010
0000
1000
0000
0100
0000
0010
0000
0000
0010
0001
0000
0100
0000
,  // measure 47
0010
0000
0000
0010
1000
0000
0001
0000
0020
0000
0000
0130
0010
0000
0001
0000
,  // measure 48
0100
1000
0100
0001
0010
0000
0001
0001
,  // measure 49
1000
0000
0000
1000
0100
0000
0010
0000
0002
0000
0000
1003
0100
0000
0001
0000
,  // measure 50
1000
0010
0001
0100
0010
0000
0010
1000
,  // measure 51
1001
1100
1001
0101
,  // measure 52
1000
0010
0001
0010
2000
0001
0001
3001
,  // measure 53
1000
0000
0100
0000
0010
0001
0010
0001
0010
0000
0001
0000
0100
0001
0100
0001
,  // measure 54
0100
0000
1000
0000
0100
1000
0100
1000
0100
0000
0010
0100
0001
0000
1000
0000
,  // measure 55
0010
0000
1000
0000
0100
0010
0100
0010
0100
0000
1000
0000
0010
0100
0010
0100
,  // measure 56
0010
0000
0001
0000
0010
0000
1000
0000
0100
0010
0001
1000
0100
0000
0010
0000
,  // measure 57
0001
0000
0100
0000
0010
1000
0010
1000
0010
0000
1000
0000
0100
1000
0100
1000
,  // measure 58
0100
0000
0001
0000
0100
0001
0100
0001
0100
0000
0010
0100
1000
0000
0001
0000
,  // measure 59
0100
0000
0010
1000
0010
0000
1000
0001
1000
0000
0100
1000
0100
1000
0100
0010
,  // measure 60
0001
0000
1000
0001
1000
0000
0010
0000
0001
0000
0010
0000
1000
0000
1000
0000
,  // measure 61
0100
0000
0010
0000
0001
0100
0001
0100
0010
0000
0100
0000
1000
0100
1000
0100
,  // measure 62
0010
0000
0100
0000
0001
0100
0001
0100
0010
0000
1000
0100
0010
0000
0001
0000
,  // measure 63
1000
0000
0010
0000
0100
0001
0100
0001
0010
0000
0100
0000
1000
0010
1000
0010
,  // measure 64
0100
0000
0010
0000
0001
0000
0010
0000
1000
0100
0010
0001
1000
0000
0010
0000
,  // measure 65
0100
0000
0001
0000
1000
0100
1000
0100
0010
0000
0100
0000
0001
0100
0001
0100
,  // measure 66
0010
0000
0100
0000
1000
0100
1000
0100
0010
0000
0001
0100
0010
0000
1000
0000
,  // measure 67
0001
0010
0001
0010
0100
1000
0100
0010
0001
0000
1000
0000
0001
0000
0100
0000
,  // measure 68
1010
0000
0000
1010
0000
0000
1100
0000
0022
0000
0000
0000
0033
0000
0000
0000
,  // measure 69
0011
0000
0000
0011
0000
0000
0101
0000
2020
0000
0000
0000
3030
0000
0000
0000
;

//---------------dance-single - ----------------
#NOTES:
     dance-single:
     09-12:
     Hard:
     9:
     0.635206,0.627813,0.387039,0.279028,0.094509,494.000000,451.000000,43.000000,31.000000,0.000000,0.000000,0.635206,0.627813,0.387039,0.279028,0.094509,494.000000,451.000000,43.000000,31.000000,0.000000,0.000000:
// measure 0
0000
0000
0000
0000
,  // measure 1
0000
0000
0000
0000
,  // measure 2
0000
0000
0000
0000
,  // measure 3
0000
0000
0000
0000
,  // measure 4
0000
0000
0000
0000
,  // measure 5
1000
0010
1000
1000
0001
0010
0001
0001
,  // measure 6
1000
0010
1000
1000
0001
0100
0010
1000
,  // measure 7
0001
0010
0001
0001
1000
0010
1000
1000
,  // measure 8
0001
0010
0100
0010
1000
0010
0100
0010
,  // measure 9
0001
0100
0001
0001
1000
0100
1000
1000
,  // measure 10
0001
0100
0001
0001
1000
0100
0010
0001
,  // measure 11
1000
1000
0010
0010
0100
0100
0001
0001
,  // measure 12
0010
1000
0010
0001
1000
0010
0100
0001
,  // measure 13
0010
0001
0100
0100
0010
1000
0100
0100
,  // measure 14
0010
0001
0100
0100
0010
1000
0001
1000
,  // measure 15
0100
1000
0010
0010
0100
0001
0010
0010
,  // measure 16
0001
0100
0010
0100
1000
0100
0010
0100
,  // measure 17
0001
0010
0100
0100
1000
0010
0100
0100
,  // measure 18
0001
0010
0100
0100
1000
0001
0100
0010
,  // measure 19
1000
0100
0001
0100
1000
0010
0100
0001
,  // measure 20
1001
0000
0000
1001
0000
0000
1001
0000
2002
0000
0000
0000
3003
0000
0000
0000
,  // measure 21
1001
0000
0000
0000
1000
0000
0000
1000
0010
0000
0001
0000
0010
0000
1000
0000
,  // measure 22
0100
0000
0000
0000
0100
0000
0000
1000
0100
0000
0001
0000
0100
0000
1000
0000
,  // measure 23
0001
0000
0000
0000
0001
0000
0000
0001
0100
0000
0010
0000
1000
0000
0100
0000
,  // measure 24
0110
0011
1001
1010
,  // measure 25
1001
0000
0000
1000
0001
0000
0000
0001
0010
0000
1000
0000
0010
0000
0001
0000
,  // measure 26
0100
0000
0000
0001
0100
0000
1000
0000
0100
0000
0010
0000
1000
0000
0001
1000
,  // measure 27
0001
0000
0000
1000
0100
0000
0010
0000
0001
0000
1000
0000
0010
0000
0100
0000
,  // measure 28
0001
0000
0000
0000
1001
0000
0000
1000
0100
1000
0100
0000
0010
0000
0001
0000
,  // measure 29
0012
0203
2300
3200
,  // measure 30
0301
0000
1000
0001
1000
0000
0100
0000
0020
0000
0000
0000
0031
0000
0000
0000
,  // measure 31
0001
0100
1000
0000
1100
0000
0101
0000
,  // measure 32
1001
0000
1000
0100
0020
0001
0031
1000
,  // measure 33
2010
3200
0302
0203
,  // measure 34
1300
0000
0001
1000
0001
0000
0100
0000
0020
0000
0000
0000
0130
0000
0001
0000
,  // measure 35
1000
1000
0000
1000
0100
0000
0011
0000
,  // measure 36
1002
0000
0100
0103
0000
0000
0010
1000
,  // measure 37
2001
0000
0000
0001
0000
0000
0100
0000
0200
0000
0000
0000
3300
0000
1000
0000
,  // measure 38
0100
0010
0001
0100
0010
0000
1000
1000
,  // measure 39
0002
0000
0000
1000
0000
0000
0100
0000
0200
0000
0000
0000
0303
0000
0001
0000
,  // measure 40
0100
0010
1000
0100
0010
0000
0001
0001
,  // measure 41
1000
0000
0000
0001
0000
0000
1000
0000
0001
0000
0000
0000
1000
0000
0100
0000
,  // measure 42
0001
0100
0010
0001
1000
0000
0001
0100
,  // measure 43
0020
2030
3200
0320
,  // measure 44
0031
0100
0010
1000
0001
0000
1000
0100
,  // measure 45
0110
0000
0000
0011
0000
0000
1001
0000
2001
0000
0000
0000
3001
0000
0100
0000
,  // measure 46
1000
0100
0001
0010
0001
0000
0001
0100
,  // measure 47
0110
0000
0000
1010
0000
0000
1001
0000
1002
0000
0000
0000
1003
0000
0100
0000
,  // measure 48
0001
0100
1000
0010
1000
0000
0100
0010
,  // measure 49
0011
0000
0000
1001
0000
0000
1010
0000
1020
0000
0000
0000
0130
0000
0001
0000
,  // measure 50
0010
1000
0010
0001
0100
0000
0010
1000
,  // measure 51
1001
1100
1001
0101
,  // measure 52
0001
0100
1000
0200
0002
0000
0303
0000
,  // measure 53
1000
0100
0010
0010
0100
1000
0010
0010
,  // measure 54
0100
1000
0100
0100
0010
1000
0100
0010
,  // measure 55
0001
0100
0010
0010
0100
0001
0010
0010
,  // measure 56
1000
0010
0100
0010
0001
0100
1000
0100
,  // measure 57
0001
0010
0100
0100
0010
0001
0100
0100
,  // measure 58
0010
0001
0010
0010
0100
0001
1000
0100
,  // measure 59
0010
0010
0001
0001
0100
0100
0010
0010
,  // measure 60
1000
0100
0001
1000
0010
0001
0100
0010
,  // measure 61
1000
0100
0001
0001
0100
1000
0001
0001
,  // measure 62
1000
0010
0001
0001
0010
0100
0010
1000
,  // measure 63
0001
0010
1000
1000
0010
0001
1000
1000
,  // measure 64
0010
0001
1000
0100
0001
0010
1000
0010
,  // measure 65
0001
0100
1000
1000
0100
0001
1000
1000
,  // measure 66
0001
0010
1000
1000
0010
0001
0100
0010
,  // measure 67
1000
0100
0001
1000
0010
0001
0100
0010
,  // measure 68
1010
0000
0000
1010
0000
0000
1001
0000
2200
0000
0000
0000
3300
0000
0000
0000
,  // measure 69
0011
0000
0000
0011
0000
0000
1001
0000
0202
0000
0000
0000
0303
0000
0000
0000
;

//---------------dance-single - ----------------
#NOTES:
     dance-single:
     07-09:
     Medium:
     7:
     0.473190,0.502250,0.126013,0.252025,0.027003,368.000000,354.000000,14.000000,28.000000,0.000000,0.000000,0.473190,0.502250,0.126013,0.252025,0.027003,368.000000,354.000000,14.000000,28.000000,0.000000,0.000000:
// measure 0
0000
0000
0000
0000
,  // measure 1
0000
0000
0000
0000
,  // measure 2
0000
0000
0000
0000
,  // measure 3
0000
0000
0000
0000
,  // measure 4
0000
0000
0000
0000
,  // measure 5
1000
0010
1000
0000
0010
1000
0010
0000
,  // measure 6
1000
0010
1000
0000
0010
0100
0001
0000
,  // measure 7
0010
0001
0010
0000
0001
0010
0001
0000
,  // measure 8
0010
0001
1000
0001
1000
0001
0100
0000
,  // measure 9
0001
0010
0001
0000
0010
0001
0010
0000
,  // measure 10
0001
0010
0001
0000
0010
0100
1000
0000
,  // measure 11
0001
0100
0010
1000
,  // measure 12
0001
0010
0100
1000
0010
0100
0001
0000
,  // measure 13
1000
0100
1000
0000
0001
0100
0001
0000
,  // measure 14
1000
0100
1000
0000
0010
0100
0001
0000
,  // measure 15
1000
0100
1000
0000
0001
0100
0001
0000
,  // measure 16
0010
0001
1000
0001
1000
0001
0100
0000
,  // measure 17
0001
0010
0001
0000
1000
0010
1000
0000
,  // measure 18
0001
0010
0001
0000
1000
0010
0100
0000
,  // measure 19
0001
0100
0010
1000
0100
0010
0001
0000
,  // measure 20
1000
0000
0000
1000
0000
0000
0001
0000
2000
0000
0000
0000
3000
0000
0000
0000
,  // measure 21
0001
0000
0001
0000
0010
0001
1000
0010
,  // measure 22
1000
0000
1000
0000
0010
1000
0001
1000
,  // measure 23
0100
0000
0100
0000
1000
0100
0010
0001
,  // measure 24
0100
0010
1000
0001
,  // measure 25
1000
0000
1000
0000
0010
1000
0001
0010
,  // measure 26
0001
0000
0001
0000
0010
0001
1000
0001
,  // measure 27
0100
0000
0100
0000
0001
0100
0010
1000
,  // measure 28
0200
0302
0203
1300
,  // measure 29
1010
0110
0101
1001
,  // measure 30
1000
0100
0001
0100
2000
0000
3001
0000
,  // measure 31
1000
0010
1000
0000
1100
0000
0011
0000
,  // measure 32
1001
0000
1000
0010
0200
0000
0301
0000
,  // measure 33
0011
0110
1100
1001
,  // measure 34
0001
0100
1000
0100
0002
0000
1003
0100
,  // measure 35
0010
0010
0000
0010
0010
0000
1001
0000
,  // measure 36
0220
0000
0000
0330
0000
0000
0010
0000
,  // measure 37
2001
0000
0200
3300
,  // measure 38
0100
1000
0010
0100
,  // measure 39
0002
0000
0200
0303
,  // measure 40
0100
0001
1000
0100
,  // measure 41
0010
0010
0001
0001
,  // measure 42
1000
1000
0010
0010
,  // measure 43
0002
0023
2030
3200
,  // measure 44
0301
0100
0010
0100
1000
0000
0001
0100
,  // measure 45
0010
0000
0000
1000
0000
0000
0001
0000
0002
0000
0000
0000
0003
0000
1000
0000
,  // measure 46
0100
0010
0100
0010
0001
0000
1000
0010
,  // measure 47
0100
0000
0000
0001
0000
0000
1000
0000
2000
0000
0000
0000
3000
0000
0001
0000
,  // measure 48
0100
0010
0100
0010
1000
0000
0100
0010
,  // measure 49
0001
0000
0000
1000
0000
0000
0001
0000
0002
0000
0000
0000
0003
0000
1000
0000
,  // measure 50
0010
0100
0001
1000
0100
0000
0010
0001
,  // measure 51
2000
3020
0230
0302
,  // measure 52
1003
0010
0001
0020
2000
0000
3030
0000
,  // measure 53
0001
0010
0100
0000
0010
0001
0100
0000
,  // measure 54
0001
0010
0100
0000
0010
0001
1000
0000
,  // measure 55
0010
1000
0100
0000
0010
0100
1000
0000
,  // measure 56
0010
1000
0001
1000
0001
1000
0100
0000
,  // measure 57
1000
0010
0100
0000
0010
1000
0100
0000
,  // measure 58
1000
0010
0100
0000
0010
1000
0001
0000
,  // measure 59
1000
0100
0010
0001
,  // measure 60
1000
0010
0100
0001
0010
0100
1000
0000
,  // measure 61
0010
1000
0100
0000
0010
0001
0100
0000
,  // measure 62
0010
1000
0100
0000
0010
0001
1000
0000
,  // measure 63
0001
0100
0010
0000
1000
0100
0010
0000
,  // measure 64
0100
1000
0001
1000
0001
1000
0010
0000
,  // measure 65
0100
0001
0010
0000
0100
1000
0010
0000
,  // measure 66
0100
0001
0010
0000
0100
1000
0001
0000
,  // measure 67
1000
0100
0010
0001
0100
0010
1000
0000
,  // measure 68
0001
0000
0000
0001
0000
0000
0010
0000
0002
0000
0000
0000
0003
0000
0000
0000
,  // measure 69
1000
0000
0000
1000
0000
0000
0010
0000
2000
0000
0000
0000
3000
0000
0000
0000
;

//---------------dance-single - ----------------
#NOTES:
     dance-single:
     04-05:
     Easy:
     4:
     0.349749,0.439469,0.288029,0.324032,0.000000,272.000000,240.000000,32.000000,36.000000,0.000000,0.000000,0.349749,0.439469,0.288029,0.324032,0.000000,272.000000,240.000000,32.000000,36.000000,0.000000,0.000000:
// measure 0
0000
0000
0000
0000
,  // measure 1
0000
0000
0000
0000
,  // measure 2
0000
0000
0000
0000
,  // measure 3
0000
0000
0000
0000
,  // measure 4
0000
0000
0000
0000
,  // measure 5
1000
0100
0010
0100
,  // measure 6
1000
0100
0010
0010
,  // measure 7
0001
0100
0010
0100
,  // measure 8
0001
0010
0100
1000
,  // measure 9
0001
0100
0010
0100
,  // measure 10
0001
0100
0010
0010
,  // measure 11
1000
1000
0001
0001
,  // measure 12
0010
1000
0010
0001
,  // measure 13
1000
0010
0100
0010
,  // measure 14
1000
0010
0100
0100
,  // measure 15
0001
0010
0100
0010
,  // measure 16
0001
0100
0010
1000
,  // measure 17
0001
0010
0100
0010
,  // measure 18
0001
0010
0100
0100
,  // measure 19
1000
0010
0100
0001
,  // measure 20
1001
0110
2002
3003
,  // measure 21
0001
0100
0001
0100
,  // measure 22
0010
1000
0010
1000
,  // measure 23
0001
0100
0001
1000
,  // measure 24
0100
0010
0001
0001
,  // measure 25
1000
0100
1000
0100
,  // measure 26
0010
0001
0010
0001
,  // measure 27
1000
0100
1000
0001
,  // measure 28
0100
0100
0010
0010
,  // measure 29
2000
3200
0320
0032
,  // measure 30
0203
0320
2000
3030
,  // measure 31
1000
1000
0001
0001
,  // measure 32
0011
1100
0022
0033
,  // measure 33
0002
0203
0320
2030
,  // measure 34
3200
0320
0032
1003
,  // measure 35
1001
0000
1001
0110
,  // measure 36
2002
0000
3000
0003
0000
0000
0000
0000
,  // measure 37
2001
0000
3200
0000
,  // measure 38
0310
0010
0010
0000
,  // measure 39
0002
0000
0203
0000
,  // measure 40
0310
0010
0010
0000
,  // measure 41
1000
1000
1000
1000
,  // measure 42
0001
0001
0001
0001
,  // measure 43
1000
0100
0010
0001
,  // measure 44
1001
1001
1001
0000
,  // measure 45
0011
0110
2200
3300
,  // measure 46
0001
0010
0001
0100
,  // measure 47
1010
0110
0202
0303
,  // measure 48
1000
0010
1000
0100
,  // measure 49
1100
1001
0202
0303
,  // measure 50
0001
0010
0001
1000
,  // measure 51
0010
0001
0010
1000
,  // measure 52
1100
0011
2002
3003
,  // measure 53
0001
0100
1000
0100
,  // measure 54
0001
0100
0010
0010
,  // measure 55
1000
0100
0001
0100
,  // measure 56
1000
0010
0100
0001
,  // measure 57
1000
0100
0001
0100
,  // measure 58
1000
0100
0010
0010
,  // measure 59
0001
0001
1000
1000
,  // measure 60
0010
0001
0010
1000
,  // measure 61
0001
0010
1000
0010
,  // measure 62
0001
0010
0100
0100
,  // measure 63
1000
0010
0001
0010
,  // measure 64
1000
0100
0010
0001
,  // measure 65
1000
0010
0001
0010
,  // measure 66
1000
0010
0100
0100
,  // measure 67
0001
0010
0100
1000
,  // measure 68
1010
0101
2020
3030
,  // measure 69
0011
1100
0022
0033
;

//---------------dance-single - ----------------
#NOTES:
     dance-single:
     01-02:
     Beginner:
     1:
     0.187733,0.281503,0.054005,0.090009,0.000000,146.000000,140.000000,6.000000,10.000000,0.000000,0.000000,0.187733,0.281503,0.054005,0.090009,0.000000,146.000000,140.000000,6.000000,10.000000,0.000000,0.000000:
// measure 0
0000
0000
0000
0000
,  // measure 1
0000
0000
0000
0000
,  // measure 2
0000
0000
0000
0000
,  // measure 3
0000
0000
0000
0000
,  // measure 4
0000
0000
0000
0000
,  // measure 5
1000
0000
1000
0000
,  // measure 6
1000
0000
0100
0000
,  // measure 7
1000
0000
1000
0000
,  // measure 8
0010
0000
0100
0000
,  // measure 9
0001
0000
0001
0000
,  // measure 10
0001
0000
0100
0000
,  // measure 11
0001
0000
0010
0000
,  // measure 12
0100
0000
1000
0000
,  // measure 13
0010
0000
0010
0000
,  // measure 14
0010
0000
1000
0000
,  // measure 15
0100
0000
0100
0000
,  // measure 16
1000
0000
0001
0000
,  // measure 17
0010
0000
0010
0000
,  // measure 18
0010
0000
0001
0000
,  // measure 19
0100
0000
0010
0000
,  // measure 20
2002
0000
3003
0000
,  // measure 21
1000
0000
1000
0000
,  // measure 22
0100
0000
0100
0000
,  // measure 23
1000
0000
0010
0000
,  // measure 24
1000
1000
1000
0000
,  // measure 25
0001
0000
0001
0000
,  // measure 26
0100
0000
0100
0000
,  // measure 27
0001
0000
0010
0000
,  // measure 28
0001
0001
0001
0000
,  // measure 29
1000
0000
0010
0000
,  // measure 30
1000
1000
1000
0000
,  // measure 31
0100
0000
0100
0000
,  // measure 32
1000
1000
1000
0000
,  // measure 33
0001
0000
0010
0000
,  // measure 34
0001
0001
0001
0000
,  // measure 35
1001
0000
0110
0000
,  // measure 36
2002
0000
3003
0000
,  // measure 37
2000
0000
3000
0000
,  // measure 38
1000
1000
1000
0000
,  // measure 39
0002
0000
0003
0000
,  // measure 40
0001
0001
0001
0000
,  // measure 41
1000
0000
1000
0000
,  // measure 42
0010
0010
0010
0000
,  // measure 43
1000
0000
0001
0000
,  // measure 44
0010
0010
0010
0000
,  // measure 45
0001
0001
0001
0000
,  // measure 46
0100
0100
0100
0000
,  // measure 47
0010
0010
0010
0000
,  // measure 48
1000
1000
1000
0000
,  // measure 49
0100
0100
0100
0000
,  // measure 50
0010
0010
0010
0000
,  // measure 51
0001
0000
1000
0000
,  // measure 52
0010
0010
0010
0000
,  // measure 53
1000
0000
1000
0000
,  // measure 54
1000
0000
0010
0000
,  // measure 55
1000
0000
1000
0000
,  // measure 56
0100
0000
0010
0000
,  // measure 57
0001
0000
0001
0000
,  // measure 58
0001
0000
0010
0000
,  // measure 59
0001
0000
0100
0000
,  // measure 60
0010
0000
1000
0000
,  // measure 61
0100
0000
0100
0000
,  // measure 62
0100
0000
1000
0000
,  // measure 63
0010
0000
0010
0000
,  // measure 64
1000
0000
0001
0000
,  // measure 65
0100
0000
0100
0000
,  // measure 66
0100
0000
0001
0000
,  // measure 67
0010
0000
0100
0000
,  // measure 68
2002
0000
3003
0000
,  // measure 69
2002
0000
3003
0000
;
