#TITLE:Search & Destroy (6th Remix);
#SUBTITLE:[DDR ver.];
#ARTIST:Resonant Systems;
#TITLETRANSLIT:Search & Destroy (6th Remix);
#SUBTITLETRANSLIT:[DDR ver.];
#ARTISTTRANSLIT:Resonant Systems;
#GENRE:Hardcore;
#CREDIT:;
#BANNER:;
#BACKGROUND:Search & Destroy (6th Remix) [DDR ver.]-jk.png;
#LYRICSPATH:;
#CDTITLE:cdtitle.PNG;
#MUSIC:Search & Destroy (6th Remix) [DDR ver.].ogg;
#OFFSET:-0.253000;
#SAMPLESTART:44.152058;
#SAMPLELENGTH:13.000000;
#SELECTABLE:YES;
#BPMS:0.000000=175.000000
;
#STOPS:
;
#BGCHANGES:;
#KEYSOUNDS:;
#ATTACKS:;

//---------------dance-single - ----------------
#NOTES:
     dance-single:
     Challenge:
     Challenge:
     10:
     0.486803,0.846311,0.050860,0.000000,0.712041,335.000000,330.000000,5.000000,0.000000,0.000000,0.000000,0.486803,0.846311,0.050860,0.000000,0.712041,335.000000,330.000000,5.000000,0.000000,0.000000,0.000000:
// measure 0
0000
0000
0000
0000
,  // measure 1
0000
0000
0000
0000
,  // measure 2
0000
0000
0000
0000
,  // measure 3
0000
0000
0000
0000
,  // measure 4
0000
0000
0000
0000
,  // measure 5
0000
0000
0000
0000
,  // measure 6
0000
0000
0000
0000
,  // measure 7
0000
0000
0000
0000
,  // measure 8
0000
0000
0000
0000
,  // measure 9
0000
0000
0000
0000
,  // measure 10
0000
0000
0000
0000
,  // measure 11
0000
0000
0000
0000
,  // measure 12
0000
0000
0000
0000
,  // measure 13
0000
0000
0000
0000
,  // measure 14
0000
0000
0000
0000
,  // measure 15
0000
0000
0000
0000
,  // measure 16
1000
1000
1000
1000
,  // measure 17
0100
0100
0100
0100
,  // measure 18
0010
0010
0010
0010
,  // measure 19
0001
0001
0001
0001
,  // measure 20
1000
0100
0010
0001
,  // measure 21
0010
0100
1000
0100
,  // measure 22
1000
0001
0100
0010
,  // measure 23
1000
0100
0010
0001
,  // measure 24
1000
0100
1000
0100
,  // measure 25
0010
0001
0010
0001
,  // measure 26
1000
0000
0100
0100
0000
0000
0001
0000
0000
0100
0000
0000
,  // measure 27
1000
0000
0000
0010
0000
0000
0100
0100
0000
0001
0000
1000
,  // measure 28
1000
0100
0010
0100
1000
0100
0010
0001
0010
0100
0010
0001
,  // measure 29
1000
0100
0010
0001
1000
0001
0100
0010
1000
0100
0010
0001
,  // measure 30
1000
0010
1000
0000
0100
0000
0010
0000
0100
0000
0010
0000
0001
0000
0010
0000
0100
0000
1000
0000
0100
0000
0010
0000
,  // measure 31
0001
0000
0000
1001
,  // measure 32
1000
0100
0010
0001
,  // measure 33
1000
0000
0000
0001
0000
0000
0100
0000
0000
0010
0000
1000
,  // measure 34
1000
0000
0010
0010
0000
0000
0001
0000
0000
0100
0000
0000
,  // measure 35
1000
0000
0000
0001
0000
0000
0100
0010
0100
0100
0000
1000
,  // measure 36
0001
0000
0001
1000
0000
0000
0100
0000
0000
0010
0000
0000
,  // measure 37
0001
0100
0010
1000
,  // measure 38
1000
0100
0010
0000
0001
0000
0100
0000
0010
0000
0100
0000
1000
0000
0000
0000
0001
0000
0001
0000
0000
0000
0000
0000
,  // measure 39
1000
0000
0001
0010
0000
0010
0100
0000
0100
1000
0000
0010
,  // measure 40
1000
0100
0010
0001
,  // measure 41
1000
0001
0100
0110
,  // measure 42
1000
0000
0001
0001
0000
0000
0100
0000
0000
0010
0000
0000
,  // measure 43
1000
0000
0000
0100
0000
0000
0010
0000
0000
0001
0000
1000
,  // measure 44
1000
0001
0100
0010
0100
0010
1000
0100
0010
0001
1000
0010
,  // measure 45
1000
0100
0010
0001
0010
0100
1000
0000
0000
0001
0000
1000
,  // measure 46
1000
0000
0010
1000
0100
0010
0001
0000
0100
0100
0000
0010
,  // measure 47
0010
0000
1000
0001
0000
0001
1000
0000
0000
1000
0100
0001
,  // measure 48
1000
0001
0100
0010
0000
0010
0100
0000
0000
0100
0000
0010
,  // measure 49
0010
0000
1000
1000
0000
0001
0001
0000
0010
1000
0000
0010
,  // measure 50
1000
0000
0100
0100
0000
0010
0010
0000
0001
0001
0000
1000
,  // measure 51
1000
0000
0001
0001
0000
0010
0010
0100
0010
1000
0000
0100
,  // measure 52
0010
0000
0001
0001
0000
1000
1000
0000
0010
0010
0000
0001
,  // measure 53
0001
0000
0100
0100
0000
0010
0010
0000
1000
1000
0000
0000
,  // measure 54
1000
0001
1000
0000
0100
0000
1000
0000
0100
0000
0010
0000
0001
0000
0000
0000
0100
0000
0100
0000
0000
0000
0010
0000
,  // measure 55
1000
0000
1000
0100
0000
0100
0010
0000
0010
1001
0000
0000
,  // measure 56
1000
0000
0000
0001
0000
0100
0100
0000
0000
0010
0000
1000
,  // measure 57
1000
0000
0001
0001
0000
0100
0100
0000
0010
0001
0010
0100
,  // measure 58
1000
0000
1000
0001
0000
0001
0001
0000
0100
0100
0000
0010
,  // measure 59
0010
0000
1000
1000
0000
1000
0001
0010
0001
0010
0100
0010
,  // measure 60
1000
0001
1000
0001
1000
0001
0100
0010
0100
0010
0100
0010
,  // measure 61
1000
0000
0000
0000
0011
0000
0000
0000
0100
0000
0000
0000
1000
0100
0010
0000
0001
0000
1000
0000
0000
0000
0010
0000
,  // measure 62
1000
0001
1000
0000
0010
0000
1000
0000
0100
0000
0010
0000
0001
0000
0000
0000
1000
0000
1000
0000
0000
0000
0100
0000
,  // measure 63
0100
0010
0100
0010
,  // measure 64
1001
0000
0000
0000
;
