#TITLE:Hardstyle Disco;
#SUBTITLE:(2018 Reverse Bass Edit);
#ARTIST:YOJI BIOMEHANIKA;
#TITLETRANSLIT:;
#SUBTITLETRANSLIT:;
#ARTISTTRANSLIT:;
#GENRE:;
#CREDIT:;
#BANNER:hardstyle.png;
#BACKGROUND:hardstyle-bg.png;
#LYRICSPATH:;
#CDTITLE:cdtitle.PNG;
#MUSIC:hardstyle.ogg;
#OFFSET:-0.020;
#SAMPLESTART:58.800;
#SAMPLELENGTH:12.000;
#SELECTABLE:YES;
#DISPLAYBPM:150.000;
#BPMS:0.000=150.000;
#STOPS:;
#BGCHANGES:0.000=hardstyle.mpg=1.000=0=0=1=====,
99999=-nosongbg-=1.000=0=0=0 // don't automatically add -songbackground-
;
#KEYSOUNDS:;

//---------------dance-single - SouleySM----------------
#NOTES:
     dance-single:
     SouleySM:
     Challenge:
     9:
     0.713,0.000,0.114,0.277,0.391:
0000
0000
0000
0000
,
0000
0000
0000
0000
,
1000
0000
0100
0000
0010
0000
0001
1000
0001
0000
0100
0000
0010
0000
1000
0000
,
0001
0000
0100
0010
0100
0000
0010
0000
1000
0000
0100
0010
0001
0000
1000
0000
,
0001
0000
0010
0000
0001
0000
0010
0001
0010
0000
0100
0000
1000
0000
0001
0000
,
1000
0000
0010
0100
0001
0000
1000
0100
0010
0000
0001
0000
0010
0100
0010
0000
,
1000
0000
0000
0000
0100
0000
0010
0100
0010
0000
0001
0000
0010
0000
0100
0000
,
1000
0000
0100
0010
0001
0000
1000
0000
0001
0000
0100
0010
1000
0000
0001
0000
,
1000
0000
0100
0000
0001
0000
0100
1000
0001
0000
0100
0000
0010
0000
1000
0000
,
0001
0010
0001
0010
0100
0010
0100
0010
0100
1000
0100
1000
0001
0000
1000
0000
,
0001
0000
2000
3000
0000
0000
0200
0300
0000
0000
0020
0030
0000
0000
0002
0003
,
0000
0000
2000
3000
0000
0000
0020
0030
0000
0000
0200
0300
0000
0000
0002
0003
,
00M0
0000
2000
3000
0000
0000
0200
0300
0000
0000
0002
0003
0000
0000
0200
0300
,
0000
0000
2000
3000
0000
0000
0200
0300
0000
0000
0020
0030
0000
0000
0200
0300
,
000M
0000
0020
0030
0000
0000
0002
0003
0000
0000
0020
0030
0000
0000
0200
0300
,
0000
0000
2000
3000
0000
0000
0020
0030
0000
0000
0200
0300
0000
0000
0002
0003
,
0000
0000
0020
0030
0000
0000
0200
0300
0000
0000
0020
0030
0000
0000
0200
0300
,
20M2
0M00
00M0
0M00
,
3MM3
0000
0000
0000
0000
0000
1000
0001
,
1000
0000
0000
0000
0010
0000
0100
0000
0010
0000
0000
1000
0001
0000
1000
0000
,
0001
1000
0100
0010
0001
0010
0100
1000
,
0001
0010
0001
0010
0001
0010
0001
0010
0100
0010
0100
0010
0100
0010
0100
0010
,
0100
1000
0100
1000
0100
1000
0100
1000
0001
1000
0001
1000
0001
0000
0010
0000
,
0100
0000
0000
0000
1000
0000
0010
0000
0100
0000
0000
0001
0100
0000
0010
0000
,
1000
0100
0010
0001
0010
0100
1000
0000
,
0001
0000
0010
0000
0001
0000
0010
0000
0100
0000
1000
0000
0001
0000
1000
0100
,
0010
0000
0001
0000
0010
0000
0100
1000
0001
0000
0100
0000
0010
0000
1000
0000
,
0001
0000
0000
0000
1000
0000
0001
0000
1000
0000
0000
0100
0010
0000
0001
0000
,
0010
0001
0010
0100
1000
0001
1000
0010
,
0100
0000
0000
0000
0001
0000
0100
0010
0000
0000
1000
0000
0000
0001
0000
0000
,
1000
0010
0001
0010
1000
0010
0100
0001
,
1000
0000
0000
0000
0001
0000
0100
0000
0010
0000
0000
1000
0010
0000
0100
0000
,
0001
0100
1000
0100
0001
1000
0001
0000
,
1000
0000
0000
0000
0001
0000
1000
0001
0000
0000
0010
0000
0000
0100
0000
0000
,
1000
0000
0000
0000
0000
0000
0001
0000
1000
0000
0001
0000
1000
0000
0000
0000
0000
0000
0100
0000
0010
0000
0100
0000
0010
0000
0000
0000
0000
0000
0001
0000
0000
0000
0000
0000
1000
0000
0000
0100
0000
0000
0010
0000
0000
0001
0000
0000
,
2000
0000
0002
0000
,
3003
0000
0000
0000
0000
0000
1000
0100
,
0010
0001
0010
0100
1000
0010
0100
0010
,
0001
0010
1000
0010
0001
0100
0010
1000
,
0001
0100
0010
1000
0001
0100
0010
1000
,
0001
0100
0010
1000
0010
0100
0001
1000
,
0001
0010
1000
0010
0001
0100
0010
1000
,
0001
0010
0100
0010
0100
1000
0001
1000
,
0001
0100
0010
1000
0001
0010
0100
1000
,
0001
0100
0010
1000
0001
0010
1000
0010
,
0001
1000
0010
0100
0001
0100
0010
0100
,
0010
1000
0010
0100
0001
1000
0001
0100
,
0010
1000
0010
0100
0001
0010
0100
1000
,
0001
0100
0010
1000
0100
0001
0100
1000
,
0001
1000
0001
0010
0100
1000
0001
1000
,
0001
0100
0010
1000
0001
0010
0100
1000
,
0100
1000
0100
1000
0001
1000
0001
1000
,
0001
0010
0001
0010
0100
0010
0100
0010
0100
1000
0100
1000
0001
0010
0100
1000
,
0001
0100
0010
0000
1000
0000
0010
0000
0100
0000
0001
0000
1000
0000
0001
1000
,
0000
0001
1000
0000
0010
0000
0100
0010
0000
0100
0010
0000
1000
0000
0001
0000
,
1000
0010
0100
0000
0001
0000
0100
0000
1000
0000
0100
0000
0001
0000
1000
0010
,
0000
1000
0010
0000
0100
0000
0001
0100
0000
0001
0100
0000
0010
0000
1000
0000
,
0001
0100
0010
0000
1000
0000
0010
0000
0100
0000
0010
0000
0100
0000
0001
1000
,
0000
0001
1000
0000
0001
0000
0100
0010
0000
0100
0010
0000
1000
0000
0010
0000
,
0100
0001
0100
0000
0001
0000
0100
0000
0010
0000
1000
0000
0001
0000
1000
0010
,
0000
1000
0010
0000
0100
0000
0001
0100
0000
0001
0100
0000
0010
0000
1000
0000
,
0001
0010
0100
0000
1000
0000
0100
0000
0010
0000
0001
0000
1000
0000
0010
0100
,
0000
0010
0100
0000
0001
0000
0100
0001
0000
0100
0001
0000
0010
0000
0100
0000
,
1000
0010
0100
0000
0001
0000
0100
0000
0010
0000
1000
0000
0001
0000
0010
0001
,
0000
0010
0001
0000
0010
0000
0100
0010
0000
0100
0010
0000
0100
0000
1000
0000
,
0001
0100
0010
0000
1000
0000
0010
0000
0100
0000
0001
0000
1000
0000
0100
1000
,
0000
0100
1000
0000
0100
0000
0010
0100
0000
0010
0100
0000
0010
0000
0001
0000
,
0010
0100
1000
0000
0001
0000
0100
0000
0010
0000
1000
0000
0001
0000
1000
0001
,
0000
1000
0001
0000
1000
0000
0010
0100
0010
0000
0100
0000
0001
0100
0010
1000
,
0001
1000
0001
0000
0010
0100
0010
0000
,
0011
1100
0110
1001
,
1010
0101
1100
0011
,
0110
1001
1010
0101
,
2002
0000
0000
0000
,
3003
0000
0000
0000
;

//---------------dance-single - SouleySM----------------
#NOTES:
     dance-single:
     SouleySM:
     Hard:
     8:
     0.555,0.000,0.008,0.033,0.208: // measure 1
0000
0000
0000
0000
,  // measure 2
0000
0000
0000
0000
,  // measure 3
1000
0000
0000
0000
0001
0000
1000
0100
0010
0000
0000
0000
0001
0000
0000
0000
,  // measure 4
1000
0010
0100
0000
0001
0000
1000
0000
0001
0100
0010
0000
1000
0000
0010
0000
,  // measure 5
0100
0000
0001
0000
1000
0000
0100
0010
0100
0000
0000
0000
0010
0000
0000
0000
,  // measure 6
0001
0100
0010
0000
1000
0000
0010
0000
0100
0010
0100
0000
0001
0000
1000
0000
,  // measure 7
0001
0000
0000
0000
0100
0000
0010
0100
0010
0000
0000
0000
1000
0000
0000
0000
,  // measure 8
0001
0000
1000
0010
0100
0000
0001
0000
1000
0000
0100
0010
0001
0000
1000
0000
,  // measure 9
0001
0000
0010
0000
0100
0000
1000
0001
1000
0000
0010
0000
0100
0000
0001
0000
,  // measure 10
1000
0000
0010
0100
0001
0000
1000
0000
0001
0000
0100
0010
1000
0000
0001
0000
,  // measure 11
1001
1000
0000
0010
0000
0100
0000
0001
,  // measure 12
0000
1000
0000
0100
0000
0010
0000
0001
,  // measure 13
0000
1000
0000
0100
0000
0001
0000
0100
,  // measure 14
0000
1000
0000
0010
0000
0100
0000
0001
,  // measure 15
0000
1000
0000
0010
0000
0100
0000
0001
,  // measure 16
0000
1000
0000
0010
0000
0001
0000
0010
,  // measure 17
0000
1000
0000
0100
0000
0010
0000
0002
,  // measure 18
2000
0000
0000
0000
,  // measure 19
3003
0000
0000
0000
0000
0000
1000
0010
,  // measure 20
0100
0000
0001
0100
0010
0000
1000
0000
,  // measure 21
0001
0010
0100
1000
0100
0010
0001
0000
,  // measure 22
1000
0010
0100
0001
,  // measure 23
1000
0000
0100
0000
0010
0000
0001
0100
,  // measure 24
0010
0000
1000
0010
0100
0000
0001
0000
,  // measure 25
1000
0100
0010
0001
0010
0100
1000
0000
,  // measure 26
0001
0000
0010
0000
0001
0000
0010
0000
0001
0000
0010
0000
0100
0000
1000
0001
,  // measure 27
0000
0000
1000
0000
0001
0000
0010
0100
0000
0000
1000
0000
0001
0000
0100
0000
,  // measure 28
0010
0000
1000
0010
0100
0000
0001
0000
,  // measure 29
1000
0100
0010
0001
0010
0100
1000
0000
,  // measure 30
0001
0000
0000
0000
1000
0000
0001
1000
0000
0000
0010
0000
0000
0100
0000
0000
,  // measure 31
0001
1000
0100
0010
0001
0100
0010
1000
,  // measure 32
0001
0000
1000
0010
0100
0000
0001
0000
,  // measure 33
1000
0010
0100
0001
0010
1000
0010
0001
,  // measure 34
1000
0000
0000
0000
0001
0000
0000
1000
0001
0000
0000
0100
0000
0000
0010
0000
,  // measure 35
1000
0000
0010
0000
0001
0000
0010
0000
1000
0000
0001
0000
1000
0100
0010
0001
,  // measure 36
2000
0000
0002
0000
,  // measure 37
3003
0000
0000
0000
0000
0000
1000
0010
,  // measure 38
0100
0000
0001
0100
0010
0000
1000
0000
,  // measure 39
0001
0100
1000
0100
0001
1000
0001
0100
,  // measure 40
0010
0000
1000
0010
0100
0000
0001
0000
,  // measure 41
1000
0100
0001
0100
1000
0010
0100
0001
,  // measure 42
1000
0000
0100
0010
0100
0000
0010
0000
,  // measure 43
0001
0100
1000
0100
0001
0100
0010
1000
,  // measure 44
0001
0000
1000
0010
0100
0000
0001
0000
,  // measure 45
1000
0010
0100
0001
1000
0100
0001
0100
,  // measure 46
1000
0000
0010
0100
0001
0000
1000
0000
,  // measure 47
0001
0010
0100
0010
0100
1000
0001
1000
,  // measure 48
0001
0000
1000
0100
0010
0000
0001
0000
,  // measure 49
1000
0010
0001
0010
1000
0100
0010
0001
,  // measure 50
1000
0000
0010
0100
0001
0000
1000
0000
,  // measure 51
0001
0010
0100
1000
0100
0010
0001
0000
,  // measure 52
1000
0000
0100
0001
0100
0000
1000
0000
,  // measure 53
0001
0010
0100
1000
0100
0010
0001
0000
,  // measure 54
1000
0000
0010
0000
0001
0000
0010
0000
1000
0000
0001
0000
1000
0000
0001
1000
,  // measure 55
0000
0001
1000
0000
0100
0000
0010
0100
0000
0010
0100
0000
0010
0000
1000
0000
,  // measure 56
0001
0000
0100
0000
0010
0000
1000
0000
0001
0000
0100
0000
0010
0000
1000
0010
,  // measure 57
0000
1000
0010
0000
0100
0000
0001
0100
0000
0001
0100
0000
0010
0000
1000
0000
,  // measure 58
0001
0000
0100
0000
0010
0000
1000
0000
0001
0000
0010
0000
0100
0000
1000
0100
,  // measure 59
0000
1000
0100
0000
0010
0000
0001
0010
0000
0001
0010
0000
0100
0000
1000
0000
,  // measure 60
0001
0000
0100
0000
0010
0000
1000
0000
0001
0000
0100
0000
0010
0000
0100
0010
,  // measure 61
0000
0100
0010
0000
1000
0000
0001
1000
0000
0001
1000
0000
0001
0000
0100
0000
,  // measure 62
0010
0000
1000
0000
0100
0000
0001
0000
0100
0000
1000
0000
0001
0000
1000
0001
,  // measure 63
0000
1000
0001
0000
0100
0000
0010
0100
0000
0010
0100
0000
0001
0000
1000
0000
,  // measure 64
0001
0000
0100
0000
1000
0000
0100
0000
0001
0000
0010
0000
0100
0000
1000
0100
,  // measure 65
0000
1000
0100
0000
0010
0000
0001
0010
0000
0001
0010
0000
0100
0000
1000
0000
,  // measure 66
0010
0000
0100
0000
0010
0000
0100
0000
0001
0000
0100
0000
0010
0000
1000
0010
,  // measure 67
0000
1000
0010
0000
0100
0000
0001
0100
0000
0001
0100
0000
0010
0000
1000
0000
,  // measure 68
0001
0000
0100
0000
0010
0000
1000
0000
0010
0000
0100
0000
0001
0000
1000
0001
,  // measure 69
0000
1000
0001
0000
0010
0000
0100
0010
0100
0000
0010
0000
0100
0000
0000
0000
,  // measure 70
1000
0010
1000
0000
0001
1000
0001
0000
,  // measure 71
1000
0010
0100
0001
,  // measure 72
1000
0100
0010
0001
,  // measure 73
1000
0100
0001
0100
,  // measure 74
1000
0000
0000
0000
;
