#TITLE:DADDY(feat. CL of 2NE1);
#SUBTITLE:;
#ARTIST:PSY;
#TITLETRANSLIT:;
#SUBTITLETRANSLIT:;
#ARTISTTRANSLIT:;
#CREDIT:SupremeX;
#BANNER:DADDY.png;
#BACKGROUND:DADDY-bg.png;
#LYRICSPATH:;
#CDTITLE:cdtitle.png;
#MUSIC:DADDY.ogg;
#OFFSET:-0.530;
#SAMPLESTART:73.600;
#SAMPLELENGTH:11.960;
#SELECTABLE:YES;
#BPMS:0.000=131.840;
#STOPS:159.000=1.820
;
#BGCHANGES:;

//---------------dance-single - ----------------
#NOTES:
     dance-single:
     :
     Hard:
     8:
     0.490,0.518,0.386,0.090,0.081: // measure 1
0000
0000
0000
0000
,  // measure 2
0000
0000
0000
0000
,  // measure 3
0000
0000
0000
0000
,  // measure 4
0000
0000
0000
0000
,  // measure 5
1000
0000
0000
1000
0000
0000
0010
0000
0100
0000
0001
0000
1000
0000
0100
0000
,  // measure 6
0010
0000
0000
0001
0000
0000
0010
0000
0010
0000
0000
0000
0100
0000
0000
0000
,  // measure 7
1000
0000
0000
1000
0000
0000
0010
0000
0200
0000
0000
0000
0300
0000
0001
0000
,  // measure 8
0010
0100
1000
0010
1000
0000
0101
0000
,  // measure 9
1010
0000
0001
0010
0100
0000
1001
0000
,  // measure 10
0110
0000
1000
0100
0010
0000
0001
0000
,  // measure 11
0100
0010
1000
0001
0100
0010
1000
0000
,  // measure 12
0000
0100
0010
0000
0100
0000
0010
0000
1000
0000
0000
0000
0101
0000
0000
0000
,  // measure 13
1001
0000
0010
0100
0001
0000
1100
0000
,  // measure 14
0110
0010
0100
0010
0100
0000
0001
0001
,  // measure 15
1000
0000
0010
0000
0100
0000
0001
0000
1000
0000
0000
0101
0000
0000
0000
0000
,  // measure 16
0000
1000
0100
0010
0001
1000
0100
1000
,  // measure 17
0010
0100
0010
1000
0001
0000
1001
0001
,  // measure 18
0010
0100
1000
0100
0100
0000
0010
0001
,  // measure 19
0001
0000
0000
0000
1000
0000
1000
0000
0001
0000
1000
0001
0100
0000
0100
0000
,  // measure 20
0010
0000
1000
0010
1000
0000
0001
0000
1000
0000
0010
0000
0010
0000
0000
0000
,  // measure 21
1000
0001
0010
0100
1100
0000
0100
1000
,  // measure 22
0100
0010
0001
1000
1100
0000
0010
0001
,  // measure 23
0010
0000
0100
1000
0100
0000
0110
0000
,  // measure 24
0001
0010
0100
1000
0010
0100
0101
0000
,  // measure 25
2000
0000
0000
3100
0000
0000
0100
0010
,  // measure 26
0200
0000
0000
0310
0000
0000
0010
0001
,  // measure 27
0020
0000
0000
0130
0000
0000
0100
0001
,  // measure 28
2000
0000
0000
3100
0000
0100
0001
1000
,  // measure 29
2002
0000
3000
1003
0000
0000
0001
0010
,  // measure 30
0200
0000
0000
1300
0000
0000
0001
0010
,  // measure 31
0100
0000
0000
1000
0000
0000
0100
0000
0000
0010
0000
0000
0001
0000
0100
0000
,  // measure 32
0001
0000
0000
1001
0000
0000
1001
0000
0000
0000
0010
0000
0100
0000
0001
0000
,  // measure 33
0110
1000
0100
0010
0001
1000
0100
1000
,  // measure 34
1100
0001
0100
0001
0010
0100
1000
0010
,  // measure 35
1010
0001
0100
0010
1000
0001
0100
0010
,  // measure 36
0110
0001
1000
0100
0100
0000
1001
0000
,  // measure 37
0010
0100
0001
0100
0010
1000
0001
1000
,  // measure 38
1000
0000
0000
0010
0100
0010
1000
0001
,  // measure 39
0001
0000
0000
1000
0010
0100
0001
1000
,  // measure 40
1000
0100
0010
0001
1000
0001
1001
0000
,  // measure 41
0100
0010
0100
0001
1000
0010
1000
0001
,  // measure 42
0100
0100
0001
0010
0100
1000
0010
1000
,  // measure 43
0200
0000
0300
0010
0001
1000
0100
0010
,  // measure 44
0010
1001
0110
1001
,  // measure 45
0010
0100
0001
1000
0001
0100
0010
1000
,  // measure 46
0001
0001
1000
0010
0100
0001
1000
0100
,  // measure 47
0020
0000
0030
0001
0010
0100
1000
0010
,  // measure 48
0010
0100
0001
0100
0010
1000
0001
0100
,  // measure 49
0001
0000
0000
0000
1100
0000
0000
0000
0010
0000
0000
0011
0000
0000
0110
0000
,  // measure 50
1000
0000
0000
0000
0110
0000
0000
0000
0011
0000
0000
1100
0000
0000
1000
0000
,  // measure 51
1001
0000
0000
0000
0110
0000
0000
0000
1000
0000
0000
0001
0000
0000
0100
0000
,  // measure 52
0110
0000
0000
0001
1000
0010
0100
0010
,  // measure 53
1000
0000
0000
0000
0110
0000
0000
0000
0001
0000
0000
1000
0000
0000
0001
0000
,  // measure 54
1001
0000
0000
0000
0110
0000
0000
0000
0001
0000
0000
1000
0000
0000
0010
0000
,  // measure 55
0110
0000
0000
0000
0100
0000
0000
0000
0001
0000
0000
1000
0000
0000
1100
0000
,  // measure 56
0010
0010
0001
0100
0010
1000
0010
0000
,  // measure 57
0101
0000
0000
0000
1000
0000
0001
0000
1000
0000
0000
1001
0000
0000
0000
0000
,  // measure 58
0000
0000
0000
0000
0010
0000
0100
0000
0010
0000
0000
0110
0000
0000
0000
0000
;

//---------------dance-single - ----------------
#NOTES:
     dance-single:
     :
     Medium:
     5:
     0.338,0.352,0.135,0.045,0.049:
0000
0000
0000
0000
,
0000
0000
0000
0000
,
0000
0000
0000
0000
,
0000
0000
0000
0000
,
1000
0010
1000
0001
,
0100
0001
1000
1001
,
0010
0000
0000
0000
0100
0000
0000
0000
0002
0000
0000
0000
0000
0003
0000
0000
,
1000
1000
1000
0000
,
0010
0000
0100
0001
0100
0000
0010
0000
,
0010
0000
1000
0010
1000
0000
0001
0000
,
0100
0000
0010
1000
0001
0100
0001
0000
,
0000
1000
0010
1000
0001
0000
0100
0000
,
0110
0000
0001
1000
0001
0000
0100
0000
,
0001
0010
0100
1000
0100
0000
0010
0000
,
0011
0000
0000
0000
0100
0000
1000
0000
0100
0000
0000
0010
0000
0000
0000
0000
,
0001
0000
0001
0000
1000
0100
1000
0000
,
0100
0000
0010
0000
0101
0000
1000
0010
,
1000
0000
0110
0000
0110
0000
0001
1000
,
0001
0000
1000
0010
0100
0010
0100
0000
,
0001
0000
1000
0000
1000
0010
0100
0000
,
0001
0000
1000
0100
1000
0000
0001
0000
,
1000
0010
0100
0001
0100
0000
0010
0010
,
0010
0000
1000
1000
1000
0000
0010
0000
,
0100
0010
1000
0010
1000
0001
0100
0000
,
0001
0000
0000
0001
0000
0000
1000
0100
,
1000
0000
0000
0100
0000
0000
0010
0001
,
0002
0000
0000
0103
0000
0000
0100
0010
,
0020
0000
0000
1030
0000
1000
0001
0010
,
0200
0000
0000
1300
0000
0000
0001
1000
,
0020
0000
0000
1030
0000
0000
1000
0001
,
1000
0000
0000
0100
0000
0000
1000
0000
0000
0000
0000
0000
0001
0000
0100
0000
,
0010
0000
0000
1000
0000
0000
0010
0000
0000
0000
0000
0000
0100
0000
0000
0000
,
0001
0000
0100
0010
1000
0010
1000
0010
,
0100
0000
0000
0100
0000
0000
0001
0000
1000
0000
0000
0000
1001
0000
0000
0000
,
0100
0000
0000
0010
0000
0000
0100
0000
0001
0000
0000
0000
0000
0000
1000
0000
,
0001
0100
0001
1000
0010
0000
0100
0000
,
0010
0000
0000
0000
1000
0000
0001
0010
,
0100
0000
1000
0000
0001
0100
0010
0100
,
0001
0000
0000
1000
0010
1000
0010
0000
,
0100
0000
0100
0001
1000
0000
1001
0000
,
0010
0000
0100
0000
1000
0000
0001
0100
,
0001
1000
0001
1000
,
0110
0000
0000
0000
0001
0000
0010
0100
,
0010
0000
1000
0001
,
1001
0000
0010
0100
,
0110
0000
0000
0001
0001
0000
0010
0000
,
1100
0000
0000
1000
1000
0000
0100
0000
,
0011
1000
0100
0010
,
0001
0000
0000
0000
1000
0000
0000
0000
0010
0000
0000
0010
0000
0000
0010
0000
,
0100
0000
0000
0000
0100
0000
0000
0000
0001
0000
0000
0001
0000
0000
0001
0000
,
0010
0000
0000
0000
0100
0000
0000
0000
1000
0000
0000
1000
0000
0000
1000
0000
,
0100
0000
0010
0001
,
0100
0000
0000
0000
0100
0000
0000
0000
0010
0000
0000
0010
0000
0000
0010
0000
,
1000
0000
0000
0000
0001
0000
0000
0000
1000
0000
0000
0100
0000
0000
0010
0000
,
0001
0000
0000
0000
0100
0000
0000
0000
0001
0000
0000
0010
0000
0000
0100
0000
,
1100
0000
0000
0000
,
1001
0000
0000
0000
;

//---------------dance-single - ----------------
#NOTES:
     dance-single:
     :
     Easy:
     3:
     0.251,0.312,0.135,0.099,0.000:
0000
0000
0000
0000
,
0000
0000
0000
0000
,
0000
0000
0000
0000
,
0000
0000
0000
0000
,
1000
0010
0100
0001
,
1000
1000
0010
0110
,
0001
0001
1000
0001
,
0100
0010
1000
1000
,
0000
0001
0100
0010
,
1000
0001
0001
0000
,
1000
0010
0100
0100
,
0000
0001
1000
0010
,
0010
1000
0001
1000
,
0010
0100
0010
1000
,
1000
0001
0100
0001
,
1000
1000
0010
0010
,
0100
0001
1001
1000
,
0010
0100
0110
0001
,
0101
1000
1010
0001
,
0100
0010
1000
1000
,
0001
0100
0010
1000
,
0001
0001
0001
0100
,
0100
0010
0010
1000
,
0001
1000
0010
0100
,
0002
0000
0000
0000
0000
0003
0000
0000
,
2000
0000
3000
0000
,
0020
0000
0000
0030
0000
0000
0000
0000
,
0220
0000
0330
0000
,
0002
0000
0003
0000
,
2000
0000
3000
0000
,
0220
0000
0000
0000
0000
0330
0000
0000
,
2002
0000
0000
0000
0000
3003
0000
0000
,
0010
0010
0010
0010
,
0100
0100
0100
0100
,
0001
0001
0001
0001
,
1000
1000
1000
1000
,
0010
0000
0100
0100
,
0101
0000
0010
0010
,
1010
0000
0100
0001
,
1001
0000
0000
1001
,
1000
0000
0010
0100
,
0001
0000
1000
0010
,
1010
0000
0100
0100
,
0001
0000
1000
0010
,
0100
0000
0001
0100
,
0010
0000
1000
0010
,
0101
0000
1000
1000
,
0001
0000
0000
0000
,
1000
0010
0010
0010
,
0100
0001
0001
0001
,
0010
0100
0100
0100
,
1000
0000
1000
1000
,
0010
0100
0001
0001
,
0001
0010
0100
0100
,
0010
1000
0100
1000
,
0001
0000
0100
0010
,
1000
1000
0001
0000
,
0000
0100
0010
0000
,
1001
0000
0000
0000
;

//---------------dance-single - Copied from----------------
#NOTES:
     dance-single:
     Copied from:
     Beginner:
     1:
     0.068,0.075,0.000,0.036,0.000:
0000
0000
0000
0000
,
0000
0000
0000
0000
,
0000
0000
0000
0000
,
0000
0000
0000
0000
,
0100
0000
0000
0000
,
0100
0000
0000
0000
,
0100
0000
0000
0000
,
0100
0000
0000
0000
,
0010
0000
0000
0000
,
0010
0000
0000
0000
,
0010
0000
0000
0000
,
0010
0000
0000
0000
,
1000
0000
0000
0000
,
1000
0000
0000
0000
,
1000
0000
0000
0000
,
1000
0000
0000
0000
,
0001
0000
0000
0000
,
0001
0000
0000
0000
,
0001
0000
0000
0000
,
0001
0000
0000
0000
,
1000
0000
0000
0000
,
0010
0000
0000
0000
,
1000
0000
0000
0000
,
0010
0000
0000
0000
,
0200
0000
0000
0000
,
0000
0000
0000
0300
0000
0000
0000
0000
,
0002
0000
0000
0000
,
0000
0000
0003
0000
,
2000
0000
0000
0000
,
0000
0000
3000
0000
,
0020
0000
0000
0000
,
0000
0000
0030
0000
,
0100
0000
0000
0000
,
0100
0000
0000
0000
,
0001
0000
0000
0000
,
0001
0000
0000
0000
,
1000
0000
0000
0000
,
1000
0000
0000
0000
,
1000
0000
0000
0000
,
1000
0000
0000
0000
,
0010
0000
0000
0000
,
0010
0000
0000
0000
,
0010
0000
0000
0000
,
0010
0000
0000
0000
,
0100
0000
0000
0000
,
0100
0000
0000
0000
,
0100
0000
0000
0000
,
0100
0000
0000
0000
,
0001
0000
0000
0000
,
0001
0000
0000
0000
,
0001
0000
0000
0000
,
0001
0000
0000
0000
,
1000
0000
0000
0000
,
1000
0000
0000
0000
,
1000
0000
0000
0000
,
1000
0000
0000
0000
,
0010
0000
0000
0000
;
