#VERSION:0.83;
#TITLE:Cheese Fest 3000;
#SUBTITLE:;
#ARTIST:Chryzis;
#TITLETRANSLIT:;
#SUBTITLETRANSLIT:;
#ARTISTTRANSLIT:;
#GENRE:;
#ORIGIN:;
#CREDIT:;
#BANNER:cheesefest3000_bn.png;
#BACKGROUND:cheesefest3000_bg.png;
#PREVIEWVID:;
#JACKET:cheesefest3000_jacket.png;
#CDIMAGE:;
#DISCIMAGE:;
#LYRICSPATH:;
#CDTITLE:cdtitle.png;
#MUSIC:cheesefest3000.ogg;
#OFFSET:0.000000;
#SAMPLESTART:38.400002;
#SAMPLELENGTH:9.599998;
#SELECTABLE:YES;
#BPMS:0.000=200.000,
96.000=100.000,
112.000=200.000,
168.000=100.000,
220.000=200.000,
288.000=100.000,
294.000=200.000,
369.000=100.000;
#STOPS:220.000=3.000,
294.000=0.600,
328.000=8.100;
#DELAYS:;
#WARPS:221.000=14.000;
#TIMESIGNATURES:0.000=4=4;
#TICKCOUNTS:0.000=4;
#COMBOS:0.000=1;
#SPEEDS:0.000=1.000=0.000=0;
#SCROLLS:0.000=1.000;
#FAKES:;
#LABELS:0.000=Song Start;
#BGCHANGES:;
#KEYSOUNDS:;
#ATTACKS:
;

//---------------dance-single - ----------------
#NOTEDATA:;
#CHARTNAME:;
#STEPSTYPE:dance-single;
#DESCRIPTION:;
#CHARTSTYLE:;
#DIFFICULTY:Hard;
#METER:10;
#RADARVALUES:0.640971,1.315948,0.374457,0.474758,0.300903,671.000000,615.000000,56.000000,71.000000,6.000000,0.000000,5.000000,0.000000,20.000000,0.640971,1.315948,0.374457,0.474758,0.300903,671.000000,615.000000,56.000000,71.000000,6.000000,0.000000,5.000000,0.000000,20.000000;
#CREDIT:;
#NOTES:
0000
0000
0000
0000
,
0000
0000
0000
0000
,
0000
0000
0000
0000
,
0000
0000
0000
0000
,
0000
0000
0000
0000
,
0000
0000
0000
0000
,
0000
0000
0000
0000
,
0000
0000
0000
0000
,
1000
0010
1000
0010
0100
0001
0100
0001
,
1000
0010
1000
0010
0100
0001
0100
0100
,
0001
0010
0001
0010
0001
1000
0100
1000
,
0010
0100
0001
0010
0100
0000
0110
0000
,
0010
0001
0010
0001
1000
0100
1000
0100
,
0010
0001
0010
0001
1000
0100
1000
1000
,
0010
1000
0010
1000
0001
0100
0001
1000
,
0001
0000
1000
0100
0010
0000
0001
0000
0100
0000
0010
0000
1000
0001
0100
0010
,
0100
0001
0100
1000
0100
0010
1000
0100
,
0020
0000
0031
0020
0000
0031
0100
0001
,
1000
0100
0001
0100
0010
0001
1000
0010
,
0200
0000
0000
0000
0301
0000
0200
0000
0000
0000
0310
0000
1000
0000
0001
1000
,
0001
0010
1000
0010
0100
1000
0010
0100
,
0020
0000
1030
0020
0000
0130
0010
1000
,
0010
0001
0010
1000
0010
0100
0001
0100
,
0010
0100
0010
0100
0010
0100
0010
0100
,
0001
0000
0000
0000
1000
0001
0000
0100
0000
0000
0000
0000
0010
0100
0000
0001
,
0000
0010
0100
0001
0100
0000
0010
0000
0110
0000
0000
0000
0000
0000
0000
0000
,
1000
0100
1000
0100
1000
0100
1000
0100
0001
0100
0001
0100
0001
0100
0001
0100
,
1000
0000
0010
0000
1000
0000
0010
0000
0001
0000
0010
0000
0001
0000
0010
0000
1000
0010
1000
0000
0001
0100
0001
0000
0010
0001
0010
0001
1000
0000
0000
0000
,
2100
0000
0001
0000
3001
0100
0000
0200
,
0001
0000
0301
0000
0001
1000
0000
1100
,
0000
1000
0100
0010
1000
0000
1010
0000
,
0012
0000
1003
0000
0010
0010
0000
0200
,
0001
0000
0001
0000
0301
1000
0000
2000
,
0100
0000
0100
0000
3100
1000
0000
1010
,
0000
0010
0100
1000
0100
0000
1100
0000
,
0102
0000
0100
0000
2000
0000
0000
3003
,
1000
0100
0001
0100
0000
0001
1000
0010
,
0000
0001
0100
1000
0000
1000
0001
0010
,
0000
0010
1000
0100
0000
0020
0031
0000
,
0011
0110
1100
1100
,
1000
0100
0010
0001
0010
0100
1000
0100
,
0010
0001
0100
0010
1000
0010
0100
0001
,
1000
0000
0000
0000
2000
3002
2003
3001
,
2001
0000
3010
0000
0100
0000
0010
0200
0000
0000
0301
0000
0000
0000
0010
0100
,
1000
0100
0010
0002
0000
0000
2000
0000
0000
0000
0000
0000
3003
0000
0000
1000
,
1001
0000
0001
0100
0010
1000
0000
0200
0000
0000
0000
0000
0000
1300
0000
0000
,
1000
0010
0100
0000
1000
0100
0000
0001
0100
0000
0040
0000
0230
0000
0000
0300
,
0102
0000
1003
0000
0100
0000
1000
0002
0100
0000
0103
0000
0010
0000
0010
1000
,
0100
0010
0001
2000
0000
0000
3002
0000
1000
0000
1000
0000
1000
0000
1003
1000
,
1001
0000
1000
0100
0010
0200
0000
0320
0000
0000
0100
0000
0100
0230
0000
0300
,
0100
1000
0010
0000
0001
0010
0000
1000
0040
0000
0000
0000
0430
0000
0000
0300
,
0110
0101
1001
1100
0110
0011
1001
1010
,
1100
0101
0011
1010
0011
0101
1100
1001
,
0001
0100
0010
1000
0001
0010
0100
1000
0001
0010
0001
1000
0010
0100
0010
1000
,
0001
1000
0001
1000
0001
1000
0001
1000
0001
1000
0001
1000
0001
1000
0001
1000
0004
4000
0000
0000
0000
0000
0000
0000
0000
0000
0000
0000
0000
0000
0000
0000
,
3003
0000
0000
0000
1000
0000
0001
1000
,
0001
0000
1001
0000
0001
0100
0010
0100
,
0001
0100
0010
0100
0001
1000
0100
0010
,
0100
1000
0000
0000
0000
0000
0MMM
0MMM
,
1000
0000
0001
1000
0001
0000
1001
0000
,
0001
0100
0010
0100
0001
0100
0010
0100
,
0001
1000
0100
0010
0100
1000
0100
0010
,
0100
1000
0010
0100
0001
1000
0100
0010
,
0002
0000
1003
0000
1001
1001
0200
0000
,
1300
0010
0100
0010
0001
0010
0100
0001
,
0010
0100
0001
0100
0010
0100
1000
0001
,
0100
0000
1000
0000
0100
0000
0010
0000
0100
0000
0001
0000
0100
0010
0100
0001
,
1000
0000
0000
1000
0001
0000
0000
0001
1000
0000
0002
0000
0013
0100
1000
0000
,
2200
3300
0220
0330
0022
0033
2002
3003
,
2020
3030
0220
0330
0202
0303
2002
3003
,
2200
3300
0220
0330
2020
3030
0022
0033
,
0202
0303
0220
0330
2200
3300
0220
0330
,
0010
0000
1000
0100
1000
0000
0100
0000
0010
0001
0000
0011
0000
0000
0001
0000
,
0100
0010
1000
0010
0100
0001
0010
0100
0010
0000
0000
0000
0110
0000
0000
0000
,
1000
0010
0100
0010
0001
0010
0100
0010
,
1000
0100
0010
0100
0001
0100
0010
0100
,
1000
0010
0100
0010
0001
0010
0100
0010
,
2000
0000
3200
0000
2300
3000
2001
0000
,
3001
0100
0010
0100
1000
0100
0010
0100
,
0001
0010
0100
0010
1000
0010
0100
0010
,
0001
0100
0010
0100
0001
1000
0100
0010
,
0100
1000
0010
0100
0001
1000
0001
0010
,
0200
0300
0000
0000
1000
0000
0000
0000
1000
0000
0000
0000
0001
0000
0000
0000
,
0001
0000
1000
1000
0001
0001
1000
1000
,
1001
0000
0001
0100
0001
0100
0010
1000
,
0010
1000
0001
0100
0001
0100
0010
1000
,
0010
0010
1000
0100
1000
0100
0010
0001
,
0010
0000
0001
0000
1000
0000
0100
0000
0010
0000
0100
1000
0001
0000
1000
0000
,
0001
0000
0100
0010
1000
0000
0100
0000
1000
0000
0100
0000
0010
0000
0001
0000
,
0010
0001
1000
0100
1000
0100
0010
0001
,
0010
0010
0001
0100
0001
0100
0010
1000
,
0010
1000
0001
0100
0001
0100
0010
0100
,
0010
0100
0010
1000
0002
0000
0000
0000
0000
0000
0000
0000
0000
0000
0000
0000
,
0000
0000
0000
0000
,
0000
0000
0000
0000
,
0000
0000
0000
0000
,
0003
0000
0000
0000
;

//---------------dance-single - ----------------
#NOTEDATA:;
#CHARTNAME:;
#STEPSTYPE:dance-single;
#DESCRIPTION:;
#CHARTSTYLE:;
#DIFFICULTY:Easy;
#METER:4;
#RADARVALUES:0.304724,0.524323,0.167168,0.254096,0.010030,319.000000,294.000000,25.000000,38.000000,0.000000,0.000000,0.000000,0.000000,3.000000,0.304724,0.524323,0.167168,0.254096,0.010030,319.000000,294.000000,25.000000,38.000000,0.000000,0.000000,0.000000,0.000000,3.000000;
#CREDIT:;
#NOTES:
0000
0000
0000
0000
,
0000
0000
0000
0000
,
0000
0000
0000
0000
,
0000
0000
0000
0000
,
0000
0000
0000
0000
,
0000
0000
0000
0000
,
0000
0000
0000
0000
,
0000
0000
0000
0000
,
1000
0010
1000
0010
,
0100
0001
0100
0001
,
0010
0001
0010
0001
,
1000
1000
0001
0001
,
0100
0001
0100
0001
,
1000
0010
1000
0010
,
1000
0100
1000
0100
,
0010
0010
0110
0000
,
1000
1000
1000
0010
,
0100
0000
0000
0110
0000
0000
1000
0000
,
0001
0001
0001
0010
,
0100
0000
0000
0110
0000
0000
0001
0000
,
0100
0100
0100
0010
,
1000
0000
0000
1001
0000
0000
0100
0000
,
0010
0010
0010
0001
,
1000
1000
1000
1000
,
1000
0000
0000
0000
0000
0001
0000
1000
0000
0000
0000
0000
0010
0000
0000
0100
,
0000
0000
0010
0100
0010
0000
0000
0000
,
1100
0000
0110
0000
,
0001
0010
0001
1000
0010
0100
0001
1000
,
0002
0000
0000
0000
0100
0000
0000
0203
,
0000
0000
0310
0010
,
1000
0100
0010
0100
,
2000
0000
3001
0001
,
0200
0000
0000
0000
0010
0000
0000
0320
,
0000
0000
0130
0100
,
1000
0010
0100
0001
,
0200
0000
0301
0000
,
0001
0000
0000
1100
0000
0000
0000
0110
,
0000
0000
0000
0011
0000
0000
0000
1001
,
0000
0000
0000
1010
0000
0000
0100
0000
,
0001
0010
0100
1000
,
0020
0000
0032
0000
,
0203
0000
2300
0000
,
3010
0000
0000
0000
1000
0001
1000
0000
,
1001
0000
0010
0000
,
0110
0000
0010
0000
,
0011
0000
0001
0000
,
1100
0000
2000
3001
,
1001
0000
0010
0000
,
0101
0000
1000
0000
,
1100
0000
0010
0000
,
0011
0000
0002
0000
,
1003
0100
1000
0100
0010
0001
0010
0001
,
0100
0001
0100
0001
1000
0010
1000
0010
,
0100
0100
0010
0010
1000
1000
0001
0001
,
2000
0000
0002
0000
,
3003
0000
1000
1000
,
1000
0000
0000
0000
,
0000
0000
0000
0000
,
0000
0000
0000
0000
,
0001
0001
0001
0000
,
0001
0100
1000
0100
,
0010
0100
0001
0010
,
0100
0010
1000
0010
,
0200
0000
1300
0000
1000
0100
1000
0000
,
0010
0001
0010
0100
,
0001
0010
0100
1000
,
0010
0100
0010
0010
,
0200
0010
0310
0110
,
0002
0203
0320
2030
,
3200
0320
0032
2003
,
3020
0032
0203
2300
,
3200
0302
0023
2030
,
3001
0000
0100
0000
0010
0100
0010
0000
,
1000
0000
0001
1000
0001
0000
1001
0000
,
1000
1000
0100
0100
,
0010
0010
0001
0001
,
0100
0100
0010
0010
,
2000
3002
2003
3002
,
0103
0110
0010
1010
,
1000
1001
0001
0011
,
0010
0100
1000
0010
,
0001
0010
1000
0100
,
0020
0030
0000
0000
0000
0000
0000
0000
0000
0000
0000
0000
0000
0000
0000
0000
,
0000
0001
0001
1000
,
0001
1000
0010
1000
,
0010
0100
0001
0100
,
0001
0010
0001
0010
,
0001
1000
1000
0001
,
0001
0100
0001
0100
,
0001
1000
0010
1000
,
0010
1000
0100
1000
,
0100
0010
0010
0200
,
0000
0310
0000
0000
;

//---------------dance-single - ----------------
#NOTEDATA:;
#CHARTNAME:;
#STEPSTYPE:dance-single;
#DESCRIPTION:;
#CHARTSTYLE:;
#DIFFICULTY:Medium;
#METER:8;
#RADARVALUES:0.476668,0.832330,0.307589,0.147108,0.147108,499.000000,453.000000,46.000000,22.000000,0.000000,0.000000,2.000000,0.000000,18.000000,0.476668,0.832330,0.307589,0.147108,0.147108,499.000000,453.000000,46.000000,22.000000,0.000000,0.000000,2.000000,0.000000,18.000000;
#CREDIT:;
#NOTES:
// measure 0
0000
0000
0000
0000
,  // measure 1
0000
0000
0000
0000
,  // measure 2
0000
0000
0000
0000
,  // measure 3
0000
0000
0000
0000
,  // measure 4
0000
0000
0000
0000
,  // measure 5
0000
0000
0000
0000
,  // measure 6
0000
0000
0000
0000
,  // measure 7
0000
0000
0000
0000
,  // measure 8
1000
0000
0010
1000
0100
0000
1000
0000
,  // measure 9
0001
0000
0100
0000
0010
1000
0001
0010
,  // measure 10
0001
0000
0001
0000
0010
0001
0100
0000
,  // measure 11
0010
0100
0010
0100
0001
0000
1000
0000
,  // measure 12
0100
0000
0010
0100
1000
0000
0001
0000
,  // measure 13
0100
0000
0010
0000
1000
0000
0100
0010
,  // measure 14
0001
0000
0100
0000
0010
1000
0001
0000
,  // measure 15
0010
0100
0010
0100
0110
0000
1001
0000
,  // measure 16
1000
0000
0010
0000
0100
0000
0010
0100
,  // measure 17
0001
0000
0000
0101
0000
0000
0001
1000
,  // measure 18
0100
0000
0010
0000
0001
0000
0100
0010
,  // measure 19
1000
0000
0000
1010
0000
0000
0001
1000
,  // measure 20
0100
0000
1000
0000
0010
0000
0100
0001
,  // measure 21
0010
0000
0000
0011
0000
0000
0001
1000
,  // measure 22
0100
1000
0001
0100
,  // measure 23
0001
0100
0001
0100
0001
0100
0001
0100
,  // measure 24
0001
0000
0000
0000
0001
1000
0000
0001
0000
0000
0000
0000
0010
0100
0000
0010
,  // measure 25
0000
0001
1000
0001
1000
0000
0010
0000
0100
0000
0000
0000
0000
0000
0000
0000
,  // measure 26
0101
0100
0100
0100
0110
0010
0010
0010
,  // measure 27
1010
0000
0110
0000
0101
0000
1001
0000
0010
0100
0010
0001
1000
0010
0100
0000
,  // measure 28
0020
0000
0000
0000
0130
0001
0000
0020
,  // measure 29
0000
0000
0000
0030
0010
0001
0000
0001
,  // measure 30
0000
0001
0100
0010
0100
0000
0010
0000
,  // measure 31
2000
0000
0000
0000
3001
1000
0000
0020
,  // measure 32
0000
0000
0000
0000
0130
0001
0000
0020
,  // measure 33
0000
0000
0000
0000
0130
1000
0000
1000
,  // measure 34
0000
1000
0010
0100
0010
0000
0100
0000
,  // measure 35
0002
0000
2003
0000
,  // measure 36
3001
0100
0001
0100
0000
0010
1000
0010
,  // measure 37
0000
1000
0100
1000
0000
0001
0010
0001
,  // measure 38
0000
0100
0010
0100
0000
0000
0001
0000
,  // measure 39
1001
0110
1001
0110
,  // measure 40
0001
0100
1000
0010
,  // measure 41
0001
0010
1000
0100
,  // measure 42
0010
0000
0000
0000
0001
0100
0010
0100
,  // measure 43
0110
0000
0000
0000
0010
0000
1000
0000
0010
0000
0000
0000
0100
0000
0000
0010
,  // measure 44
0100
0000
0000
0000
0001
0000
0000
0000
1000
0000
0000
0000
0010
0000
0000
1000
,  // measure 45
0010
0000
0000
0000
0100
0000
0001
0000
1000
0000
0000
0000
0000
0000
0000
1000
,  // measure 46
0200
2300
3002
0203
,  // measure 47
0310
0000
0100
0000
0010
0000
0100
0000
0010
0000
0100
0000
0010
0000
0100
0001
,  // measure 48
0100
0000
0001
0000
0100
0000
0001
0000
0100
0000
0001
0000
0100
0000
0001
1000
,  // measure 49
0100
0000
1000
0000
0100
0000
1000
0000
0100
0000
1000
0100
1000
0000
0010
0100
,  // measure 50
0020
0230
0302
0023
,  // measure 51
0031
0001
0100
0100
0010
0010
1000
1000
,  // measure 52
0001
0001
0010
0010
0100
0100
1000
1000
,  // measure 53
0100
1000
0100
1000
0010
1000
0010
1000
0001
0100
0001
0100
0001
0010
0001
0010
,  // measure 54
0004
0000
4000
0000
,  // measure 55
3003
0000
M11M
1MM1
,  // measure 56
M11M
1MM1
0000
1001
,  // measure 57
0000
0000
0000
0000
,  // measure 58
0000
0000
0000
0000
,  // measure 59
0001
0000
1000
0001
1000
0000
1001
0000
,  // measure 60
0001
0100
0001
0000
1000
0100
1000
0000
,  // measure 61
0010
0100
0010
0000
1000
0100
1000
0000
,  // measure 62
0001
0100
0001
0000
1000
0010
1000
0000
,  // measure 63
0002
0000
0103
0000
0010
0100
0001
0000
,  // measure 64
0010
0001
0010
0000
0100
1000
0100
0000
,  // measure 65
0010
0001
0100
0000
0010
1000
0100
0000
,  // measure 66
0010
0100
1000
0000
0010
0100
0001
0000
,  // measure 67
1000
0000
0010
0100
0010
0000
0100
0001
,  // measure 68
1000
0000
0000
1000
0100
0000
0000
0100
0010
0000
0000
0010
0001
0000
0000
0001
,  // measure 69
0100
0000
0000
0100
0010
0000
0000
0010
1000
0000
0000
1000
0100
0000
0000
0100
,  // measure 70
0010
0000
0000
0001
0100
0000
0000
0100
1000
0000
0000
1000
0100
0000
0000
0100
,  // measure 71
0001
0000
0000
0001
0010
0000
0000
0010
1000
0000
0000
1000
0010
0000
0000
0010
,  // measure 72
0001
0000
0100
0000
0001
0000
0010
0000
0100
0010
0000
0100
0000
0000
1000
0000
,  // measure 73
0001
1000
0010
0100
0010
0000
0100
0000
,  // measure 74
0101
0110
0101
0110
,  // measure 75
0101
0011
0101
0011
,  // measure 76
1100
0110
1100
0110
,  // measure 77
2000
0001
3002
0103
,  // measure 78
0110
1010
0110
1010
,  // measure 79
1001
0011
1001
0011
,  // measure 80
1001
1100
0110
0011
,  // measure 81
1001
1010
0110
0101
,  // measure 82
0022
0033
0000
0000
0001
0000
0000
0000
0001
0000
0000
0000
1000
0000
0000
0000
,  // measure 83
1000
0000
0001
1000
0001
1000
0010
0100
,  // measure 84
0010
0000
1000
0000
0010
1000
0100
0000
,  // measure 85
1000
0000
0001
0000
0100
0000
0010
1000
,  // measure 86
0001
0010
0001
0000
0001
0000
0010
0001
,  // measure 87
0100
0000
0010
0100
0010
0100
0002
0000
,  // measure 88
1003
0000
0100
0000
0010
0100
1000
0000
,  // measure 89
0001
0100
0010
1000
,  // measure 90
0100
0010
0001
0000
0100
0000
0010
1000
,  // measure 91
0001
0000
0010
0100
0010
0100
0010
0001
,  // measure 92
1000
0001
1000
0001
2000
0000
0000
0000
0000
0000
0000
0000
0000
0000
0000
0000
,  // measure 93
0000
0000
0000
0000
,  // measure 94
0000
0000
0000
0000
,  // measure 95
0000
0000
0000
3000
;
