#TITLE:Beyond The Seven;
#SUBTITLE:;
#ARTIST:Nhato;
#TITLETRANSLIT:;
#SUBTITLETRANSLIT:;
#ARTISTTRANSLIT:;
#GENRE:;
#CREDIT:;
#BANNER:Beyond The Seven.png;
#BACKGROUND:Beyond The Seven-bg.png;
#LYRICSPATH:;
#CDTITLE:;
#MUSIC:Beyond The Seven.mp3;
#OFFSET:0.360000;
#SAMPLESTART:95.958038;
#SAMPLELENGTH:13.521126;
#SELECTABLE:YES;
#BPMS:0.000000=142.000000
;
#STOPS:
;
#BGCHANGES:;
#KEYSOUNDS:;
#ATTACKS:;

//---------------dance-single - ----------------
#NOTES:
     dance-single:
     :
     Hard:
     7:
     0.341474,0.468445,0.143899,0.223842,0.207854,299.000000,281.000000,18.000000,28.000000,0.000000,0.000000,0.341474,0.468445,0.143899,0.223842,0.207854,299.000000,281.000000,18.000000,28.000000,0.000000,0.000000:
// measure 0
0000
0000
0000
0000
,  // measure 1
0000
0000
0000
0000
,  // measure 2
0000
0000
0000
0000
,  // measure 3
0000
0000
0000
0000
,  // measure 4
0000
0000
0000
0000
,  // measure 5
1000
0000
0010
0000
,  // measure 6
1000
0000
0100
0000
,  // measure 7
1000
0000
0001
0000
,  // measure 8
0010
0000
0011
1010
,  // measure 9
0000
0010
0000
0010
,  // measure 10
0000
1000
0000
1000
,  // measure 11
0000
0001
0000
0001
,  // measure 12
0000
0100
0000
0100
,  // measure 13
0010
1000
0000
1000
,  // measure 14
0001
0010
0000
0010
,  // measure 15
0200
0000
0000
0000
,  // measure 16
1300
0000
0000
0001
0000
0100
0000
0000
0010
0000
0000
1000
0000
0001
0000
0000
,  // measure 17
0100
0001
0100
0000
0010
1000
0010
0000
,  // measure 18
1000
0000
0001
0000
1000
0000
0000
0000
0001
0000
0000
0100
0000
0010
0000
0000
,  // measure 19
1000
0010
1000
0000
0001
0100
0001
0000
,  // measure 20
0010
0001
0010
0000
0200
0000
2300
0000
,  // measure 21
3010
1000
0001
0000
0010
0100
1000
0000
,  // measure 22
0100
0000
1000
0000
0010
0000
0000
0000
0100
0000
0000
0010
0000
1000
0000
0000
,  // measure 23
0100
0010
0001
0000
0010
0001
0100
0000
,  // measure 24
0010
0000
0000
1000
0000
0001
0000
0000
0020
0000
0000
0130
0000
0000
1000
0000
,  // measure 25
0010
0100
0001
0010
,  // measure 26
0100
0000
0012
1003
,  // measure 27
0000
0100
1000
0010
,  // measure 28
0001
0010
0101
0011
,  // measure 29
0000
0001
1000
0010
,  // measure 30
1000
0000
0021
0130
,  // measure 31
0000
0010
0100
1000
,  // measure 32
0010
0000
0000
0000
0001
0000
0000
0000
0010
0000
0000
0100
0000
0000
0001
0000
,  // measure 33
1001
0000
0000
0000
,  // measure 34
0000
0000
0001
0000
0010
0000
0000
0001
,  // measure 35
1000
0000
0000
0000
0000
0000
0200
0300
,  // measure 36
1000
0000
0000
0000
0000
0000
0000
0000
0001
0000
0000
0010
0000
0000
0001
0000
,  // measure 37
1000
0000
0000
0000
,  // measure 38
0000
0000
0100
0000
0010
0000
0000
0001
,  // measure 39
1000
0000
0000
0000
0000
0000
0000
0000
0020
0000
0030
1000
0000
0000
0001
1000
,  // measure 40
0001
0000
0000
0000
0000
0000
1000
0001
0100
0000
0000
0000
0000
0000
0000
0000
,  // measure 41
0110
1000
0001
1000
,  // measure 42
0010
0100
0010
0100
,  // measure 43
0001
1000
0001
1000
,  // measure 44
0010
0100
0010
0100
,  // measure 45
0002
0013
0200
1300
,  // measure 46
0002
1003
0020
0130
,  // measure 47
0001
0010
0100
1000
0100
0010
0001
1000
,  // measure 48
1001
0110
1001
0110
,  // measure 49
0001
0000
0000
1000
0000
0000
0001
0000
0010
0000
0000
0100
0000
0000
0010
0000
,  // measure 50
0001
0000
0000
0100
0000
0000
0001
0000
1000
0000
0000
0100
0000
0000
1000
0000
,  // measure 51
0001
0000
0000
0010
0000
0000
0001
0000
0010
0000
0000
0100
0000
0000
0010
0000
,  // measure 52
0001
0000
0000
1000
0000
0000
0010
0000
0001
0000
0000
0010
0000
0000
1000
0000
,  // measure 53
0100
0000
0000
1000
0000
0000
0010
0000
0100
0000
0000
0001
0000
0000
0010
0000
,  // measure 54
0100
0000
0000
0010
0000
0000
0001
0000
0100
0000
0000
0010
0000
0000
1000
0000
,  // measure 55
0100
0000
0000
1000
0000
0000
0010
0000
0100
0000
0000
0001
0000
0000
0010
0000
,  // measure 56
0110
1001
0102
0023
,  // measure 57
0230
0000
0000
0310
0000
0000
0001
0000
2000
0000
0000
3010
0000
0000
0100
0000
,  // measure 58
0020
0000
0000
1030
0000
0000
0100
0000
2000
0000
0000
3100
0000
0000
0010
0000
,  // measure 59
0002
0000
0000
1003
0000
0000
0010
0000
0200
0000
0000
0301
0000
0000
0010
0000
,  // measure 60
0200
0000
0000
1300
0000
0000
0100
0000
1000
0000
0000
0010
0000
0000
0001
0000
,  // measure 61
0020
0000
0000
0130
0000
0000
0001
0000
2000
0000
0000
3100
0000
0000
1000
0000
,  // measure 62
0020
0000
0000
0130
0000
0000
0001
0000
0020
0000
0000
0130
0000
0000
0100
0000
,  // measure 63
2000
0000
0000
3100
0000
0000
0010
0000
0002
0000
0000
0013
0000
0000
0100
0000
,  // measure 64
1001
0110
1010
0002
,  // measure 65
0103
0000
0000
0001
0000
0000
0010
0000
0000
0000
0000
0100
0000
0000
1000
0000
,  // measure 66
0000
0000
0000
1000
0000
0000
0010
0000
0000
0000
0000
0100
0000
0000
0001
0000
,  // measure 67
1000
1000
0001
0001
,  // measure 68
0100
0000
0010
0000
0100
0000
0010
0000
1000
0001
1000
0001
1000
0001
1000
0001
;

//---------------dance-single - ----------------
#NOTES:
     dance-single:
     :
     Medium:
     5:
     0.276377,0.358548,0.159887,0.079944,0.007994,242.000000,222.000000,20.000000,10.000000,0.000000,0.000000,0.276377,0.358548,0.159887,0.079944,0.007994,242.000000,222.000000,20.000000,10.000000,0.000000,0.000000:
0000
0000
0000
0000
,
0000
0000
0000
0000
,
0000
0000
0000
0000
,
0000
0000
0000
0000
,
0000
0000
0000
0000
,
1000
0010
1000
0010
,
0100
0001
0100
0001
,
0010
0001
1000
0100
,
1000
0001
0110
1001
,
0000
0001
0000
1000
,
0000
0001
0000
1000
,
0000
0010
0000
0100
,
0000
0010
0000
0100
,
0010
1000
0000
0010
,
0000
0100
0000
0001
,
0010
0001
1000
0100
,
0020
0000
0032
0000
,
1003
0001
0100
0001
,
0010
0001
1000
1001
,
1000
0010
1000
0100
,
0010
0001
0200
0302
,
0013
0100
1000
0100
,
1000
0010
0100
1001
,
0100
0010
1000
0001
,
2000
0000
3002
0000
,
0103
0001
0010
1000
,
0010
0000
0200
0320
,
0030
0010
0001
0100
,
1000
0100
0110
1001
,
0000
1000
0001
0010
,
0100
0000
0020
0032
,
0003
1000
0001
0100
,
0001
0010
0100
1000
,
1001
0000
0000
0000
,
0000
0000
1000
0000
0010
0000
0000
0100
,
0001
0000
0000
0010
,
0001
0000
0000
0000
0000
0000
0000
0000
1000
0000
0000
0010
0000
0000
0100
0000
,
0001
0000
0000
0000
,
0000
0000
1000
0000
0001
0000
0000
1000
,
0010
0000
0000
0000
0000
0000
0000
0000
0100
0000
0000
0010
0000
0000
1000
0000
,
0010
0000
0000
0100
0001
0000
0000
0000
,
1001
0000
1000
0000
,
0001
0000
0100
0000
,
0010
0000
1000
0000
,
0010
0000
0100
0000
,
0001
0010
0100
1000
,
0100
0010
0001
1000
,
0010
0100
0001
1000
,
1001
0110
1001
0110
,
1000
0010
1000
0001
,
0010
0001
1000
0100
,
1000
0010
0100
0001
,
0010
0000
0100
0000
0010
0000
0001
0100
,
0010
0100
0010
1000
,
0001
0100
0010
1000
,
0010
0100
0001
1000
,
0101
1010
0101
1010
,
0001
0010
0001
1000
,
0100
1000
0010
0100
,
0001
0010
0100
0010
,
0001
0000
1000
0000
0010
0000
0100
0001
,
0010
0100
0010
0001
,
1000
0100
1000
0010
,
0100
0001
0010
0100
,
1100
0011
1100
0011
,
1000
0001
0100
0001
,
1000
0100
1000
0001
,
0010
0010
0001
0001
,
1000
0000
1000
0000
0001
0100
0010
1000
,
0001
0000
0000
0000
;

//---------------dance-single - ----------------
#NOTES:
     dance-single:
     :
     Easy:
     3:
     0.178160,0.274807,0.039972,0.007994,0.000000,156.000000,151.000000,5.000000,1.000000,0.000000,0.000000,0.178160,0.274807,0.039972,0.007994,0.000000,156.000000,151.000000,5.000000,1.000000,0.000000,0.000000:
0000
0000
0000
0000
,
0000
0000
0000
0000
,
0000
0000
0000
0000
,
0000
0000
0000
0000
,
0000
0000
0000
0000
,
1000
0000
0001
0000
,
0100
0000
0010
0000
,
1000
0000
0010
0000
,
0100
0000
0001
1000
,
0000
0010
0000
0010
,
0000
0010
0000
0010
,
0000
0100
0000
0100
,
0000
0100
0000
0100
,
0010
1000
0000
1000
,
0000
1000
0000
1000
,
0020
0000
0000
0000
,
1030
0000
0001
0000
,
0100
0010
0000
1000
,
0000
0001
0000
0010
,
0000
0001
0000
1000
,
0000
0001
1000
0001
,
0100
0001
0000
0010
,
0000
0001
0000
1000
,
0100
1000
0000
0010
,
0100
0000
0010
0000
,
0000
1000
0010
0100
,
0001
0000
1000
0000
,
0000
0001
0010
0001
,
1000
0100
1000
0010
,
0000
0100
0010
1000
,
0001
0000
0100
0000
,
0000
0010
0100
0001
,
1000
0100
1000
0001
,
0100
0000
0000
0000
,
0000
0010
0100
0000
,
0001
0000
0000
1000
,
0001
0000
0100
0001
,
0010
0000
0000
0000
,
0000
0100
1000
0000
,
0001
0000
1000
0001
,
0100
0000
0001
0000
,
1000
0000
0000
0000
,
0001
0000
0000
0000
,
0100
0000
0000
0000
,
0010
0000
0000
0000
,
1000
0000
0010
0000
,
0100
0000
0001
0000
,
1000
0100
0010
0001
,
0100
0100
0100
1001
,
0001
0000
1000
0000
,
0010
0000
1000
0000
,
0100
0000
1000
0000
,
0001
0000
0100
0001
,
0010
0000
0100
0000
,
0010
0000
0001
0000
,
1000
0000
0001
0000
,
1000
0001
0110
0110
,
0010
0000
1000
0000
,
0001
0000
0010
0000
,
0001
0000
1000
0000
,
0100
0000
1000
0001
,
0100
0000
0001
0000
,
0010
0000
0100
0000
,
1000
0000
0001
0000
,
0100
0100
1001
1001
,
0000
0010
0000
0100
,
0000
0010
0000
0100
,
0001
1000
0001
1000
,
0001
0010
0100
0100
;

//---------------dance-double - ----------------
#NOTES:
     dance-double:
     :
     Hard:
     7:
     0.342616,0.468870,0.207854,0.255820,0.163885,300.000000,274.000000,26.000000,32.000000,0.000000,0.000000,0.342616,0.468870,0.207854,0.255820,0.163885,300.000000,274.000000,26.000000,32.000000,0.000000,0.000000:
00000000
00000000
00000000
00000000
,
00000000
00000000
00000000
00000000
,
00000000
00000000
00000000
00000000
,
00000000
00000000
00000000
00000000
,
00000000
00000000
00000000
00000000
,
10000000
00000000
01000000
00000000
,
10000000
00000000
00100000
00000000
,
01000000
00000000
00010000
00000000
,
00100000
00000000
00001000
00011000
,
00000000
00000100
00000000
00000100
,
00000000
00000010
00000000
00000010
,
00000000
00000001
00000000
00000001
,
00000000
00000000
00001000
00000000
00000000
00000100
00000010
00000001
,
00001000
00000010
00000000
00010000
,
00000000
00010000
00000000
00001000
,
00200000
00000000
00000000
00000000
,
00310000
00000000
00000000
00100000
00000000
00010000
00000000
00000000
01000000
00000000
00000000
00100000
00000000
10000000
00000000
00000000
,
00010000
00100000
00010000
00000000
00100000
01000000
00100000
00000000
,
01000000
10000000
01000000
00000000
10010000
00000000
01010000
00000000
,
00010000
00100000
00010000
00000000
00100000
00001000
00100000
00000000
,
00001000
00010000
00001000
00000000
00010200
00000000
00002300
00000000
,
00003010
00000100
00000010
00000000
00000100
00000001
00000100
00000000
,
00000001
00000010
00000001
00000000
00000011
00000000
00001010
00000000
,
00001000
00000010
00001000
00000000
00000100
00010000
00000100
00000000
,
00020000
00000000
00000000
00000000
00000000
00000000
00000000
00000000
00031000
00000000
00000000
00100000
00000000
00000000
01000000
00000000
,
10000000
10000000
00010000
01000000
,
00001000
00000000
00021000
00030100
,
00000000
00000010
00000100
00001000
,
00000010
00001000
00010100
00011000
,
00000000
00000100
00001000
00000010
,
00000100
00000000
00000120
00002030
,
00003000
00000100
00010000
00001000
,
00100000
01000000
10000000
00100000
,
10010000
00000000
00000000
00000000
,
00000000
00000000
10000000
00000000
00100000
00000000
00000000
01000000
,
00010000
00000000
00000000
00000000
00000000
00000000
00200000
00300000
,
00010000
00000000
00000000
00000000
00000000
00000000
00000000
00000000
00100000
00000000
00000000
00001000
00000000
00000000
00010000
00000000
,
00000100
00000000
00000000
00000000
,
00000000
00000000
00001000
00000000
00000001
00000000
00000000
00000010
,
00000001
00000000
00000000
00000000
00000000
00000000
00000000
00000000
00000100
00000000
00000000
00000010
00000000
00000000
00001000
00000100
,
00010000
00000000
00000000
00000000
00000000
00000000
00010000
00001000
01000000
00000000
00000000
00000000
00000000
00000000
00000000
00000000
,
01100000
01000000
00010000
00100000
,
01100000
01000000
10000000
00100000
,
01100000
01000000
00010000
00100000
,
00101000
00001000
00010000
00000100
,
00002000
00003010
00000200
00000301
,
00000020
00000130
00002000
00003010
,
00000100
00000010
00000100
00000010
00001000
00000001
00001000
00000001
,
00001001
00001010
00010100
00011000
,
00001000
00000000
00000000
00100000
00000000
00000000
01000000
00000000
10000000
00000000
00000000
00100000
00000000
00000000
01000000
00000000
,
00010000
00000000
00000000
00100000
00000000
00000000
00001000
00000000
00010000
00000000
00000000
00000100
00000000
00000000
00001000
00000000
,
00000010
00000000
00000000
00000100
00000000
00000000
00000001
00000000
00000010
00000000
00000000
00000100
00000000
00000000
00000010
00000000
,
00000001
00000000
00000000
00000100
00000000
00000000
00001000
00000000
00000100
00000000
00000000
00000010
00000000
00000000
00001000
00000000
,
00000100
00000000
00000000
00010000
00000000
00000000
00001000
00000000
01000000
00000000
00000000
00100000
00000000
00000000
10000000
00000000
,
01000000
00000000
00000000
00100000
00000000
00000000
01000000
00000000
10000000
00000000
00000000
00010000
00000000
00000000
01000000
00000000
,
00010000
00000000
00000000
00100000
00000000
00000000
00001000
00000000
00010000
00000000
00000000
00000100
00000000
00000000
00000010
00000000
,
00000011
00001010
00021000
00032000
,
00203000
00000000
00000000
01300000
00000000
00000000
10000000
00000000
00020000
00000000
00000000
01030000
00000000
00000000
00010000
00000000
,
00200000
00000000
00000000
00301000
00000000
00000000
00010000
00000000
00000200
00000000
00000000
00001300
00000000
00000000
00000100
00000000
,
00000020
00000000
00000000
00000031
00000000
00000000
00000010
00000000
00000002
00000000
00000000
00000103
00000000
00000000
00000010
00000000
,
00002000
00000000
00000000
00003100
00000000
00000000
00010000
00000000
00002000
00000000
00000000
00203000
00000000
00000000
02300000
00000000
,
23000000
00000000
00000000
30100000
00000000
00000000
01000000
00000000
00020000
00000000
00000000
00130000
00000000
00000000
00001000
00000000
,
00020000
00000000
00000000
00030100
00000000
00000000
00001000
00000000
00000020
00000000
00000000
00000130
00000000
00000000
00000001
00000000
,
00000020
00000000
00000000
00000130
00000000
00000000
00000010
00000000
00000002
00000000
00000000
00001003
00000000
00000000
00000010
00000000
,
00001010
00010100
00012000
00023000
,
00030100
00000000
00000000
00010000
00000000
00000000
00001000
00000000
00000000
00000000
00000000
00010000
00000000
00000000
00000010
00000000
,
00000000
00000000
00000000
00010000
00000000
00000000
00000100
00000000
00000000
00000000
00000000
00010000
00000000
00000000
00000010
00000000
,
00000100
00000100
00000010
00000010
,
00001000
00000010
00000100
00000001
00001000
00000001
00001000
00000001
,
00001001
00000000
00000000
00000000
;

//---------------dance-double - ----------------
#NOTES:
     dance-double:
     :
     Medium:
     5:
     0.296934,0.385429,0.167882,0.199859,0.031977,260.000000,239.000000,21.000000,25.000000,0.000000,0.000000,0.296934,0.385429,0.167882,0.199859,0.031977,260.000000,239.000000,21.000000,25.000000,0.000000,0.000000:
00000000
00000000
00000000
00000000
,
00000000
00000000
00000000
00000000
,
00000000
00000000
00000000
00000000
,
00000000
00000000
00000000
00000000
,
00000000
00000000
00000000
00000000
,
10000000
01000000
10000000
00010000
,
01000000
00010000
00100000
01000000
,
00100000
00001000
00010000
00000100
,
00001000
00000010
00000110
00001001
,
00000000
00000001
00000000
00000001
,
00000000
00000100
00000000
00000100
,
00000000
00000010
00000000
00000010
,
00000000
00001000
00000000
00000100
,
00010000
00001000
00000000
00001000
,
00000000
00100000
00000000
00100000
,
02000000
00000000
00000000
00000000
,
03100000
00000000
00000000
00010000
00000000
10000000
00000000
00000000
01000000
00000000
00000000
00100000
00000000
00010000
00000000
00000000
,
10000000
00010000
01000000
00000000
00010000
00000000
00110000
00000000
,
00100000
00001000
00010000
00000000
00000100
00000000
00001100
00000000
,
00001000
00000010
00000100
00000000
00000001
00000000
00000101
00000000
,
00000001
00000010
00000100
00000000
00000020
00000000
00000032
00000000
,
00000103
00000010
00001000
00000000
00000100
00000000
00001100
00000000
,
00000100
00010000
00001000
00000000
00010000
00000000
00011000
00000000
,
00001000
00100000
00010000
00000000
00100000
00000000
00110000
00000000
,
20010000
00000000
30200000
00000000
,
01300000
00010000
00100000
00001000
,
00010000
00000000
00010200
00001300
,
00000000
00000010
00000100
00000001
,
00001000
00000100
00001100
00010100
,
00000000
00001000
00100000
00010000
,
01000000
00000000
00200000
20300000
,
30000000
01000000
00100000
00001000
,
00010000
00000000
00000000
00000000
00000100
00000000
00000000
00000000
00000010
00000000
00000000
00000001
00000000
00000000
00000100
00000000
,
00001001
00000000
00000000
00000000
,
00000000
00000000
00000100
00000000
00000010
00000000
00000000
00001000
,
00000100
00000000
00000000
00020000
,
00031000
00000000
00000000
00000000
00000000
00000000
00000000
00000000
00010000
00000000
00000000
00001000
00000000
00000000
00100000
00000000
,
00010000
00000000
00000000
00000000
,
00000000
00000000
10000000
00000000
01000000
00000000
00000000
10000000
,
00100000
00000000
00000000
00000000
00000000
00000000
00000000
00000000
01000000
00000000
00000000
00010000
00000000
00000000
00100000
00000000
,
00001000
00000000
00000000
00010000
00000100
00000000
00000000
00000000
,
00001100
00001000
00000010
00000100
,
00000001
00000010
00000001
00001000
,
00000100
00010000
00001000
00100000
,
00010000
01000000
00100000
10000000
,
00020000
00230000
02300000
23000000
,
32000000
03200000
00320000
00230000
,
00302000
00023000
00030200
00002300
,
00003010
00000010
00000010
00001001
,
00000001
00000100
00000001
00001000
,
00000100
00000010
00000100
00001000
,
00000100
00010000
00001000
00100000
,
00010000
00000000
00000000
00000000
01000000
00000000
00000000
00000000
00100000
00000000
00000000
01000000
00000000
00000000
00010000
00000000
,
10000000
00100000
01000000
00010000
,
00100000
10000000
00100000
00010000
,
00100000
00001000
00010000
00000100
,
00001100
00000011
00000102
00000103
,
00000010
00001000
00000100
00010000
,
00001000
00100000
00010000
01000000
,
00100000
10000000
00010000
00100000
,
00001000
00010000
00000200
00002300
,
00003010
00000001
00000010
00001000
,
00000100
00000001
00000100
00001000
,
00000100
00010000
00001000
00100000
,
01100000
11000000
10020000
10030000
,
01000000
00100000
00010000
01000000
,
00001000
00010000
00000100
00001000
,
00000010
00000010
00000100
00000100
,
00000001
00001000
00000001
00001000
00000010
00000100
00000010
00000100
;

//---------------dance-double - ----------------
#NOTES:
     dance-double:
     :
     Easy:
     3:
     0.171308,0.274807,0.023983,0.087938,0.000000,150.000000,147.000000,3.000000,11.000000,0.000000,0.000000,0.171308,0.274807,0.023983,0.087938,0.000000,150.000000,147.000000,3.000000,11.000000,0.000000,0.000000:
00000000
00000000
00000000
00000000
,
00000000
00000000
00000000
00000000
,
00000000
00000000
00000000
00000000
,
00000000
00000000
00000000
00000000
,
00000000
00000000
00000000
00000000
,
10000000
00000000
00000000
00000000
,
00010000
00000000
00000000
00000000
,
00100000
00000000
00000000
00000000
,
01000000
00000000
00200000
00320000
,
00030000
01000000
00000000
01000000
,
00000000
00010000
00000000
00010000
,
00000000
00100000
00000000
00100000
,
00000000
00001000
00000000
00001000
,
00010000
00000100
00000000
00000100
,
00000000
00000010
00000000
00000010
,
00000002
00000000
00000000
00000003
,
00000100
00000000
00000010
00000000
,
00001000
00000001
00000000
00000100
,
00000000
00000010
00000000
00001000
,
00000000
00000100
00000000
00010000
,
00000000
00001000
01000000
00010000
,
01000000
00100000
00000000
10000000
,
00000000
01000000
00000000
10000000
,
00000000
00010000
00000000
00100000
,
00002000
00000000
00023000
00000000
,
00030100
00001000
00000010
00000100
,
00000001
00000000
00002000
00003010
,
00000000
00000100
00000010
00001000
,
00000100
00010000
00001000
00100000
,
00000000
01000000
00100000
00010000
,
10000000
00000000
00200000
01300000
,
00000000
01000000
00100000
10000000
,
00010000
00100000
00001000
00010000
,
00000100
00000000
00000000
00000000
,
00000000
00001000
00000010
00000000
,
00000100
00000000
00000000
00000010
,
00000100
00000000
00000010
00001000
,
00000001
00000000
00000000
00000000
,
00000000
00001000
00000010
00000000
,
00000100
00000000
00000010
00001000
,
00000100
00000000
00010000
00000000
,
00001000
00000000
00000000
00000000
,
00100000
00000000
00000000
00000000
,
01000000
00000000
00000000
00000000
,
10000000
00000000
00000000
00000000
,
00100000
00000000
00100000
00000000
,
01000000
00000000
01000000
00000000
,
00010000
00100000
00001000
00010000
,
00000100
00000100
00000100
00001001
,
00000010
00000000
00000100
00000000
,
00000001
00000000
00001000
00000000
,
00000100
00000000
00010000
00000000
,
00001000
00000000
01000000
00100000
,
01000000
00000000
00010000
00000000
,
10000000
00000000
01000000
00000000
,
00100000
00000000
00001000
00000000
,
00010000
00001000
00022000
00033000
,
00100000
00000000
00010000
00000000
,
01000000
00000000
00010000
00000000
,
00100000
00000000
00001000
00000000
,
00010000
00000000
00000100
00000000
,
00001000
00000000
00000010
00000000
,
00000100
00000000
00000001
00000000
,
00000010
00000000
00000001
00000000
,
00001000
00000001
00000220
00000330
,
00000010
00000000
00001000
00000000
,
00000100
00000000
00010000
00000000
,
00001000
00010000
00001000
00010000
,
00001000
00100000
00001000
00100000
;

//---------------dance-single - ----------------
#NOTES:
     dance-single:
     :
     Beginner:
     1:
     0.100501,0.164884,0.023983,0.000000,0.000000,88.000000,85.000000,3.000000,0.000000,0.000000,0.000000,0.100501,0.164884,0.023983,0.000000,0.000000,88.000000,85.000000,3.000000,0.000000,0.000000,0.000000:
0000
0000
0000
0000
,
0000
0000
0000
0000
,
0000
0000
0000
0000
,
0000
0000
0000
0000
,
0000
0000
0000
0000
,
1000
0000
0000
0000
,
1000
0000
0000
0000
,
0001
0000
0000
0000
,
0001
0000
0000
0000
,
0000
0100
0000
0000
,
0000
0100
0000
0000
,
0000
0100
0000
0000
,
0000
0100
0000
0000
,
0000
0010
0000
0000
,
0000
0010
0000
0000
,
0000
0010
0000
0000
,
1001
0000
0000
0000
,
1000
0000
0000
0000
,
0001
0000
0000
0000
,
0100
0000
0000
0000
,
0010
0000
0100
0000
,
0010
0000
0000
0000
,
1000
0000
0000
0000
,
0001
0000
0000
0000
,
0010
0000
0001
0000
,
1000
0000
0000
0000
,
0000
0000
0010
0010
,
0000
0100
0000
0000
,
0000
0000
0001
0001
,
0000
0000
0000
0000
,
0000
0000
1000
0001
,
0000
0000
0000
0000
,
0100
0000
0010
0000
,
1001
0000
0000
0000
,
0000
1000
1000
0000
,
0010
0000
0000
0000
,
0100
0000
0001
0000
,
1000
0000
0000
0000
,
0000
0001
0001
0000
,
0010
0000
0001
0000
,
0100
0000
0010
0000
,
1000
0000
0000
0000
,
1000
0000
0000
0000
,
0001
0000
0000
0000
,
0001
0000
0000
0000
,
0100
0000
0000
0000
,
0010
0000
0000
0000
,
1000
0000
0000
0000
,
0001
0000
0000
0000
,
1001
0000
0000
0000
,
0100
0000
0000
0000
,
0010
0000
0000
0000
,
1000
0000
0001
0000
,
1000
0000
0000
0000
,
0100
0000
0000
0000
,
1000
0000
0000
0000
,
0010
0010
0010
0000
,
0100
0000
0000
0000
,
0001
0000
0000
0000
,
0010
0000
0000
0000
,
0001
0000
1000
0000
,
0001
0000
0000
0000
,
0100
0000
0000
0000
,
0010
0000
1000
0000
,
0100
0100
0100
0000
,
1000
0000
1000
0000
,
1000
0000
1000
0000
,
0001
0000
0001
0000
,
0001
0000
0100
0100
;
