#VERSION:0.83;
#TITLE:6 God;
#SUBTITLE:;
#ARTIST:Drake;
#TITLETRANSLIT:;
#SUBTITLETRANSLIT:;
#ARTISTTRANSLIT:;
#GENRE:Rap;
#ORIGIN:;
#CREDIT:;
#BANNER:6 God.png;
#BACKGROUND:6 God-bg.png;
#PREVIEWVID:;
#JACKET:6 God-jacket.jpg;
#CDIMAGE:;
#DISCIMAGE:;
#LYRICSPATH:;
#CDTITLE:;
#MUSIC:6 God.ogg;
#OFFSET:0.529434;
#SAMPLESTART:25.366884;
#SAMPLELENGTH:18.199053;
#SELECTABLE:YES;
#BPMS:0.000=105.500;
#STOPS:44.000=0.569;
#DELAYS:;
#WARPS:;
#TIMESIGNATURES:0.000=4=4;
#TICKCOUNTS:0.000=4;
#COMBOS:0.000=1;
#SPEEDS:0.000=1.000=0.000=0;
#SCROLLS:0.000=1.000;
#FAKES:;
#LABELS:0.000=Song Start;
#BGCHANGES:;
#KEYSOUNDS:;
#ATTACKS:
;

//---------------dance-single - ----------------
#NOTEDATA:;
#CHARTNAME:;
#STEPSTYPE:dance-single;
#DESCRIPTION:;
#CHARTSTYLE:;
#DIFFICULTY:Challenge;
#METER:10;
#RADARVALUES:0.484406,0.510582,0.260834,0.372620,0.577561,455.000000,420.000000,35.000000,50.000000,0.000000,0.000000,2.000000,0.000000,0.000000,0.484406,0.510582,0.260834,0.372620,0.577561,455.000000,420.000000,35.000000,50.000000,0.000000,0.000000,2.000000,0.000000,0.000000;
#CREDIT:;
#NOTES:
// measure 0
0000
0000
0000
0000
,  // measure 1
0000
0000
0000
0000
,  // measure 2
0000
0000
0000
0000
,  // measure 3
2000
0000
3010
0100
0010
0000
0010
0100
0001
0000
1000
0000
0000
0000
0102
0000
,  // measure 4
0100
0000
0000
0000
0003
0000
0010
0000
1010
0000
1000
0000
0010
0000
0000
0100
,  // measure 5
0200
0000
0310
0000
1000
0000
0010
1000
0100
0000
0100
0000
1000
0001
1000
0010
,  // measure 6
0100
0010
0100
0001
0010
0000
0001
0010
0100
1000
0010
1000
0100
0000
0010
0000
,  // measure 7
0220
0330
0000
0000
0000
1000
0001
1000
0100
1000
0010
0100
0010
0000
1000
0000
,  // measure 8
2002
3003
0000
0000
0000
0001
0100
0001
1000
0001
0010
0100
0010
0000
0001
0000
,  // measure 9
0202
0303
0000
0000
0000
1000
0010
0000
1000
0100
0010
0000
0100
0010
0001
0000
,  // measure 10
1000
0001
1000
0010
1000
0000
1200
0000
0000
0000
1300
0010
0100
0000
0010
0000
,  // measure 11
2002
3003
0000
0000
0000
0000
0000
0000
0010
0000
0000
0000
0100
0000
0000
0000
0010
0000
0000
0000
0010
0000
0000
0000
1000
0000
0000
0000
0010
0000
0000
0000
1000
0000
0000
0000
1000
0000
0000
0000
0002
0000
0000
0000
0000
0000
0000
0000
1000
0000
0000
0000
0000
0000
0000
0000
0003
0000
0000
0000
0010
0000
0000
0000
,  // measure 12
1000
0010
0100
0010
1000
0100
0010
0001
0010
0001
0000
1000
2000
0000
0000
3100
,  // measure 13
1000
0010
0100
0010
1000
0001
0010
0001
0100
0000
0140
0000
0000
0000
0000
0000
,  // measure 14
0000
0000
0130
0001
1000
0100
1000
0010
0100
0010
0000
0000
2100
0000
0000
0000
,  // measure 15
3000
0000
0001
1000
0001
0001
0100
0001
0100
0100
0020
0000
0100
0000
0000
0000
,  // measure 16
0030
0000
0001
1000
0001
1000
0100
1000
0010
0100
0000
0001
0002
0000
0000
0000
,  // measure 17
0003
0000
1000
0010
0100
0001
0010
0001
0010
0000
4010
0000
0000
0000
0000
0000
,  // measure 18
0000
0000
3010
0100
0001
0100
0010
1000
0100
1000
0000
0000
1002
0000
0000
0000
,  // measure 19
0003
0000
0010
0100
0010
0010
0001
0010
0001
0001
2000
0000
0000
0000
0000
0000
,  // measure 20
3000
0000
0010
1000
0010
0100
0001
1000
0010
0100
0000
0010
0020
0000
0000
0000
,  // measure 21
0030
0000
0100
0001
1000
0000
1002
0000
0000
0000
0103
0010
1000
0000
2010
0000
,  // measure 22
0000
0000
3100
1000
0010
0100
0001
0010
0100
0010
0000
0001
0002
0000
0000
0000
,  // measure 23
0003
0000
1000
0010
1000
1000
0100
1000
0100
0100
0020
0000
0000
0001
0000
0000
,  // measure 24
0030
0000
0010
0100
0010
0001
1000
0010
1000
0010
0000
0100
0200
0000
0000
0000
,  // measure 25
0300
0001
1000
0001
0010
0001
1000
0010
1000
0010
0100
0001
0010
0000
0012
0000
,  // measure 26
0000
0000
1003
0010
0100
0010
1000
0100
0010
0001
0000
0000
0201
0000
0000
0000
,  // measure 27
0300
0010
0100
0010
1000
0000
2000
0000
3000
0000
2020
0000
3000
0000
0200
0000
,  // measure 28
0330
0000
0001
0100
0010
0000
0110
0000
0000
0000
0000
1000
2000
0000
0000
0000
,  // measure 29
3000
0000
0001
0000
0010
0000
0020
0000
0030
0000
0202
0000
0003
0000
0310
1000
,  // measure 30
0010
0100
0001
1000
0010
0000
1100
0000
0000
0000
0000
0001
0002
0000
1003
0010
,  // measure 31
1000
0001
0100
0010
1000
0000
0001
0000
0001
0000
0201
0000
0000
0000
0000
0000
,  // measure 32
0310
1000
0001
0100
0010
0000
0110
0000
0000
0000
0000
0100
0200
0000
0301
0010
,  // measure 33
0001
0000
0000
1000
0000
0000
0010
0000
0000
0100
0000
0000
0010
0000
0000
0000
0000
0000
1000
0000
0000
0000
0000
0000
0010
0000
0000
0000
0000
0000
2100
0000
0000
0000
0100
0000
0000
0000
0100
0000
0000
0000
3001
0000
0000
1000
0000
0000
,  // measure 34
0001
0100
0010
1000
0100
0000
1001
0000
0000
0000
0010
0000
0210
0000
0000
0000
,  // measure 35
0000
0000
0001
0000
0300
1000
0001
1000
0010
0000
2000
0000
0000
0000
3001
0100
,  // measure 36
0000
0000
0000
0000
0110
0000
0010
0000
1000
0000
0010
0000
0200
0001
0001
0000
,  // measure 37
0000
0000
0300
0000
0001
1000
0010
1000
0001
0100
0010
1000
0100
0000
0100
0000
,  // measure 38
0000
0000
0000
0000
1001
0000
1000
0000
0010
0000
1000
0000
0002
0100
0100
0000
,  // measure 39
0000
0000
0003
0000
0100
0010
1000
0010
0100
0001
0100
0000
0010
0000
0010
0000
,  // measure 40
0000
0000
0000
0000
1010
0000
0010
0000
0100
0000
0010
0000
2000
0001
0001
0000
,  // measure 41
0000
3000
0101
0001
0000
1002
0000
0000
,  // measure 42
0003
0000
1100
1000
0000
0010
0200
0000
,  // measure 43
0000
0000
0010
0000
0300
1000
0010
0100
0001
0000
2001
0000
0000
0000
3000
0010
,  // measure 44
0100
0001
0010
0001
1000
0000
1000
0000
0010
1000
0000
0010
0120
0000
0000
0000
,  // measure 45
0000
0000
0000
0000
0030
0000
1000
0000
0000
0000
0000
0000
0001
1000
0010
1000
,  // measure 46
0010
0100
0001
0100
0010
0000
1000
0000
0000
0001
0000
1000
2001
0000
0000
0000
,  // measure 47
0000
0000
3000
0010
0000
0000
0100
0001
,  // measure 48
0100
0010
0100
0000
0010
1000
0000
1000
0001
0000
1000
0000
1020
0000
0000
0000
,  // measure 49
0000
0000
0100
0000
0030
0000
0000
0000
0000
0000
0000
0001
0100
0010
1000
0010
,  // measure 50
1000
0001
0100
0010
1000
0010
0100
0010
0100
0000
0001
0000
0110
0000
0000
0000
;
