#VERSION:0.82;
#TITLE:51 Frantic;
#SUBTITLE:;
#ARTIST:cYsmix;
#TITLETRANSLIT:;
#SUBTITLETRANSLIT:;
#ARTISTTRANSLIT:;
#GENRE:;
#ORIGIN:;
#CREDIT:;
#BANNER:51 Frantic.png;
#BACKGROUND:51 Frantic-bg.png;
#PREVIEWVID:;
#JACKET:51 Frantic-jacket.png;
#CDIMAGE:;
#DISCIMAGE:;
#LYRICSPATH:;
#CDTITLE:;
#MUSIC:51 Frantic.ogg;
#OFFSET:-0.002000;
#SAMPLESTART:30.009016;
#SAMPLELENGTH:15.000000;
#SELECTABLE:YES;
#DISPLAYBPM:128.000000;
#BPMS:0.000=128.000,
63.000=256.000,
64.000=128.000,
79.000=256.000,
80.000=128.000,
110.000=64.000,
110.250=128.000,
110.500=256.000,
111.000=64.000,
111.250=128.000,
111.500=256.000,
112.000=128.000,
206.000=256.000,
208.000=128.000,
222.000=64.000,
222.250=128.000,
222.500=256.000,
223.000=64.000,
223.250=128.000,
223.500=256.000,
224.000=128.000;
#STOPS:63.000=0.240,
79.000=0.240,
206.000=0.060,
206.250=0.060,
206.500=0.060,
206.750=0.060,
207.000=0.060,
207.250=0.060,
207.500=0.120;
#DELAYS:;
#WARPS:;
#TIMESIGNATURES:0.000=4=4;
#TICKCOUNTS:0.000=4;
#COMBOS:0.000=1;
#SPEEDS:0.000=1.000=0.000=0,
48.000=1.500=12.000=0,
63.000=1.000=0.000=0,
88.000=1.500=7.000=0,
95.000=1.000=1.000=0,
172.000=0.500=3.000=0,
176.000=1.000=28.000=0,
211.000=1.250=0.500=0,
215.000=1.500=0.500=0,
222.000=1.250=0.250=0,
223.000=1.000=0.250=0;
#SCROLLS:0.000=1.000;
#FAKES:;
#LABELS:0.000=Song Start;
#BGCHANGES:;
#KEYSOUNDS:;
#ATTACKS:
;

//---------------dance-single - ----------------
#NOTEDATA:;
#CHARTNAME:;
#STEPSTYPE:dance-single;
#DESCRIPTION:;
#CHARTSTYLE:;
#DIFFICULTY:Hard;
#METER:8;
#RADARVALUES:0.454347,0.473328,0.132864,0.207600,0.186840,342.000000,16.000000,25.000000,0.000000,0.000000,0.000000,0.000000,0.000000,0.454347,0.473328,0.132864,0.207600,0.186840,342.000000,16.000000,25.000000,0.000000,0.000000,0.000000,0.000000,0.000000;
#CREDIT:;
#DISPLAYBPM:128.000000;
#NOTES:
0000
0000
0000
0000
,
0000
0000
0000
0000
,
0000
0000
0000
0000
,
0000
0000
0000
0000
,
1000
0100
0001
0100
,
1000
0100
0010
0001
,
1000
0010
0001
0010
,
1000
0001
0100
0010
,
1000
0000
0000
0100
0000
0000
1100
0000
0000
0000
0011
0000
0000
0000
0000
0010
,
0001
0000
0000
0100
0000
0000
0101
0000
0000
0000
1010
0000
0000
0000
0000
1000
,
0010
0000
0000
0100
0000
0000
0101
0000
0000
0000
1100
0000
0000
0000
0000
0001
,
0010
0000
0000
0100
0000
0000
0110
0000
0000
0000
1001
0000
0000
0000
0000
1000
,
0100
0100
1000
1000
0001
0100
0010
0100
,
0001
0001
0010
0010
0100
1000
0001
0100
,
0010
1000
0100
1000
0001
0100
0001
0010
,
0100
0000
1000
0000
0000
1000
0000
0000
1000
0000
2000
0000
3001
0000
0000
0000
,
0001
0000
0010
0000
0100
0000
0000
0000
0010
0001
0000
0001
0100
0000
0001
0000
,
1000
0000
0010
0000
0100
0000
0000
0000
0001
0000
0000
0100
0010
0000
0010
0000
,
1000
0000
0001
0000
0100
0000
0000
0000
0001
1000
0000
1000
0010
0000
1000
0000
,
0100
0010
0001
0010
0100
1000
0010
0000
,
1000
0000
0010
0000
0100
0000
0000
0000
0010
1000
0000
1000
0100
0000
1000
0000
,
0001
0000
0100
0000
0010
0000
0000
0000
0100
0000
0000
0001
1000
0000
1000
0000
,
0001
0100
0001
0100
0010
0100
0010
1000
,
0010
1000
0100
1000
0100
0010
0002
0000
,
1003
0000
0100
1000
0000
0001
0100
0000
0020
0000
0000
0000
1030
0000
0001
0000
,
1000
0000
0200
0000
0000
0010
0000
0000
0001
0000
0000
0010
0000
0000
1300
0000
,
0001
0000
0200
0000
0000
0010
0000
0000
1000
0000
0000
0010
0000
0000
0301
0000
,
1000
0001
0010
0010
0100
0000
0100
0000
,
1000
0000
0000
0001
0100
0001
0000
0000
1000
0000
0000
1001
0000
0000
1100
0000
,
0100
0000
1000
0000
0100
0010
0000
0000
0001
0000
0000
0001
0200
0000
0320
0000
,
1030
0100
1000
0001
0010
0001
1000
0010
,
1000
0001
0100
0001
2000
0000
3002
0000
,
2003
0000
0000
0100
0000
0000
0000
0000
,
0010
0000
0000
0001
0000
0000
3100
0000
,
0002
0000
0000
0100
0000
0000
0000
0000
,
0010
0000
0000
0100
0000
0000
1003
0000
,
0001
0000
0001
0100
0010
0000
0010
1000
,
0100
0000
0011
0000
1100
0000
0100
1000
,
0010
0000
0100
0001
0000
1000
0100
1000
,
0002
0000
0203
0000
0320
0000
1030
0001
,
0020
0032
2003
3200
,
1300
0000
0000
0000
0001
0000
0100
0010
1000
0000
0001
0000
0010
0000
0100
0000
,
1000
0001
1000
0001
0100
0010
0100
0010
,
1000
0000
0001
0000
0000
0001
0000
0000
0002
0000
0000
0000
1003
0000
0000
0000
,
1000
0000
0100
0000
0010
0100
1000
0000
,
0001
0000
0100
0000
0010
0100
0001
0000
,
0100
0000
0001
0000
1000
0100
0010
0000
,
0010
0000
0000
0000
0001
0000
0000
0000
1000
0000
0000
1100
0000
0000
0100
0000
,
0010
0000
0001
0000
1000
0010
0100
0000
,
0010
0000
1000
0000
0001
0010
0100
0000
,
0010
0000
0000
0000
0010
0000
0000
0000
0100
0000
0000
0000
0100
0000
1000
0001
,
1000
0000
1000
0000
0001
0000
0001
0000
0100
0001
0100
0010
1000
0100
0020
0000
,
0031
0000
0100
0000
0010
0000
0000
0000
1000
0100
0000
0100
0020
0000
0000
0000
,
0031
0000
0100
0000
0010
0000
0000
0000
0100
0001
0000
0001
0020
0000
0000
0000
,
0031
0100
0010
0000
0010
1000
0100
0010
,
0200
0000
1300
0001
0100
0000
0100
0000
,
0001
0000
0000
1000
0100
0000
1000
0000
0000
1001
0000
0000
0101
0000
0000
0001
,
1000
0000
0000
0001
0100
0000
0010
0000
1000
0000
1000
0000
0100
0010
0000
0010
,
0001
0100
0001
1000
0010
1000
0001
0010
,
0001
1000
0100
1000
0002
0000
2003
3000
,
1001
0000
0000
0000
;

//---------------dance-single - ----------------
#NOTEDATA:;
#CHARTNAME:;
#STEPSTYPE:dance-single;
#DESCRIPTION:;
#CHARTSTYLE:;
#DIFFICULTY:Beginner;
#METER:1;
#RADARVALUES:0.086599,0.099648,0.016608,0.000000,0.000000,71.000000,2.000000,0.000000,0.000000,0.000000,0.000000,0.000000,0.000000,0.086599,0.099648,0.016608,0.000000,0.000000,71.000000,2.000000,0.000000,0.000000,0.000000,0.000000,0.000000,0.000000;
#CREDIT:;
#DISPLAYBPM:128.000000;
#NOTES:
0000
0000
0000
0000
,
0000
0000
0000
0000
,
0000
0000
0000
0000
,
0000
0000
0000
0000
,
1000
0000
0000
0000
,
1000
0000
0000
0000
,
0001
0000
0000
0000
,
0001
0000
0000
0000
,
1000
0000
0000
0000
,
0001
0000
0000
0000
,
1000
0000
0000
0000
,
0001
0000
0000
0000
,
0100
0000
0000
0000
,
0100
0000
0000
0000
,
0100
0000
0000
0000
,
0010
0010
0010
0000
,
1000
0000
0000
0000
,
0001
0000
0000
0000
,
1000
0000
0000
0000
,
0001
0000
0010
0000
,
0001
0000
0000
0000
,
1000
0000
0000
0000
,
0100
0000
0100
0000
,
0010
0000
0010
0000
,
0001
0000
0000
0000
,
1000
0000
0000
0000
,
0001
0000
0000
0000
,
1000
0000
0100
0000
,
1000
0000
0000
0000
,
0001
0000
0000
0000
,
0010
0000
0100
0000
,
0010
0000
0100
0000
,
0010
0000
0000
0000
,
0000
0000
0000
0000
,
0000
0000
0000
0000
,
0000
0000
0000
0000
,
0001
0000
0100
0000
,
0010
0000
1000
0000
,
1000
0000
0100
0000
,
0010
0000
0001
0000
,
1000
0000
0001
0000
,
0100
0000
0010
0000
,
1000
0000
0000
0000
,
0001
0000
0000
0000
,
1001
0000
0000
0000
,
0000
0000
0000
0000
,
0000
0000
0000
0000
,
0000
0000
0000
0000
,
1000
0000
0000
0000
,
0001
0000
0000
0000
,
1000
0000
0000
0000
,
0010
0010
0010
0000
,
1000
0000
0000
0000
,
1000
0000
0000
0000
,
1000
0000
0000
0000
,
0100
0100
0010
0000
,
0001
0000
0000
0000
,
0001
0000
0000
0000
,
0100
0000
0100
0000
,
0010
0000
0010
0000
,
1001
0000
0000
0000
;

//---------------dance-single - ----------------
#NOTEDATA:;
#CHARTNAME:;
#STEPSTYPE:dance-single;
#DESCRIPTION:;
#CHARTSTYLE:;
#DIFFICULTY:Easy;
#METER:2;
#RADARVALUES:0.181502,0.199296,0.016608,0.149472,0.000000,133.000000,2.000000,18.000000,0.000000,0.000000,0.000000,0.000000,0.000000,0.181502,0.199296,0.016608,0.149472,0.000000,133.000000,2.000000,18.000000,0.000000,0.000000,0.000000,0.000000,0.000000;
#CREDIT:;
#DISPLAYBPM:128.000000;
#NOTES:
0000
0000
0000
0000
,
0000
0000
0000
0000
,
0000
0000
0000
0000
,
0000
0000
0000
0000
,
0000
1000
0000
1000
,
0000
0001
0000
0001
,
0000
1000
0000
1000
,
0000
0001
0000
0001
,
0100
0100
0000
0100
,
0001
0001
0000
0001
,
1000
1000
0000
1000
,
0010
0010
0000
0010
,
1000
0100
0000
1000
,
0000
0001
0000
0010
,
0000
0001
0000
0100
,
0010
0010
0020
0030
,
1000
0100
0000
1000
,
0001
0100
0000
0001
,
1000
0100
0000
0100
,
2000
0000
3000
0001
,
0001
0010
0000
0001
,
1000
0010
0000
1000
,
0002
0000
0203
0000
,
0320
0000
2030
3000
,
0100
0010
0200
0300
,
0000
1000
0000
0100
,
0000
0001
0000
0100
,
0200
0000
0310
0010
,
0000
1000
0000
0010
,
0000
0001
0000
0010
,
0100
0000
0100
0000
,
0100
0000
0100
0010
,
0110
0000
0000
0000
,
0000
0000
0000
0000
,
0000
0000
0000
0000
,
0000
0000
0000
0000
,
0002
0000
2003
0000
,
3100
0100
0100
0000
,
2000
0000
3002
0000
,
0013
0010
0010
0000
,
0001
0001
0100
0000
,
0010
0010
1000
0000
,
0100
1000
0010
0100
,
0002
0000
0000
0003
,
0000
1000
0000
1000
,
0000
0100
0000
0100
,
0000
0010
0000
0010
,
0000
0001
0000
0001
,
0000
0100
0000
0100
,
0000
0010
0000
0010
,
0000
1000
0000
0001
,
0100
0100
0100
0000
,
0001
0100
0001
0000
,
1000
0100
1000
0000
,
0001
0010
0100
1000
,
0002
0000
0103
0100
,
0001
0010
0001
0000
,
1000
0010
1000
0000
,
0002
0000
0203
0000
,
0320
0000
2030
3000
,
1001
0000
0000
0000
;

//---------------dance-single - ----------------
#NOTEDATA:;
#CHARTNAME:;
#STEPSTYPE:dance-single;
#DESCRIPTION:;
#CHARTSTYLE:;
#DIFFICULTY:Medium;
#METER:5;
#RADARVALUES:0.351140,0.373680,0.224208,0.323856,0.029064,230.000000,27.000000,39.000000,0.000000,0.000000,0.000000,0.000000,0.000000,0.351140,0.373680,0.224208,0.323856,0.029064,230.000000,27.000000,39.000000,0.000000,0.000000,0.000000,0.000000,0.000000;
#CREDIT:;
#DISPLAYBPM:128.000000;
#NOTES:
0000
0000
0000
0000
,
0000
0000
0000
0000
,
0000
0000
0000
0000
,
0000
0000
0000
0000
,
1000
0001
1000
0001
,
0100
0010
0100
0010
,
1000
0001
1000
0001
,
0010
0100
0010
0100
,
2000
3100
0010
0010
,
0002
0103
0010
0010
,
2000
3001
0100
0100
,
0002
1003
0100
0100
,
1000
0000
0001
0000
0100
0010
0100
0000
,
0001
0000
1000
0000
0100
0010
0100
0000
,
2000
3200
0320
0032
,
1003
1000
2000
3001
,
0001
0100
0000
0000
0101
0000
1001
0000
,
1000
0100
0000
0000
1100
0000
1001
0000
,
0001
0010
0000
0000
0110
0000
1001
0000
,
2000
0000
3100
0100
,
1000
0010
0000
0000
1010
0000
1001
0000
,
0001
0010
0000
0000
0011
0000
0110
0000
,
2000
0000
0000
3002
0000
0000
0203
0000
,
0000
0320
0000
0000
2030
0000
3002
0000
,
1003
0100
1000
0100
0020
0000
0030
0000
,
0001
0100
0000
0000
0101
0000
1010
0000
,
1000
0100
0000
0000
1100
0000
0011
0000
,
0020
0000
0030
0010
0100
0000
0100
0000
,
1000
0000
0000
0001
0100
0000
0000
0000
0001
0000
0100
0000
0001
0000
0000
0000
,
0010
0100
1000
0000
0010
0100
0001
0000
,
0200
0000
0000
0302
0000
0000
2003
0000
,
0000
3020
0000
0000
1030
0001
0010
0000
,
2002
0000
0000
0000
,
0000
0000
0000
3003
,
1000
0100
1000
0010
,
0100
0001
0010
0001
,
2000
0000
3000
0001
0020
0000
0030
0001
,
0100
0000
1010
0000
0101
0000
0010
0100
,
0002
0000
0000
2003
0000
0000
3100
0010
,
0100
0000
1100
0000
0011
0000
0001
0100
,
0010
1000
0010
0100
,
0001
0010
0100
1000
,
0002
0000
0000
0003
,
0000
0000
0100
0000
0000
0100
0000
0000
0200
0000
0000
0000
0300
0000
0000
0000
,
0001
0000
0001
0000
0001
0100
0000
0000
,
1000
0000
1000
0000
1000
0100
0000
0000
,
0001
0000
1000
0000
0001
0100
0000
0000
,
0010
0000
0000
0000
1000
0000
0000
0000
0100
0000
0000
0010
0000
0000
0010
0000
,
0001
0000
0100
0000
0010
1000
0010
0000
,
1000
0000
0100
0000
0010
0001
0010
0000
,
0001
0100
1000
0100
,
0010
0000
0010
0000
0100
0000
0100
0000
0001
1000
0001
1000
0001
1000
0001
0000
,
0001
0100
0000
0000
0101
0000
1002
0000
,
1003
0100
0000
0000
1100
0000
2001
0000
,
3001
0010
0000
0000
0110
0000
1001
0000
,
0220
0030
0010
0310
,
0001
0000
0000
1000
0100
0000
0000
0000
1000
0000
0100
0000
1000
0000
0000
0000
,
0010
0100
0001
0000
0010
0100
1000
0000
,
0200
0000
0000
2300
0000
0000
3002
0000
,
0000
0023
0000
0000
0032
0000
1003
0000
,
1001
0000
0000
0000
;

//---------------dance-single - ----------------
#NOTEDATA:;
#CHARTNAME:;
#STEPSTYPE:dance-single;
#DESCRIPTION:;
#CHARTSTYLE:;
#DIFFICULTY:Challenge;
#METER:9;
#RADARVALUES:0.587211,0.647711,0.199296,0.190992,0.406896,448.000000,24.000000,23.000000,0.000000,0.000000,0.000000,0.000000,0.000000,0.587211,0.647711,0.199296,0.190992,0.406896,448.000000,24.000000,23.000000,0.000000,0.000000,0.000000,0.000000,0.000000;
#CREDIT:;
#DISPLAYBPM:128.000000;
#NOTES:
// measure 0
0000
0000
0000
0000
,  // measure 1
0000
0000
0000
0000
,  // measure 2
0000
0000
0000
0000
,  // measure 3
0000
0000
0000
0000
,  // measure 4
1000
1100
0100
0010
,  // measure 5
0001
0101
0100
0010
,  // measure 6
1000
0110
0001
1000
,  // measure 7
0001
0000
0110
0000
1000
0100
0100
0000
,  // measure 8
1000
1000
0100
0100
0010
0001
0100
0001
,  // measure 9
0010
0010
0001
0001
0100
0010
1000
0010
,  // measure 10
0100
0100
0001
0001
1000
0100
0010
0100
,  // measure 11
1000
1000
0010
0010
0100
0001
1000
0000
,  // measure 12
1000
0000
0100
0000
0010
0000
0001
0000
0010
0000
0100
1000
0100
0000
1000
0000
,  // measure 13
0001
0100
0010
1000
0010
0110
0100
0001
,  // measure 14
1000
0000
0010
0000
1000
0000
0001
0000
0010
0000
0001
1000
0010
0000
0100
0000
,  // measure 15
0001
0000
0010
0000
0000
0010
0000
0000
0010
0000
0020
0000
0130
0000
0000
0000
,  // measure 16
0010
0000
0001
0000
1000
0100
1000
0000
0001
0100
0000
0001
1000
0010
1000
0000
,  // measure 17
0010
0000
1000
0000
0010
0100
0001
0000
0200
0000
0300
0010
1000
0000
1000
0001
,  // measure 18
0010
0000
0001
0000
1000
0010
0100
0000
0001
0000
0100
0010
1000
0000
0001
1000
,  // measure 19
0100
0000
0100
0000
0100
0000
0010
0100
1000
0001
0100
0001
0010
0000
0000
0000
,  // measure 20
0010
0000
0001
0000
1000
0001
1000
0000
0010
0000
0000
0100
0010
0100
0001
0000
,  // measure 21
0010
0000
0100
0000
2000
0000
3000
0001
0200
0000
0300
0010
1000
0100
1000
0000
,  // measure 22
0001
0100
0001
1000
0010
0000
1000
0100
1000
0001
0010
0000
0001
0100
0010
0100
,  // measure 23
0001
0000
1000
0100
0010
0100
1000
0000
0100
1000
0001
0100
0020
0000
0000
0000
,  // measure 24
1030
0000
1000
0100
0000
0100
0010
0000
0012
0000
0000
0000
0103
0000
0000
0000
,  // measure 25
0001
0000
1000
0000
0001
0100
0000
0100
0010
0000
0010
1000
0000
1000
0100
0000
,  // measure 26
1000
0000
0001
0000
1000
0001
0000
0001
0010
0000
0010
0100
0000
0100
1000
0000
,  // measure 27
0001
0100
0001
0100
0010
0000
0110
0000
,  // measure 28
0100
0000
0000
0001
1000
0010
0000
1000
0100
0000
1000
0001
0000
1000
0100
0000
,  // measure 29
0010
0000
0001
0000
0001
0100
0000
0001
1000
0000
0001
0010
0000
0001
1000
0000
,  // measure 30
0100
1000
0010
0100
0001
0000
0100
0001
0010
0100
1000
0000
0001
0100
0010
1000
,  // measure 31
0010
0000
1000
0100
0010
0001
0100
0000
0002
0000
0000
0000
2003
0000
0000
0000
,  // measure 32
3002
0000
0103
0020
0000
1030
0002
0000
,  // measure 33
0013
0200
0000
1300
0010
0000
1001
0000
,  // measure 34
2000
0000
3100
0020
0000
0031
2000
0000
,  // measure 35
3010
0200
0000
0301
0010
0000
1001
0000
,  // measure 36
1000
0000
0000
1000
0100
0000
0010
0001
1000
0000
0000
1000
0010
0000
0100
0001
,  // measure 37
0010
0000
0000
0000
0021
0000
0000
0000
0130
0000
0000
0000
0100
1000
0001
0100
,  // measure 38
0010
0000
0100
0010
1000
0001
0010
0100
,  // measure 39
1200
0000
0001
0000
0310
0000
1000
0001
,  // measure 40
0010
1100
1001
0101
,  // measure 41
1010
0000
0000
0000
0110
0000
0100
0001
0010
0000
0001
0000
0010
0000
0100
0000
,  // measure 42
1000
0000
0000
0010
1000
0000
0001
0000
0100
0000
0000
0100
0001
0000
0010
0100
,  // measure 43
0020
0000
0001
0000
0000
0100
0000
0000
1000
0000
0000
0000
0031
0000
0000
0000
,  // measure 44
0001
0000
0000
1000
0010
0000
1000
0000
0001
0000
0100
0000
0010
0000
0000
0000
,  // measure 45
1000
0000
0000
0001
0010
0000
0001
0000
1000
0000
0100
0000
0010
0000
0000
0000
,  // measure 46
0001
0000
0000
1000
0010
0000
0100
0000
0001
0000
0010
0000
0100
0000
0000
0000
,  // measure 47
1000
0000
0000
0001
0010
0000
0100
0000
1000
0000
0000
1001
0000
0000
0001
0000
,  // measure 48
0100
0000
0000
0100
0010
0000
1000
0000
0100
0000
0010
0001
0010
0000
0010
0000
,  // measure 49
0100
0000
0000
0100
0010
0000
0001
0000
0100
0000
0110
0000
0010
0000
1000
0000
,  // measure 50
0100
0000
0000
1000
0001
0000
0010
0000
0001
0000
1000
0000
0100
0000
1000
0010
,  // measure 51
0100
0000
0100
0000
0100
0000
0010
0100
0001
1000
0001
0010
0100
1000
0010
0000
,  // measure 52
1000
0100
0001
0100
1000
0100
0020
0000
,  // measure 53
0031
0100
1000
0100
0001
0100
0020
0000
,  // measure 54
1030
0100
0001
0100
1000
0010
0001
0010
,  // measure 55
1000
0100
1000
0100
0010
0000
0110
0000
,  // measure 56
0100
0000
0000
1000
0001
0000
1000
0100
0000
0011
0000
0000
1100
0000
0000
0000
,  // measure 57
0010
0000
0000
0001
1000
0000
0001
0100
0000
1010
0000
0000
0101
0000
0001
0000
,  // measure 58
1000
0100
0010
0100
1000
0000
0100
0010
0001
0010
0100
0000
0010
0001
0100
0001
,  // measure 59
0010
0000
0001
0100
0010
1000
0100
0000
2000
0000
0000
0000
3002
0000
0003
0000
,  // measure 60
1001
0000
0000
0000
;
