#VERSION:0.83;
#TITLE:2 Supermodels;
#SUBTITLE:;
#ARTIST:Bali Bandits;
#TITLETRANSLIT:;
#SUBTITLETRANSLIT:;
#ARTISTTRANSLIT:;
#GENRE:;
#ORIGIN:;
#CREDIT:;
#BANNER:2 Supermodels-bn.png;
#BACKGROUND:2 Supermodels-bg.png;
#PREVIEWVID:;
#JACKET:2 Supermodels-jk.png;
#CDIMAGE:;
#DISCIMAGE:;
#LYRICSPATH:;
#CDTITLE:;
#MUSIC:2 Supermodels.ogg;
#OFFSET:0.635079;
#SAMPLESTART:48.511959;
#SAMPLELENGTH:15.000000;
#SELECTABLE:YES;
#BPMS:0.000=100.000,
20.000=100.271,
20.250=100.812,
20.500=101.354,
20.750=101.896,
21.000=102.437,
21.250=102.979,
21.500=103.521,
21.750=104.062,
22.000=104.604,
22.250=105.146,
22.500=105.687,
22.750=106.229,
23.000=106.771,
23.250=107.312,
23.500=107.854,
23.750=108.396,
24.000=108.937,
24.250=109.479,
24.500=110.021,
24.750=110.562,
25.000=111.104,
25.250=111.646,
25.500=112.187,
25.750=112.729,
26.000=113.271,
26.250=113.812,
26.500=114.354,
26.750=114.896,
27.000=115.437,
27.250=115.979,
27.500=116.521,
27.750=117.062,
28.000=117.604,
28.250=118.146,
28.500=118.687,
28.750=119.229,
29.000=119.771,
29.250=120.312,
29.500=120.854,
29.750=121.396,
30.000=121.937,
30.250=122.479,
30.500=123.021,
30.750=123.562,
31.000=124.104,
31.250=124.646,
31.500=125.187,
31.750=125.729,
32.000=126.000,
68.000=126.036,
69.000=126.107,
70.000=126.179,
71.000=126.250,
72.000=126.321,
73.000=126.393,
74.000=126.464,
75.000=126.536,
76.000=126.607,
77.000=126.679,
78.000=126.750,
79.000=126.821,
80.000=126.893,
81.000=126.964,
82.000=127.036,
83.000=127.107,
84.000=127.179,
85.000=127.250,
86.000=127.321,
87.000=127.393,
88.000=127.464,
89.000=127.536,
90.000=127.607,
91.000=127.679,
92.000=127.750,
93.000=127.821,
94.000=127.893,
95.000=127.964,
96.000=128.000;
#STOPS:;
#DELAYS:;
#WARPS:;
#TIMESIGNATURES:0.000=4=4;
#TICKCOUNTS:0.000=4;
#COMBOS:0.000=1;
#SPEEDS:0.000=1.000=0.000=0;
#SCROLLS:0.000=1.000;
#FAKES:;
#LABELS:0.000=Song Start;
#BGCHANGES:;
#KEYSOUNDS:;
#ATTACKS:
;

//---------------dance-single - ----------------
#NOTEDATA:;
#CHARTNAME:;
#STEPSTYPE:dance-single;
#DESCRIPTION:;
#CHARTSTYLE:;
#DIFFICULTY:Challenge;
#METER:8;
#RADARVALUES:0.489681,0.536298,0.215654,0.431308,0.312131,302.000000,283.000000,19.000000,38.000000,0.000000,0.000000,0.000000,0.000000,0.000000,0.489681,0.536298,0.215654,0.431308,0.312131,302.000000,283.000000,19.000000,38.000000,0.000000,0.000000,0.000000,0.000000,0.000000;
#CREDIT:;
#NOTES:
0000
0000
0000
0000
,
0000
0000
0000
0000
,
0000
0000
0000
0000
,
1000
1000
0001
0001
,
0100
0010
1000
0001
,
0010
0000
0000
0001
0000
0000
1000
0000
0010
0000
0000
1000
0000
0000
0001
0000
,
0010
0000
0000
0100
0000
0000
1000
0000
0010
0000
0000
0100
0000
0000
0001
0000
,
1000
0000
0000
0100
0000
0000
0010
0000
0001
0000
0000
0100
0000
0000
0010
0000
,
1000
0000
0001
0000
1000
0000
0001
0000
1000
0100
1000
0100
0010
0000
0000
0000
,
0001
0000
1000
0010
0000
0000
0100
0000
0002
0000
0000
0000
0103
0000
0010
0000
,
1000
0000
0001
0010
0000
0000
0100
0000
0002
0000
0000
0000
0103
0000
1000
0000
,
0001
0000
0100
0010
0000
0000
1000
0000
0200
0000
0000
0000
1300
0000
0010
0000
,
0100
0000
0001
1000
0000
0000
0001
0000
0100
0000
0010
0000
0110
0000
0000
0000
,
1000
0000
0010
1000
0000
0000
0001
0000
0200
0000
0000
0310
0100
0000
0001
0000
,
1000
0000
0100
1000
0000
0000
0001
0000
0020
0000
0000
0000
0130
0000
0010
0000
,
0001
0000
0010
0001
0000
0000
1000
0000
0200
0000
0000
0310
0100
0000
1000
0000
,
0001
0000
0100
0001
0000
0000
1000
0000
0002
0000
0000
0000
0100
0000
0003
0000
,
1000
0000
0000
0100
1000
0000
0100
0000
0000
1000
0100
1000
0100
0000
1000
0000
,
0001
0000
0000
0100
0001
0000
0100
0000
0000
0010
0100
0010
0100
0000
0001
0000
,
1000
0000
0000
0010
1000
0000
0010
0000
0000
0100
0001
0100
0001
0000
1000
0000
,
0001
0000
0000
0010
0001
0000
1000
0000
0020
0000
0032
0000
2003
0000
3200
0000
,
0302
0000
0010
0000
1000
0000
0103
0001
,
1000
0100
0001
0100
1000
0010
0001
0010
,
0100
0000
0100
0000
0010
0000
0010
0000
1000
0001
1000
0001
1000
0001
1000
0001
,
0200
0000
0310
0010
,
1001
0000
0000
0000
1010
0000
0000
0000
1010
0000
1000
0001
0010
0000
0100
0000
,
0000
1001
0000
0001
0010
0000
0100
0000
2020
0000
0000
3030
0022
0000
0000
0033
,
1000
0000
0000
0000
0010
0000
0100
0000
0001
0000
0000
0001
0010
0000
0100
0000
,
1000
0000
0000
1000
0010
0000
0100
0000
0001
0000
1000
0000
0100
0000
0001
0000
,
0100
0000
0000
0000
0011
0000
0000
0000
0011
0000
0001
1000
0010
0000
0100
0000
,
0000
1001
0000
1000
0100
0000
0010
0000
0202
0000
0000
0303
2200
0000
0000
3300
,
0001
0000
0000
0000
0010
0000
0100
0000
1000
0000
0000
1000
0010
0000
0100
0000
,
0002
0000
0100
0100
1003
0000
1000
0000
,
0001
0000
0000
0000
0010
0000
0000
0000
0010
0000
0001
1000
0010
0000
0100
0000
,
0001
1000
0000
0001
1000
0000
0100
0000
0022
0000
0000
0033
2020
0000
0000
3030
,
0001
0000
0000
0000
0100
0000
0010
0000
1000
0000
0000
1000
0100
0000
0010
0000
,
0001
0000
0000
0001
0100
0000
0010
0000
0001
0000
1000
0000
0100
0000
0001
0000
,
1000
0000
0000
0000
0011
0000
0000
0000
0011
0000
0001
1000
0100
0000
0001
0000
,
0000
0110
0000
0100
1000
0000
0001
0000
2200
0000
0000
3300
0202
0000
0000
0303
,
1000
0000
0000
0000
0100
0000
0010
0000
0001
0000
0000
0001
0100
0000
0010
0000
,
2000
0000
3100
0010
0001
0010
0100
1000
,
0002
0000
0000
0000
0010
0000
0000
0000
0100
0000
0000
0000
0013
0000
0000
0010
,
2000
0001
3020
0230
,
0302
0000
0000
0000
0010
0000
0000
0000
1003
0000
0000
0010
0000
0100
0000
0000
,
0001
0000
0000
1000
0000
0100
0000
0000
0020
0000
0000
0000
0230
0000
0000
0000
,
0300
0000
0000
0000
;
