#VERSION:0.83;
#TITLE:2 On;
#SUBTITLE:;
#ARTIST:Tinashe;
#TITLETRANSLIT:;
#SUBTITLETRANSLIT:;
#ARTISTTRANSLIT:;
#GENRE:;
#ORIGIN:;
#CREDIT:hooky;
#BANNER:[Playing with Numbers] - 2 On.png;
#BACKGROUND:[Playing with Numbers] - 2 On-bg.png;
#PREVIEWVID:;
#JACKET:[Playing with Numbers] - 2 On-jacket.png;
#CDIMAGE:;
#DISCIMAGE:;
#LYRICSPATH:;
#CDTITLE:;
#MUSIC:[Playing with Numbers] - 2 On.ogg;
#OFFSET:0.000000;
#SAMPLESTART:102.171051;
#SAMPLELENGTH:14.306931;
#SELECTABLE:YES;
#DISPLAYBPM:101.000000;
#BPMS:0.000=101.000;
#STOPS:;
#DELAYS:;
#WARPS:;
#TIMESIGNATURES:0.000=4=4;
#TICKCOUNTS:0.000=4;
#COMBOS:0.000=1;
#SPEEDS:0.000=1.000=0.000=0;
#SCROLLS:0.000=1.000;
#FAKES:;
#LABELS:0.000=Song Start;
#BGCHANGES:0.000=[Playing with Numbers] - 2 On.avi=1.000=0=0=0=StretchNoLoop====,
99999=-nosongbg-=1.000=0=0=0 // don't automatically add -songbackground-
;
#KEYSOUNDS:;
#ATTACKS:
;

//---------------dance-single - ----------------
#NOTEDATA:;
#CHARTNAME:;
#STEPSTYPE:dance-single;
#DESCRIPTION:;
#CHARTSTYLE:;
#DIFFICULTY:Hard;
#METER:6;
#RADARVALUES:0.349063,0.409723,0.342678,0.178788,0.067046,328.000000,282.000000,46.000000,24.000000,0.000000,0.000000,0.000000,0.000000,0.000000,0.349063,0.409723,0.342678,0.178788,0.067046,328.000000,282.000000,46.000000,24.000000,0.000000,0.000000,0.000000,0.000000,0.000000;
#CREDIT:;
#DISPLAYBPM:101.000000;
#NOTES:
0000
0000
0000
0000
,
0000
0000
0000
0000
,
0000
0000
0000
0000
,
0000
1010
0000
0101
,
0000
0110
0000
1100
,
0000
0011
0000
0101
,
0000
0110
0000
1001
,
0001
0000
0101
0000
0100
0010
1000
0000
,
0100
0000
1010
0000
0100
0000
0011
0001
,
0001
0000
0101
0000
0100
0001
0010
0000
,
0001
0000
0001
0000
1000
0000
0000
0000
1000
0000
0001
1000
0001
0000
0000
0000
,
0200
0000
0310
0000
0200
0001
0301
0000
,
0200
0010
0010
0310
0010
1000
0100
1000
,
0002
0100
0103
0000
0002
0010
0013
0000
,
0002
0000
1000
0000
0010
0000
1000
0000
0013
0000
0100
0000
0001
0100
0001
0000
,
0100
0000
0010
0100
0000
0100
0001
0000
0000
0000
1000
0001
1000
0000
0001
0000
,
0100
0000
0010
1000
0000
1000
0100
0000
0000
0000
1000
0100
1000
0000
1000
0000
,
0001
0000
0100
0010
0000
0010
1000
0000
0000
0000
0001
1000
0001
0000
0100
0000
,
0001
0000
0010
0001
0000
0001
0100
0000
0000
0000
0100
0001
0010
0000
0010
0000
,
0001
0000
0000
0000
1001
0000
1000
0000
0010
0000
0000
0100
0010
0000
0010
0000
,
0200
0000
0301
0100
0002
0000
1000
1000
,
1003
0000
1010
0000
0010
0100
0010
0100
,
0020
0000
1030
0000
2000
0000
0100
3100
,
1100
0000
0011
0000
0101
0101
0101
0000
,
0100
0100
0010
0010
1000
0010
0001
0001
,
0010
0000
1010
0000
1000
1000
0001
0001
,
0100
0100
0001
0001
0010
0010
0100
0100
,
1100
0000
1001
0000
0001
0100
0010
0100
,
1010
0000
1100
0000
0011
0000
0101
0001
,
0101
0000
0110
0000
1000
0100
0001
0100
,
2000
0000
0010
0000
0100
0000
0001
3001
,
0200
0000
0010
0310
,
0010
1000
0000
1000
0001
0000
0000
0100
,
0100
0000
0001
0010
,
0001
0000
0001
0000
0100
0100
0100
0010
,
0110
0000
0000
1010
0000
0000
0000
0000
,
1010
0000
0000
1010
0000
0000
0000
0000
,
1100
0000
0000
0101
0000
0000
0000
0000
,
0101
0000
0000
0110
0000
0000
0000
0000
,
1000
0000
0000
0001
0000
0000
0200
0000
0000
0000
0000
0000
0301
0000
0000
0000
,
0002
0000
0000
0100
0000
0000
0103
0000
,
0001
1000
0010
1000
0100
0000
1000
0000
,
0001
0100
0010
0100
0010
0100
0001
0001
,
1000
0000
0000
0000
1001
0000
0001
0000
0100
0000
0000
0010
0100
0000
0100
0000
,
0020
0000
1030
0010
2000
0000
0001
0001
,
3001
0000
0101
0000
0100
0010
0100
0010
,
0200
0000
0301
0000
0002
0000
0010
0013
,
0011
0000
1100
0000
1010
1010
1010
0000
,
0010
0010
0100
0100
0001
0100
1000
1000
,
0100
0000
0101
0000
0001
0001
1000
1000
,
0010
0010
1000
1000
0100
0100
0010
0010
,
0001
0000
0000
2000
0000
0000
0020
0000
0000
0000
0000
0000
3030
0000
0000
0000
,
0022
0000
0033
0100
0100
0000
0000
0100
,
0010
0000
0000
1000
0002
0000
0100
0100
,
0103
0000
0000
0001
0200
0000
0010
0310
,
1001
0000
0000
0000
;

//---------------dance-single - ----------------
#NOTEDATA:;
#CHARTNAME:;
#STEPSTYPE:dance-single;
#DESCRIPTION:;
#CHARTSTYLE:;
#DIFFICULTY:Challenge;
#METER:5;
#RADARVALUES:0.246898,0.348265,0.238384,0.096844,0.018624,232.000000,200.000000,32.000000,13.000000,44.000000,0.000000,16.000000,0.000000,0.000000,0.246898,0.348265,0.238384,0.096844,0.018624,232.000000,200.000000,32.000000,13.000000,44.000000,0.000000,16.000000,0.000000,0.000000;
#CREDIT:;
#DISPLAYBPM:101.000000;
#NOTES:
0000
0000
0000
0000
,
0000
0000
0000
0000
,
0000
0000
0000
0000
,
0000
1010
0000
1100
,
0000
0011
0000
0101
,
0000
0110
0000
1010
,
0000
0101
0000
1001
,
0001
0001
1000
0001
,
0200
0000
0000
0000
0310
0000
0000
0100
,
0100
0000
0001
0100
,
0010
1000
0001
MMMM
,
0100
0000
0100
0000
0010
0010
1000
0000
,
0001
0000
1000
0000
0001
0000
1000
1000
,
0001
0001
0101
0000
0010
0010
1010
0000
,
0010
0100
0001
0100
0001
0010
0001
0001
,
0200
0000
0001
0000
0000
0000
0301
0001
,
0002
0000
1000
0000
0000
0000
1003
1000
,
2000
0000
0010
0000
0000
0000
3010
0010
,
0020
0000
0000
0000
0130
0000
0000
0000
0040
0400
0000
0000
0000
0000
0330
0000
,
MMMM
0000
0101
0000
0001
0001
0010
0000
,
0001
0000
1000
1000
0001
0000
0100
0100
,
0010
0000
MMMM
0000
0010
1000
0100
1000
,
1001
0000
0101
0000
0020
0000
0100
0130
,
MMMM
1000
0001
1000
,
0001
0000
0100
0000
0001
0000
0010
0010
,
0010
0001
0100
0010
,
0100
0000
0100
0000
0010
0100
0010
0100
,
0004
0000
0003
1000
0001
0100
0010
0100
,
0000
0100
0000
0001
0100
0000
0101
0000
,
0011
0000
1001
0000
0010
1000
0100
0000
,
1100
0011
0110
0110
,
1001
MMMM
0001
MMMM
,
0100
MMMM
0010
MMMM
,
0002
0100
0103
0000
,
2000
0000
0000
0000
0000
0000
3001
0000
0004
4000
0000
0000
0000
0000
3003
0000
,
0101
0000
0000
0110
0000
0000
0000
0000
,
1010
0000
0000
1100
0000
0000
0000
0000
,
1001
0000
0000
0101
0000
0000
0000
0000
,
0101
0000
0000
0011
0000
0000
0000
0000
,
0002
0000
2000
0003
0020
3000
0200
0030
,
0304
0003
4000
3000
,
0040
0000
0000
0030
,
0400
0000
0000
0300
,
MMMM
0000
1010
0000
1000
1000
0100
0000
,
1000
0000
0001
0001
1000
0000
0010
0010
,
0100
0000
MMMM
0000
0100
0001
0010
0001
,
1001
0000
1010
0000
0200
0000
0010
0310
,
MMMM
0001
1000
0001
,
1000
0000
0010
0000
1000
0000
0100
0100
,
0100
1000
0010
0100
,
0010
0000
0010
0000
0100
0010
0100
0010
,
4000
0000
3000
0000
0001
0000
0000
1000
,
0001
0000
0000
0000
0000
0000
0400
0040
0000
0000
0330
0000
0000
0000
0400
0004
,
0000
0303
0000
0001
0010
0000
0001
1000
,
1000
0000
0000
0000
0000
0000
0001
0000
0001
0000
0000
0000
4000
0004
0000
0000
,
3003
0000
0000
0000
;

//---------------dance-single - ----------------
#NOTEDATA:;
#CHARTNAME:;
#STEPSTYPE:dance-single;
#DESCRIPTION:;
#CHARTSTYLE:;
#DIFFICULTY:Medium;
#METER:4;
#RADARVALUES:0.242641,0.368751,0.424622,0.126642,0.000000,228.000000,171.000000,57.000000,17.000000,0.000000,0.000000,0.000000,0.000000,0.000000,0.242641,0.368751,0.424622,0.126642,0.000000,228.000000,171.000000,57.000000,17.000000,0.000000,0.000000,0.000000,0.000000,0.000000;
#CREDIT:;
#DISPLAYBPM:101.000000;
#NOTES:
0000
0000
0000
0000
,
0000
0000
0000
0000
,
0000
0000
0000
0000
,
0000
1010
0000
0101
,
0000
0011
0000
1100
,
0000
0110
0000
0101
,
0000
0000
1001
0000
0000
0000
0100
0100
,
0100
1010
0000
0110
,
0000
0011
0000
1100
,
0000
0110
0000
1100
,
0000
0101
0000
1001
,
0001
1000
0001
0000
0001
0000
1000
0000
,
0001
1000
0001
0000
1000
0000
0001
0000
,
1000
0001
1000
0000
0001
0000
0100
0000
,
0010
0100
0010
0000
0010
0100
0010
0000
,
0200
0001
0010
1300
,
0002
0010
0100
1003
,
2000
0010
0100
3001
,
0002
0103
2000
3100
,
1001
0000
0000
0000
0001
0000
0100
0100
,
0000
0000
0000
0000
0010
0000
1000
0001
,
1000
0000
0000
0001
0100
0010
0100
0002
,
0000
0000
0003
1000
1000
0000
0001
0000
,
0101
0110
1010
1010
,
1100
0011
0110
0110
,
1001
0000
0101
0011
,
0101
0101
0011
1010
,
2002
3003
0100
0010
,
0020
0000
0000
0000
0130
0000
0000
0001
,
1000
0000
0001
0100
,
0010
0000
0000
1000
0000
0000
0001
1000
,
0002
0000
0100
0000
,
0010
0000
1000
0003
,
0200
0000
0010
0000
,
1000
0000
0000
0000
0301
0100
0001
0000
,
1001
0000
0000
0101
0000
0000
0000
0000
,
0101
0000
0000
0101
0000
0000
0000
0000
,
0110
0000
0000
1010
0000
0000
0000
0000
,
1010
0000
0000
1100
0000
0000
0000
0000
,
2000
0000
0000
0000
0002
0000
0000
3000
,
0200
0000
0000
0003
0020
0000
0000
0330
,
1000
0001
1000
0001
,
0200
0000
0000
0000
0010
0010
0310
0000
,
1001
0000
0000
0000
1000
0000
0010
0010
,
0000
0000
0000
0000
0100
0000
0001
1000
,
0001
0000
0000
1000
0010
0100
0010
2000
,
0000
0000
3000
0001
0001
0000
1000
0000
,
1010
0110
0101
0101
,
0011
1100
0110
0110
,
1001
0000
1010
1100
,
1010
1010
1100
0101
,
0110
0000
0100
0000
,
0001
0000
1000
0000
,
0001
0000
0100
0000
,
0010
0000
0000
0000
0010
0000
1000
0001
,
1000
0000
0000
0000
;

//---------------dance-single - ----------------
#NOTEDATA:;
#CHARTNAME:;
#STEPSTYPE:dance-single;
#DESCRIPTION:;
#CHARTSTYLE:;
#DIFFICULTY:Easy;
#METER:2;
#RADARVALUES:0.131963,0.184375,0.067046,0.104293,0.000000,124.000000,115.000000,9.000000,14.000000,0.000000,0.000000,0.000000,0.000000,0.000000,0.131963,0.184375,0.067046,0.104293,0.000000,124.000000,115.000000,9.000000,14.000000,0.000000,0.000000,0.000000,0.000000,0.000000;
#CREDIT:;
#DISPLAYBPM:101.000000;
#NOTES:
0000
0000
0000
0000
,
0000
0000
0000
0000
,
0000
0000
0000
0000
,
0000
1000
0000
0001
,
0000
0100
0000
0010
,
0000
1000
0000
0100
,
0000
0010
0000
0001
,
0000
1001
0000
0100
,
0000
0010
0000
1000
,
0000
0001
0000
1000
,
0000
0001
0000
0100
,
0100
0100
0001
0001
,
1000
1000
0001
0001
,
2000
0000
3010
0000
,
0020
0100
0100
0130
,
0200
0000
0301
0000
,
0002
0000
0013
0000
,
2000
0000
3010
0000
,
0010
0100
0010
0100
,
0110
0000
1000
0001
,
1000
0000
0001
0100
,
0100
0000
0020
0000
,
1030
0000
2000
0100
,
3100
0000
1000
0001
,
1000
1000
0001
0100
,
0001
0000
0010
0001
,
0100
0100
0001
0010
,
0001
0000
1000
1000
,
1000
0000
0001
0000
,
0100
0000
0010
0010
,
0020
0000
0100
0130
,
0200
0000
0000
0300
,
0002
0000
0000
0003
,
2000
0000
0000
3000
,
0002
0000
0000
0003
,
0110
0000
0000
0000
,
1010
0000
0000
0000
,
1100
0000
0000
0000
,
0011
0000
0000
0000
,
0100
0000
0001
0000
,
1000
0000
0001
0000
,
1000
0000
0100
0000
,
1000
0000
0001
0000
,
1001
0000
0100
0000
,
0010
0000
1000
0001
,
0001
0000
0100
0001
,
0000
0000
0010
0001
,
0011
0000
0001
0000
,
1000
0000
0010
0010
,
0010
0000
0100
0000
,
0001
0000
1000
0001
,
2000
0000
0000
0000
,
0000
0000
0000
3000
,
0002
0000
0000
0000
,
0000
0000
0000
0003
,
1001
0000
0000
0000
;

//---------------dance-single - ----------------
#NOTEDATA:;
#CHARTNAME:;
#STEPSTYPE:dance-single;
#DESCRIPTION:;
#CHARTSTYLE:;
#DIFFICULTY:Beginner;
#METER:1;
#RADARVALUES:0.086201,0.143403,0.044697,0.029798,0.000000,81.000000,75.000000,6.000000,4.000000,0.000000,0.000000,0.000000,0.000000,0.000000,0.086201,0.143403,0.044697,0.029798,0.000000,81.000000,75.000000,6.000000,4.000000,0.000000,0.000000,0.000000,0.000000,0.000000;
#CREDIT:;
#DISPLAYBPM:101.000000;
#NOTES:
// measure 0
0000
0000
0000
0000
,  // measure 1
0000
0000
0000
0000
,  // measure 2
0000
0000
0000
0000
,  // measure 3
1000
0000
0000
0000
,  // measure 4
0001
0000
0000
0000
,  // measure 5
1000
0000
0000
0000
,  // measure 6
0001
0000
0000
0000
,  // measure 7
1000
0000
0000
0000
,  // measure 8
0001
0000
0000
0000
,  // measure 9
1000
0000
0000
0000
,  // measure 10
0001
0000
0000
0000
,  // measure 11
1000
0000
1000
0000
,  // measure 12
0001
0000
0001
0000
,  // measure 13
1000
0000
0001
0000
,  // measure 14
1000
1000
1000
0000
,  // measure 15
1001
0000
0000
0000
,  // measure 16
1010
0000
0000
0000
,  // measure 17
0110
0000
0000
0000
,  // measure 18
1001
0000
0000
0000
,  // measure 19
0010
0000
0010
0000
,  // measure 20
0010
0000
0000
0000
,  // measure 21
0001
0000
0001
0000
,  // measure 22
0001
0000
0000
0000
,  // measure 23
0100
0000
0100
0000
,  // measure 24
0100
0000
0000
0000
,  // measure 25
1000
0000
1000
0000
,  // measure 26
1000
0000
0000
0000
,  // measure 27
0001
0000
0000
0000
,  // measure 28
1000
0000
0000
0000
,  // measure 29
0010
0000
0000
0000
,  // measure 30
1000
0000
0000
0000
,  // measure 31
0001
0000
0000
0000
,  // measure 32
0010
0000
0000
0000
,  // measure 33
0001
0000
0000
0000
,  // measure 34
0100
0000
0000
0000
,  // measure 35
0020
0000
0000
0030
,  // measure 36
0200
0000
0000
0300
,  // measure 37
0002
0000
0000
0003
,  // measure 38
2000
0000
0000
3000
,  // measure 39
0001
0000
0100
0000
,  // measure 40
0001
0000
0001
0000
,  // measure 41
1000
0000
0010
0000
,  // measure 42
1000
0000
1000
0000
,  // measure 43
1100
0000
0001
0000
,  // measure 44
1000
0000
0001
0001
,  // measure 45
0001
0000
0100
0000
,  // measure 46
0010
0000
0100
0000
,  // measure 47
0001
0000
1000
0000
,  // measure 48
0001
0000
1000
1000
,  // measure 49
1000
0000
0001
0000
,  // measure 50
1000
0000
0001
0001
,  // measure 51
0001
0000
0000
0000
,  // measure 52
0000
0000
0000
0000
,  // measure 53
1000
0000
0000
0000
,  // measure 54
0000
0000
0000
0000
,  // measure 55
1001
0000
0000
0000
;
