#VERSION:0.83;
#TITLE:X-DAY 2000;
#SUBTITLE:;
#ARTIST:LindaAI-CUE;
#TITLETRANSLIT:;
#SUBTITLETRANSLIT:;
#ARTISTTRANSLIT:;
#GENRE:;
#ORIGIN:;
#CREDIT:;
#BANNER:;
#BACKGROUND:;
#PREVIEWVID:;
#JACKET:;
#CDIMAGE:;
#DISCIMAGE:;
#LYRICSPATH:;
#CDTITLE:;
#MUSIC:23 X-DAY2000.mp3;
#OFFSET:-0.560000;
#SAMPLESTART:10.700000;
#SAMPLELENGTH:12.500000;
#SELECTABLE:YES;
#BPMS:0.000=190.000,
32.000=380.000,
96.000=190.000,
104.000=380.000,
184.000=190.000,
188.000=380.000,
260.000=190.000,
292.000=380.000,
340.000=190.000,
344.000=380.000,
352.000=190.000,
380.000=380.000,
384.000=95.000,
406.000=190.000,
410.000=380.000;
#STOPS:104.000=0.040,
104.250=0.040,
104.500=0.040,
104.750=0.040,
105.000=0.155,
106.000=0.080,
106.500=0.080,
107.000=0.155,
108.000=0.040,
108.250=0.040,
108.500=0.040,
108.750=0.040,
109.000=0.155,
110.000=0.155,
111.000=0.155,
112.000=0.040,
112.250=0.040,
112.500=0.040,
112.750=0.040,
113.000=0.155,
114.000=0.080,
114.500=0.080,
115.000=0.155,
116.000=0.040,
116.250=0.040,
116.500=0.040,
116.750=0.040,
117.000=0.155,
118.000=0.155,
119.000=0.155,
120.000=0.040,
120.250=0.040,
120.500=0.040,
120.750=0.040,
121.000=0.155,
122.000=0.080,
122.500=0.080,
123.000=0.155,
124.000=0.040,
124.250=0.040,
124.500=0.040,
124.750=0.040,
125.000=0.155,
126.000=0.155,
127.000=0.155,
128.000=0.040,
128.250=0.040,
128.500=0.040,
128.750=0.040,
129.000=0.155,
130.000=0.080,
130.500=0.080,
131.000=0.155,
132.000=0.040,
132.250=0.040,
132.500=0.040,
132.750=0.040,
133.000=0.155,
134.000=0.155,
135.000=0.155,
380.000=0.120,
380.750=0.120,
381.500=0.120,
382.250=0.120,
383.000=0.080,
383.500=0.080;
#DELAYS:;
#WARPS:;
#TIMESIGNATURES:0.000=4=4;
#TICKCOUNTS:0.000=4;
#COMBOS:0.000=1;
#SPEEDS:0.000=1.000=0.000=0;
#SCROLLS:0.000=1.000;
#FAKES:;
#LABELS:0.000=Song Start;
#BGCHANGES:;
#KEYSOUNDS:;
#ATTACKS:
;

//---------------dance-single - ----------------
#NOTEDATA:;
#CHARTNAME:;
#STEPSTYPE:dance-single;
#DESCRIPTION:;
#CHARTSTYLE:;
#DIFFICULTY:Challenge;
#METER:10;
#RADARVALUES:1.041703,1.694737,0.822858,0.595259,0.472706,833.000000,739.000000,94.000000,68.000000,0.000000,0.000000,0.000000,0.000000,0.000000,1.041703,1.694737,0.822858,0.595259,0.472706,833.000000,739.000000,94.000000,68.000000,0.000000,0.000000,0.000000,0.000000,0.000000;
#CREDIT:;
#NOTES:
// measure 0
2002
0000
0000
0000
,  // measure 1
3003
0000
0000
0000
,  // measure 2
1000
0001
1000
0001
1000
0000
0000
0000
0000
0000
0000
0000
0000
0000
0000
0000
,  // measure 3
0000
0000
0000
0000
,  // measure 4
0100
0001
0000
0100
0001
0000
1000
0001
0000
1000
0001
0000
1000
0000
0010
1000
,  // measure 5
0010
1000
0000
0010
1000
0000
0001
0100
0000
0001
0100
0000
0010
0000
0100
0000
,  // measure 6
0001
1000
0000
0001
1000
0000
0001
0010
0000
0001
0010
0000
0100
0000
0010
0100
,  // measure 7
0010
0100
0010
0100
0010
0100
0010
0100
0010
0000
0100
0000
0001
0000
1000
0000
,  // measure 8
0001
0100
0010
1000
0001
0000
0100
0000
,  // measure 9
0010
1000
0100
1000
0001
0000
0100
0000
,  // measure 10
0001
0100
0010
1000
0001
0000
1000
0000
,  // measure 11
0101
0101
1100
1100
,  // measure 12
1000
0001
0100
0010
0100
0000
0001
0000
,  // measure 13
0100
0001
1000
0010
0100
0000
0001
0000
,  // measure 14
1000
0100
0010
0001
0100
0000
0010
0000
,  // measure 15
2002
3003
0220
0330
,  // measure 16
0100
0001
0100
0010
1000
0000
0001
0000
,  // measure 17
0010
0001
0100
0010
1000
0000
0100
0000
,  // measure 18
0001
0100
0010
1000
0001
0000
0100
0000
,  // measure 19
0011
0011
1010
1010
,  // measure 20
1000
0100
0010
0001
1000
0000
0010
0000
,  // measure 21
0100
0001
1000
0010
0100
0000
0001
0000
,  // measure 22
1000
0001
0010
0100
0010
0000
0100
0000
,  // measure 23
1000
0100
0010
0001
0100
0010
1000
0001
,  // measure 24
2000
0000
0000
0000
,  // measure 25
3002
0000
0000
0003
,  // measure 26
1000
0001
1000
0001
1000
0000
0000
0000
1001
0000
1001
0000
1001
0000
0000
0000
,  // measure 27
0100
0010
0100
0010
0100
0000
0000
0000
0110
0000
0000
0000
1001
0000
0000
0000
,  // measure 28
1000
0100
1000
0100
1000
0000
0000
0000
1100
0000
1100
0000
1100
0000
0000
0000
,  // measure 29
0001
0010
0001
0010
0001
0000
0000
0000
0011
0000
0000
0000
0011
0000
0000
0000
,  // measure 30
1000
0100
0010
0001
1000
0000
0000
0000
1010
0000
1001
0000
1100
0000
0000
0000
,  // measure 31
0010
0100
0001
1000
0001
0000
0000
0000
0011
0000
0000
0000
1100
0000
0000
0000
,  // measure 32
0001
0010
0100
1000
0001
0000
0000
0000
0101
0000
1001
0000
0011
0000
0000
0000
,  // measure 33
0100
0010
1000
0001
0100
0000
0000
0000
0110
0000
0000
0000
1001
0000
0000
0000
,  // measure 34
1001
0100
0010
1000
,  // measure 35
0100
0001
1000
0010
,  // measure 36
0101
0010
1000
0001
,  // measure 37
0011
0000
0011
0000
1001
0000
1000
0001
,  // measure 38
1000
0010
0100
0001
,  // measure 39
0010
0100
1000
0001
,  // measure 40
1001
0000
0100
0010
1000
0100
0010
0000
,  // measure 41
1001
0000
0110
0000
,  // measure 42
1001
0001
0100
0010
,  // measure 43
1000
0100
0010
0001
,  // measure 44
1001
0100
0010
1000
,  // measure 45
0001
0100
0010
1000
0001
0010
0100
1000
,  // measure 46
0002
0000
1000
0000
1003
0000
2002
3003
,  // measure 47
0101
0000
0001
0100
0000
0100
0001
0000
,  // measure 48
1010
0000
1000
0010
0000
0010
1000
0000
,  // measure 49
0001
1000
0001
1000
0002
0000
0103
0000
,  // measure 50
0010
1000
0010
1000
0010
0000
0100
0000
,  // measure 51
0001
1000
0010
1000
0001
0000
0100
0000
,  // measure 52
0010
0100
0010
1000
0010
0000
0000
0001
,  // measure 53
0100
0101
0001
0100
,  // measure 54
0010
1000
0100
1000
0001
0000
0100
0000
,  // measure 55
0101
0001
1000
1100
,  // measure 56
0001
0000
1000
0001
0000
1000
0001
0000
,  // measure 57
0100
0001
0100
0010
1000
0000
0001
0000
,  // measure 58
1001
0001
0100
0010
,  // measure 59
0010
1000
0001
1000
0010
0000
0100
0001
,  // measure 60
0100
0010
0110
0001
,  // measure 61
1000
0100
0010
0001
1000
0000
0100
0000
,  // measure 62
0011
0000
0100
0000
1000
0000
0010
1000
,  // measure 63
0010
0100
0101
0001
,  // measure 64
0100
0000
1010
0000
0001
0100
0010
1000
,  // measure 65
0002
0000
0000
0000
1003
0000
0010
0000
0100
0001
0100
0000
0010
0000
1000
0000
,  // measure 66
0200
0000
0310
0001
1000
0100
0010
0001
,  // measure 67
2000
0000
0000
0000
3010
0000
1000
0000
0002
0000
0000
0000
1003
0010
1000
0000
,  // measure 68
0100
0000
0100
0000
0010
0000
0002
0000
0000
0000
0103
0000
0010
1000
0000
0001
,  // measure 69
0200
0000
0000
0000
0310
0000
0100
0010
0100
0000
0001
0000
2000
0000
0000
0000
,  // measure 70
3001
0000
0100
0000
0010
0000
0100
0000
1000
0001
1000
0000
0100
0000
0010
0000
,  // measure 71
0002
0000
0000
0000
0103
0000
0010
0000
1000
0010
1000
0000
0100
0000
0010
0000
,  // measure 72
0002
0000
0000
0000
0103
0000
0010
0000
2000
0000
0000
0000
3001
1000
0001
0000
,  // measure 73
2002
3003
0200
0300
0002
0003
2002
3003
,  // measure 74
0200
0300
2000
3000
2002
3003
0200
0300
,  // measure 75
1001
0000
0010
0000
0220
0330
0200
0300
,  // measure 76
0101
0101
1100
1100
,  // measure 77
0022
0033
0200
0300
0002
0003
2020
3030
,  // measure 78
0200
0300
2000
3000
2002
3003
0200
0300
,  // measure 79
0220
0330
0010
0100
0001
1000
0100
0000
,  // measure 80
1001
0000
1001
0000
,  // measure 81
1000
0100
0010
0001
0200
0000
0300
0010
,  // measure 82
1000
0001
0110
0001
,  // measure 83
0010
0100
0001
1000
0020
0000
0030
0100
,  // measure 84
0001
0010
0100
1000
0010
0100
0001
1000
,  // measure 85
0020
1000
0130
0011
,  // measure 86
1000
0001
0000
0100
0010
0000
0110
0000
,  // measure 87
1000
0001
0000
0010
0100
0000
0110
0000
,  // measure 88
1000
0100
0000
0010
0100
0000
0001
0100
0000
0010
0100
0000
0001
0000
1000
0000
,  // measure 89
0010
0001
0000
0010
0100
0000
0010
1000
0000
0010
0100
0000
0001
0000
1000
0000
,  // measure 90
1000
0010
0000
0100
0001
0000
0001
0010
0000
0100
1000
0000
0001
0000
0100
0000
,  // measure 91
0010
1000
0000
0001
0100
0000
0001
0000
2002
0000
3003
0000
0220
0000
0330
0000
,  // measure 92
1000
0010
0000
0001
0100
0000
1000
0100
0000
0001
0010
0000
1000
0000
0001
0010
,  // measure 93
0100
0010
0000
1000
0100
0000
0010
0100
0000
0001
1000
0000
0010
0000
0100
0001
,  // measure 94
0100
0010
0000
1000
0100
0000
0001
1000
0000
0010
0001
0000
1000
0000
0001
1000
,  // measure 95
1001
0000
0000
0110
0000
0000
0101
0000
0000
1010
0000
0000
1001
0000
1001
0000
,  // measure 96
0020
0000
1000
0000
1030
0001
0100
0010
2000
0000
0001
0000
3001
0100
0010
1000
,  // measure 97
0002
0000
0010
0000
0013
0100
0001
1000
0200
0000
0001
0000
0301
1000
0010
0100
,  // measure 98
0102
0000
1000
0000
0013
0010
0001
1000
2100
0000
0010
0000
3001
0001
1000
0100
,  // measure 99
0021
0000
0001
0000
0130
0100
1000
0001
0201
0000
0010
0000
0301
0001
1000
0010
,  // measure 100
0002
0000
1000
1000
0103
1000
0010
0001
2000
0000
0010
0010
3100
0001
0010
0100
,  // measure 101
0002
0000
0010
0010
0103
0010
1000
0001
1000
0001
1000
0001
1000
0001
1000
0001
,  // measure 102
0100
0010
0100
0010
0100
0010
0100
0010
0110
0000
0000
0000
1000
0000
0000
0000
,  // measure 103
0001
0100
0010
1000
,  // measure 104
0100
0000
0001
0100
0001
0010
0100
0010
,  // measure 105
0100
1000
1001
1001
,  // measure 106
0110
0110
0010
1000
,  // measure 107
0100
0001
0010
1000
,  // measure 108
0100
0000
0100
0010
0001
1000
0100
0010
,  // measure 109
0001
1000
1001
0010
,  // measure 110
0110
0000
1000
0000
0100
0010
0001
1000
,  // measure 111
0100
0000
0010
0000
1000
0010
0100
0001
,  // measure 112
1000
0000
0001
1000
0010
0000
0001
0010
,  // measure 113
0100
0010
1000
0000
1001
0000
1001
0000
,  // measure 114
0110
0000
0110
0000
0001
0100
0010
1000
,  // measure 115
0100
0000
1000
0001
0100
0010
1000
0100
,  // measure 116
0001
0010
0001
0100
0010
1000
0001
0100
,  // measure 117
0010
0100
0010
1000
0100
0010
0001
0100
,  // measure 118
0010
1000
0001
0010
0200
0000
0000
0000
,  // measure 119
0000
0000
0000
0000
,  // measure 120
0000
0000
0000
0000
,  // measure 121
0300
0000
0000
0000
;
