#TITLE:To be the one;
#SUBTITLE:;
#ARTIST:Bassjackers;
#TITLETRANSLIT:;
#SUBTITLETRANSLIT:;
#ARTISTTRANSLIT:;
#CREDIT:Pilgrimsito;
#BANNER:To be the one.png;
#BACKGROUND:To be the one-bg.png;
#LYRICSPATH:;
#CDTITLE:cdtitle.png;
#MUSIC:To be the one.ogg;
#OFFSET:-0.040;
#SAMPLESTART:67.240;
#SAMPLELENGTH:14.360;
#SELECTABLE:YES;
#BPMS:0.000=100.000;
#STOPS:;
#BGCHANGES:;

//---------------dance-single - ----------------
#NOTES:
     dance-single:
     :
     Hard:
     8:
     0.507,0.642,0.388,0.502,0.398:
M000
00M0
0000
0000
0000
0000
0000
0000
,
000M
00M0
0000
0000
0000
0000
0000
0000
,
M000
0M00
0000
0000
0000
0000
0000
0000
,
000M
0M00
0000
0000
0000
0000
0000
0000
,
1000
0001
0010
1000
0020
0000
0130
1000
,
0010
0000
0100
0000
0002
0000
0000
0000
1003
0000
0000
0000
0001
0100
0000
0010
,
0000
0000
0100
0001
0000
0000
1000
0000
0000
0000
1000
0000
0100
0010
0000
0100
,
0000
0000
1000
0010
0000
0000
0100
0000
0000
0000
0100
0000
1001
0000
0000
0000
,
1000
0010
0100
0001
0200
0000
1300
0100
,
0010
0000
1000
0000
0100
0000
0010
0000
0002
0000
0003
0000
1000
0010
0000
1000
,
0000
0000
0001
0010
0000
0000
0100
0000
0000
0000
0100
0000
1000
0100
0000
1000
,
0000
0000
0001
0100
0000
0000
0010
0000
0000
0000
0010
0000
1000
0001
0000
0100
,
0000
0000
0001
0010
0100
0000
0010
0000
0002
0000
0003
0000
1000
0010
0000
0100
,
0000
0000
0010
1000
0100
0000
1000
0000
0020
0000
0030
0000
1000
0001
0000
0100
,
0000
0000
0010
1000
0100
0000
1000
0000
0001
0000
0100
0000
0020
0000
2000
0000
,
0000
0000
0000
0000
3030
0000
0000
0000
0000
0000
0000
0000
0001
1000
0000
0100
,
0000
0000
1000
0010
0100
0000
0010
0000
2000
0000
3000
0000
0001
0010
0000
0100
,
0000
0000
0010
0001
0100
0000
0001
0000
0020
0000
0030
0000
0001
1000
0000
0100
,
0000
0000
0010
0001
0100
0000
0001
0000
1000
0000
0100
0000
0020
0000
0002
0000
,
0000
0000
0033
0000
0000
000M
00M0
0M00
,
0001
0000
1000
0000
0100
0000
1000
0010
0000
0010
1000
0000
0002
0000
0000
0000
,
1003
0000
0100
0000
0010
0000
0100
1000
0000
1000
0010
0000
0200
0000
0000
0000
,
0301
0001
0000
0000
0010
0000
0001
0100
0000
1000
0100
0000
0002
0000
0000
0000
,
1003
0000
0000
0000
M000
00M0
0M00
0000
00M0
0000
0000
0000
000M
00M0
0M00
0000
,
10M0
0000
0001
0000
0100
0000
0001
0010
0000
0010
0001
0000
2000
0000
0000
0000
,
3001
0000
0100
0000
0010
0000
0100
0001
0000
0001
0010
0000
0200
0000
0000
0000
,
1300
0001
1000
0001
0010
0100
0010
0100
1000
0010
1000
0010
0100
0001
0100
0001
,
0010
0000
0000
0010
0000
0000
0010
0000
0000
0000
0100
0000
MMMM
0000
0000
0000
,
0201
0000
0000
0300
0210
0000
0000
0300
0201
0000
0000
0300
0010
1000
0001
0010
,
0120
0000
0000
0030
1020
0000
0000
0030
0120
0000
0000
0030
0001
0100
0010
1000
,
1002
0000
0000
0003
0012
0000
0000
0003
1002
0000
0000
0003
0010
0001
1000
0010
,
0110
0000
1100
0000
1100
0000
0110
0000
0101
0000
1001
0000
1000
0010
0100
0001
,
0021
0000
0000
0030
1020
0000
0000
0030
0021
0000
0000
0030
0100
1000
0010
0100
,
0201
0000
0000
0300
0210
0000
0000
0300
0201
0000
0000
0300
0010
1000
0100
0010
,
0012
0000
0000
0003
0102
0000
0000
0003
0012
0000
0000
0003
1000
0010
0100
0001
,
0011
0110
0110
1010
0110
1100
MMMM
0000
,
0102
0000
0000
0003
0002
0000
0000
0003
0002
0000
0000
0003
0010
0100
1000
0010
,
0200
0000
0000
0300
0200
0000
0000
0300
0200
0000
0000
0300
0001
1000
0100
0010
,
0002
0000
0000
0003
0002
0000
0000
0003
0002
0000
0000
0003
0010
0001
0100
0010
,
1010
0000
0000
0011
0000
0000
0110
0000
0000
0001
1001
0000
1000
0010
0100
0001
,
0021
0000
0000
0030
0020
0000
0000
0030
0020
0000
0000
0030
0100
1000
0010
0100
,
0002
0000
0000
0003
0002
0000
0000
0003
0002
0000
0000
0003
0010
0001
0100
0010
,
2000
0000
0000
3000
2000
0000
0000
3000
2000
0000
0000
3000
0001
0010
0100
1000
,
1010
0000
0000
1100
0000
0000
0101
0000
0000
0010
0110
0000
MMMM
0000
0000
0000
;

//---------------dance-single - ----------------
#NOTES:
     dance-single:
     :
     Medium:
     1:
     0.000,0.000,0.000,0.000,0.000: // measure 1
0000
0000
0000
0000
;
