#TITLE:TWO-TORIAL;
#SUBTITLE:;
#ARTIST:PHQUASE vs DJ TOTTO;
#TITLETRANSLIT:;
#SUBTITLETRANSLIT:;
#ARTISTTRANSLIT:;
#GENRE:;
#CREDIT:;
#BANNER:TWO-TORIAL.png;
#BACKGROUND:TWO-TORIAL-bg.png;
#LYRICSPATH:;
#CDTITLE:;
#MUSIC:TWO-TORIAL.ogg;
#OFFSET:-0.180000;
#SAMPLESTART:26.094999;
#SAMPLELENGTH:15.000000;
#SELECTABLE:YES;
#BPMS:0.000000=213.000000
,92.000000=106.500000
,108.000000=213.000000
,140.000000=106.500000
,146.000000=213.000000
,230.000000=106.500000
,238.000000=213.000000
;
#STOPS:149.000000=2.254000,
157.000000=2.254000,
165.000000=4.507000,
181.000000=4.507000,
313.000000=4.507000
;
#BGCHANGES:;
#KEYSOUNDS:;
#ATTACKS:;

//---------------dance-single - ----------------
#NOTES:
     dance-single:
     :
     Beginner:
     3:
     0.166468,0.342846,0.079271,0.158541,0.000000,147.000000,137.000000,10.000000,20.000000,0.000000,0.000000,0.166468,0.342846,0.079271,0.158541,0.000000,147.000000,137.000000,10.000000,20.000000,0.000000,0.000000:
0000
0000
0000
0000
,
0000
0000
0000
0000
,
0000
0000
0000
0000
,
0000
0000
0000
0000
,
0000
0000
0000
0000
,
0000
0000
0000
0000
,
0000
0000
0000
0000
,
0000
1001
0000
0000
,
0001
0000
0000
0000
,
1000
0000
0000
0000
,
0001
0000
0001
0000
,
1000
0000
0000
0000
,
0100
0000
0000
0000
,
0010
0000
0000
0000
,
0200
0000
0300
0000
,
0000
1001
0000
0000
,
1000
0000
0000
0000
,
0001
0000
0000
0000
,
0100
0000
0100
0000
,
0110
0000
0000
0000
,
0110
0000
0000
0000
,
0010
0000
0010
0000
,
0100
0000
0000
0000
,
0001
1001
0000
1000
,
0100
0110
0000
0010
,
0001
1001
0000
0001
,
0100
0110
0000
0020
,
1030
0000
0000
1000
0000
0000
0001
0000
,
0000
0001
0000
0000
0010
0000
0000
0010
,
0000
0000
0100
0000
0000
0100
0000
0000
,
1000
0000
0000
0001
0000
0000
1000
0000
,
1000
0000
1000
0000
,
0001
0000
0001
0000
,
0100
0000
0100
0000
,
0010
0000
0010
0000
,
2000
0000
0000
0000
,
0000
0000
0000
0000
,
3000
0000
1000
0000
,
1000
0000
0001
0000
,
0001
0000
0100
0000
,
0000
0010
0010
0000
,
0010
0000
2000
0000
,
0000
3002
0000
0000
,
0000
0010
0023
0000
,
0000
0000
0230
0000
,
0300
0000
1000
0000
,
0000
0000
0001
0000
,
0000
0000
1000
0000
,
1000
0000
0010
0010
,
0010
0000
2000
0000
,
0000
0000
3002
0000
,
0000
0000
0023
0000
,
0000
0000
0230
0000
,
0000
0000
2300
0000
,
0000
0000
3002
0000
,
0000
0000
0203
0000
,
0000
0000
0320
0000
,
0000
0030
1001
0000
,
0000
0000
0001
0001
,
2000
0000
3001
0001
,
0000
0100
0001
0001
,
0000
1000
1000
0000
,
0100
0000
0010
0000
,
0100
0000
1000
1000
,
0000
0100
1000
1000
,
0000
0001
0001
0000
,
0100
0000
0010
0000
,
0100
0000
0010
0010
,
0000
1000
0010
0010
,
0000
0100
0100
0000
,
0001
0000
0010
0000
,
0100
0000
0010
0010
,
0000
0001
0010
0010
,
0000
0100
0100
0000
,
1000
0000
0010
0000
,
0100
0000
0002
0000
,
0000
0000
2000
0000
,
0000
0000
3003
0000
,
0000
0000
1000
0000
,
0001
0000
1000
0000
,
0010
0000
0100
0000
,
0000
0100
0100
0000
,
0010
0000
0000
0000
1000
0000
0000
1000
,
0000
0001
0000
2002
,
0000
0000
0000
0000
,
0000
0000
0000
0000
,
0000
0000
3003
0000
;

//---------------dance-single - ----------------
#NOTES:
     dance-single:
     :
     Hard:
     9:
     0.601325,0.719976,0.229885,0.435989,0.241776,531.000000,502.000000,29.000000,55.000000,0.000000,0.000000,0.601325,0.719976,0.229885,0.435989,0.241776,531.000000,502.000000,29.000000,55.000000,0.000000,0.000000:
// measure 0
0000
0000
0000
0000
,  // measure 1
0000
0000
0000
0000
,  // measure 2
0000
0000
0000
0000
,  // measure 3
0000
0000
0000
0000
,  // measure 4
0000
0000
0000
0000
,  // measure 5
0000
0000
0000
0000
,  // measure 6
0000
0000
0000
0000
,  // measure 7
0020
0000
1030
0100
0010
0010
0100
1000
,  // measure 8
0001
0100
1000
0100
0001
0001
1000
1000
,  // measure 9
0100
0000
0120
0000
0130
0100
1000
1000
,  // measure 10
0001
0100
0010
0100
0002
0023
0230
2300
,  // measure 11
3001
0000
1001
0001
0010
1000
0010
0001
,  // measure 12
1000
1000
0010
0010
1000
0100
0010
0001
,  // measure 13
2000
0000
3010
0100
1000
0100
0010
1000
,  // measure 14
0001
0010
0001
0000
1000
0000
0001
0000
1000
0010
1000
0000
0100
0000
0100
0000
,  // measure 15
2000
0000
3001
0100
0010
0001
0010
1000
,  // measure 16
0001
0001
1000
1000
0100
0010
0100
1000
,  // measure 17
0001
0000
1001
1000
0010
0001
0010
1000
,  // measure 18
0001
0001
0010
0010
0100
0010
0001
0100
,  // measure 19
0120
0000
0000
1030
0000
0000
0000
0000
0100
0000
0100
0000
0010
0000
0010
0000
,  // measure 20
0120
0000
0000
0031
0000
0000
0000
0000
0100
0000
0100
0000
0010
0000
0010
0000
,  // measure 21
1000
0010
1000
0010
0000
0000
0100
0001
0100
0001
0000
0000
,  // measure 22
1000
0000
0001
0000
1000
0000
0001
0000
0000
0000
0000
0000
0000
0000
0000
0100
0000
0000
0020
0000
0000
0000
0000
0000
,  // measure 23
2030
0000
0000
3001
0101
0000
0000
0000
0000
0000
0100
0000
1001
0000
0000
0000
,  // measure 24
1020
0000
0000
1030
1100
0000
0000
0010
0000
0000
0100
0000
1001
0000
0000
0000
,  // measure 25
0102
0000
0000
0013
0011
0000
0000
0000
0000
0000
0100
0000
1001
0000
0000
0000
,  // measure 26
2100
0000
0000
3010
1010
0000
0000
0010
0000
0000
0100
0000
2002
0000
3003
0000
,  // measure 27
1000
0000
1000
0010
0000
0010
0001
0000
,  // measure 28
0001
0100
0000
0100
1000
0000
1000
0100
,  // measure 29
0000
0100
0001
0000
0001
0010
0000
0010
,  // measure 30
1000
0000
1000
0001
0000
1000
0001
0010
,  // measure 31
0011
0000
0001
0100
0010
0100
0001
0000
,  // measure 32
1000
0100
0010
0100
1000
0000
0001
1000
,  // measure 33
0001
0001
0010
0100
0100
1000
0010
0010
,  // measure 34
1000
0001
1000
0000
0001
1000
0001
0000
0100
0000
0010
0000
0200
0000
0000
0000
,  // measure 35
0320
0000
0000
0000
,  // measure 36
0000
0000
0000
0000
,  // measure 37
0030
0000
0000
0000
0001
1000
0100
0010
,  // measure 38
0000
1000
0010
0001
0100
0001
1000
0010
,  // measure 39
0100
0100
0000
0000
0001
0100
0010
0100
,  // measure 40
0001
0010
0001
0000
1000
0000
0001
0000
0100
0000
0000
0000
0010
0000
0001
0000
,  // measure 41
0010
1000
0000
0000
2000
0000
0100
3200
,  // measure 42
0000
0001
0302
0000
0100
0203
0000
0010
,  // measure 43
0320
0000
0001
0032
0000
0100
0203
0000
,  // measure 44
1000
2300
0000
0001
3002
0000
0013
1000
,  // measure 45
0010
0100
0000
0000
0001
0100
1000
0200
,  // measure 46
0000
0301
0010
1000
0010
0002
0000
1003
,  // measure 47
0100
0001
0100
2000
0000
3010
0001
0010
,  // measure 48
1000
0020
0000
1030
0100
1000
0001
0010
,  // measure 49
0100
0000
0100
0000
2000
0000
0000
0000
3001
0000
0000
0100
0000
0000
1000
0000
,  // measure 50
0001
0000
1000
0000
0100
0000
0000
0001
0000
0000
1000
0000
0010
0000
0000
0100
,  // measure 51
0000
0001
0000
0010
0000
0100
0000
0000
1000
0000
0000
0100
0000
0000
0001
0000
,  // measure 52
1000
0000
0001
0000
0100
0000
0000
1000
0000
0000
0001
0000
0010
0000
0000
0100
,  // measure 53
0000
1000
0000
0010
0000
0100
0000
0000
0001
0000
0000
0011
0000
0000
1001
0000
,  // measure 54
1000
0000
0100
0000
1000
0000
0000
1010
0000
0000
1001
0000
0011
0000
0000
0001
,  // measure 55
0000
0010
0000
0100
0000
1000
0001
0000
1000
0000
0010
1000
0000
0010
1000
0000
,  // measure 56
0001
0000
0010
0000
0100
0000
1000
0100
0000
0000
1000
0000
0001
0000
0100
0001
,  // measure 57
0000
1000
0000
0010
0000
0100
0001
0000
0020
0000
0000
0000
0000
0000
0000
0000
,  // measure 58
0000
0000
0200
0000
,  // measure 59
0330
0000
0000
1000
0001
0100
0010
1000
0020
0000
1030
0100
1000
0000
0000
0000
,  // measure 60
1000
0000
0100
0000
0001
0000
0100
0000
0020
0000
0031
0100
0001
0000
0000
0000
,  // measure 61
0001
0100
1000
0100
0101
0000
1010
0000
,  // measure 62
0011
0000
1100
0000
1000
0010
0001
0010
,  // measure 63
0100
0000
0010
0000
1000
0000
0010
0000
1000
0010
2000
0000
3100
0000
0000
0000
,  // measure 64
0100
0000
0001
0000
0100
0000
0010
0000
0001
0010
0002
0000
0103
0000
0000
0000
,  // measure 65
0100
0000
1000
0000
0100
0000
0010
0000
1020
0000
0000
2030
0000
0000
3200
0000
,  // measure 66
0320
0000
0000
0032
0000
0000
0203
0000
0310
0000
0000
0000
0100
0000
0000
0000
,  // measure 67
0001
0000
0000
0000
1000
0000
0000
0000
2000
0000
3001
0100
0001
0000
0000
0000
,  // measure 68
0001
0000
0010
0000
1000
0000
0010
0000
0002
0000
1003
0100
1000
0000
0000
0000
,  // measure 69
1000
1000
0001
0001
0000
0100
0120
0000
,  // measure 70
2030
0000
3002
0000
1003
0100
0001
0100
,  // measure 71
0010
0000
0001
0000
0100
0000
0100
0000
0001
1000
0002
0000
0013
0000
0000
0000
,  // measure 72
0010
0000
1000
0000
0010
0000
0001
0000
1000
0001
2000
0000
3010
0000
0000
0000
,  // measure 73
0010
0001
0010
1000
0001
0010
0001
0000
,  // measure 74
1000
0010
1000
0000
0001
0001
1000
1000
,  // measure 75
0001
0010
0100
1000
0001
0100
1000
0100
,  // measure 76
0010
0100
1000
0100
0001
0010
1000
0010
,  // measure 77
0001
1000
0010
0200
0000
0000
0000
0000
,  // measure 78
0300
0000
0000
0000
0001
0010
1000
0010
,  // measure 79
0000
0100
1000
0010
0100
0001
0100
1000
,  // measure 80
0100
0001
0100
0000
0010
0000
1000
0010
1000
0000
0100
0000
0100
0000
0010
0000
,  // measure 81
0001
0000
1000
0000
0001
0000
0100
0000
0001
0010
0001
0000
1000
0000
0100
1000
,  // measure 82
0100
0010
0100
0000
1000
1000
0000
0001
,  // measure 83
0001
0000
0010
0010
0000
0100
0220
0000
,  // measure 84
0000
0000
0000
0000
,  // measure 85
0000
0000
0000
0000
,  // measure 86
0000
0000
0330
0000
;

//---------------dance-single - ----------------
#NOTES:
     dance-single:
     :
     Easy:
     5:
     0.348791,0.479984,0.396354,0.396354,0.000000,308.000000,258.000000,50.000000,50.000000,0.000000,0.000000,0.348791,0.479984,0.396354,0.396354,0.000000,308.000000,258.000000,50.000000,50.000000,0.000000,0.000000:
0000
0000
0000
0000
,
0000
0000
0000
0000
,
0000
0000
0000
0000
,
0000
0000
0000
0000
,
0000
0000
0000
0000
,
0000
0000
0000
0000
,
0000
0000
0000
0000
,
0100
1001
0001
1000
,
0100
0100
1000
0010
,
0000
0110
0100
0100
,
0001
0010
0100
1000
,
0000
1001
0001
0100
,
0001
0001
1000
1000
,
0000
1001
1000
0100
,
0010
0100
1000
0010
,
0200
0310
1000
1000
,
0001
0001
1000
0100
,
0000
0110
0010
0010
,
0100
1000
0001
0100
,
0101
0000
0001
1000
,
1100
0000
1000
0001
,
0011
0000
1010
0000
,
1001
0000
0000
0000
0000
0001
0001
0000
,
0012
0000
1003
0000
0000
0012
1003
0000
,
2010
0000
3001
0000
0000
2010
3001
0000
,
0102
0000
1003
0000
0000
0102
1003
0000
,
2100
0000
3001
0000
0000
2100
3002
0003
,
0011
0000
0000
1001
0000
0000
1010
0000
,
0000
0110
0000
0000
0101
0000
0000
1001
,
0000
0000
1100
0000
0000
0110
0000
0000
,
0011
0000
0000
1001
0000
0000
1010
0000
,
1010
0010
0100
0001
,
0010
0100
1000
0100
,
0001
1000
0010
0001
,
1000
0010
0200
0300
,
2002
0000
0000
0000
,
0000
0000
0000
0000
,
3003
0000
0001
1000
,
0100
1000
0010
0010
,
0010
0000
0000
0000
1010
0000
0000
0101
,
0000
0001
1000
0100
,
0010
0000
0000
0000
0002
0000
0000
2003
,
0000
0000
3200
0000
0000
0320
0000
0000
,
0032
0000
0000
0203
0000
0000
0302
0000
,
0000
2003
0000
0000
3100
0000
0100
0000
,
0100
0000
0000
0000
0012
0000
0000
2003
,
0000
0000
3020
0000
0000
0230
0000
0000
,
0301
0010
0001
2000
,
0000
3200
0000
0000
0310
0000
0001
0000
,
1000
1000
0020
0000
2030
0000
0000
0000
,
3002
0000
0023
0000
,
0230
0000
2300
0000
,
3020
0000
0230
0000
,
0302
0000
1003
0100
,
1000
0001
0100
0001
,
0010
0010
0100
1000
,
0001
0100
0001
1000
,
0010
0010
0200
0000
,
0000
0000
0020
0000
,
0000
0330
1000
0100
,
1000
1000
0001
0100
,
0001
0001
2000
3020
,
0230
0302
1003
0100
,
0001
0100
1000
1000
,
0001
0010
0001
0001
,
0100
0001
2000
3020
,
0230
0302
1003
1100
,
0011
1001
0001
0101
,
0001
1000
0100
1100
,
1000
0020
0000
0130
,
0001
1000
0100
1000
,
0001
1001
1010
1000
,
0100
0010
0011
0001
,
0100
0010
0110
0100
,
1001
0001
1000
0100
,
0010
0001
1000
1000
,
0001
0001
0100
0100
,
0010
0100
0020
0000
0000
0000
0000
0000
,
0030
0000
0000
0000
1001
0000
1000
0001
,
0000
0000
1001
0000
0001
1000
0000
1000
,
0100
0010
0001
0100
,
0001
0100
0000
0100
0001
0000
1000
0000
,
0100
0010
0100
0000
1100
0000
0000
0101
,
0000
0000
1001
0000
0000
0100
0220
0000
,
0000
0000
0000
0000
,
0000
0000
0000
0000
,
0000
0000
0330
0000
;

//---------------dance-single - ----------------
#NOTES:
     dance-single:
     :
     Medium:
     8:
     0.489213,0.582838,0.190250,0.594530,0.039635,432.000000,408.000000,24.000000,75.000000,0.000000,0.000000,0.489213,0.582838,0.190250,0.594530,0.039635,432.000000,408.000000,24.000000,75.000000,0.000000,0.000000:
// measure 0
0000
0000
0000
0000
,  // measure 1
0000
0000
0000
0000
,  // measure 2
0000
0000
0000
0000
,  // measure 3
0000
0000
0000
0000
,  // measure 4
0000
0000
0000
0000
,  // measure 5
0000
0000
0000
0000
,  // measure 6
0000
0000
0000
0000
,  // measure 7
0200
0000
0301
1000
0100
0100
1000
0000
,  // measure 8
0001
0100
0010
0100
0001
0001
1000
0010
,  // measure 9
0000
0000
2000
0000
3010
1000
0001
0000
,  // measure 10
0100
0001
1000
0000
0002
0023
0230
2300
,  // measure 11
3001
0000
0110
0000
0010
1000
0001
0000
,  // measure 12
1000
0100
1000
0001
0100
0100
0001
1000
,  // measure 13
0000
0000
0002
0000
0103
0001
1000
0000
,  // measure 14
0100
1000
0100
0000
0010
0001
0010
0000
,  // measure 15
0100
0000
1001
0000
0001
0100
0010
0100
,  // measure 16
0001
0001
1000
1000
0100
1000
0001
0100
,  // measure 17
0000
0000
0110
0000
0010
1000
0001
0000
,  // measure 18
0010
0010
0001
0001
2000
3020
0230
0302
,  // measure 19
2003
0000
3000
0000
0010
1000
0100
1000
,  // measure 20
0002
0000
0003
0000
0010
0001
0100
0001
,  // measure 21
0022
0033
2200
3300
,  // measure 22
2002
0000
3003
0000
0000
0001
1000
0000
,  // measure 23
0012
0000
0103
0000
0000
0012
0103
0000
,  // measure 24
2010
0000
0000
0000
3100
0000
0000
2010
0000
0000
0100
0000
3001
0000
0000
0000
,  // measure 25
0102
0000
0013
0000
0000
0102
0013
0000
,  // measure 26
2100
0000
0000
0000
3010
0000
0000
2100
0000
0000
0010
0000
3002
0000
0000
0000
,  // measure 27
0013
0000
0010
0001
0000
0001
1000
0000
,  // measure 28
1000
0010
0000
0010
0100
0000
0100
0001
,  // measure 29
0000
0001
1000
0000
1000
0100
0000
0100
,  // measure 30
0001
0000
0001
0100
0000
0100
1000
0000
,  // measure 31
1100
0000
1000
0010
0000
0010
1000
0000
,  // measure 32
1000
0001
0000
0001
0010
0000
0010
0001
,  // measure 33
0100
0001
1000
0000
0100
1000
0001
1000
,  // measure 34
0010
0000
0100
0001
1000
0100
0020
0000
,  // measure 35
0230
0000
0000
0000
,  // measure 36
0000
0000
0000
0000
,  // measure 37
0300
0000
0000
0000
1100
0000
1000
0010
,  // measure 38
0000
0010
0100
0001
1000
0100
1000
0000
,  // measure 39
0001
0100
0000
0000
0010
1000
0001
1000
,  // measure 40
0000
0100
1000
0001
0010
0001
0000
1000
,  // measure 41
0100
0010
0000
0000
0012
0000
0000
2003
,  // measure 42
0000
0100
3200
0000
1000
2300
0000
3010
,  // measure 43
0020
0000
0000
0230
0000
0000
0302
0000
,  // measure 44
0000
0010
0023
0000
0130
1000
0100
0000
,  // measure 45
1000
0001
0000
0000
2001
0000
0010
3020
,  // measure 46
0000
0100
0230
0000
0301
0002
0000
1000
,  // measure 47
2003
0000
0100
3200
0000
0010
0320
0000
,  // measure 48
0001
0032
0000
1000
2003
0000
3010
1000
,  // measure 49
0001
0000
1000
0000
0200
0000
0000
0000
0310
0000
0000
0010
0000
0000
0010
0000
,  // measure 50
0100
0000
1000
0000
0100
0000
0000
0000
0000
0000
1000
0000
0010
0000
0000
0100
,  // measure 51
0000
0000
0001
0000
1000
0000
0000
0000
0010
0000
0000
0010
0000
0000
0010
0000
,  // measure 52
0100
0000
0001
0000
0100
0000
0000
0000
0000
0000
0001
0000
0010
0000
0000
0100
,  // measure 53
0000
1000
0001
0000
0012
0000
2003
0000
,  // measure 54
3020
0230
0302
0023
,  // measure 55
0230
0000
2300
0000
3001
0100
0001
1000
,  // measure 56
0001
0010
0001
1000
0100
0010
0100
1000
,  // measure 57
0010
1000
0001
1000
0020
0000
0000
0000
,  // measure 58
0000
0000
0200
0000
,  // measure 59
0000
0000
0330
0000
0001
0100
1000
0000
,  // measure 60
0100
0001
0100
0001
1000
0100
0001
0000
,  // measure 61
0100
1000
0100
1000
0020
0000
2030
0000
,  // measure 62
3002
0000
0023
0000
0130
1000
0010
0000
,  // measure 63
0100
0001
0010
0000
0001
0010
1000
0000
,  // measure 64
0010
0001
0010
0001
1000
0010
0001
0000
,  // measure 65
0010
0000
1000
0000
0010
0000
1000
0000
0100
0000
0000
1000
0000
0000
0001
0000
,  // measure 66
0100
0000
0000
0001
0000
0000
1000
0000
0200
0000
0000
0000
0000
0000
0000
0000
,  // measure 67
0000
0310
0110
0000
0010
0001
0100
0000
,  // measure 68
0010
0100
0001
0100
0010
1000
0100
0000
,  // measure 69
0010
0100
1000
0002
0000
0103
0101
0000
,  // measure 70
1001
0000
1100
0000
1000
0100
0010
0100
,  // measure 71
1000
0001
0100
0010
0100
0001
0010
0000
,  // measure 72
0100
0010
0100
0010
0100
1000
0010
0000
,  // measure 73
0100
0010
0100
0010
2000
0000
3100
0000
,  // measure 74
0002
0000
0000
0000
0103
0000
0000
0000
1000
0000
0000
0010
0000
0000
0100
0000
,  // measure 75
0001
0000
0000
0010
0000
0000
0100
0000
2000
0000
0000
0000
3002
0000
0000
0000
,  // measure 76
0203
0000
0320
0000
1030
0010
0001
0010
,  // measure 77
1000
0100
0001
0200
0000
0000
0000
0000
,  // measure 78
0300
0000
0000
0000
1000
0010
0001
0020
,  // measure 79
0000
1030
0100
0001
0100
2000
0000
3001
,  // measure 80
0100
0100
0010
0100
0001
0010
0100
0010
,  // measure 81
0001
1000
0100
0100
1000
0010
0100
0001
,  // measure 82
0000
0001
0010
0000
0001
0001
0000
1000
,  // measure 83
1000
0000
0010
0010
0000
0100
0220
0000
,  // measure 84
0000
0000
0000
0000
,  // measure 85
0000
0000
0000
0000
,  // measure 86
0000
0000
0330
0000
;
