#VERSION:0.83;
#TITLE:ONE SHOT, TWO SHOT;
#SUBTITLE:;
#ARTIST:BoA;
#TITLETRANSLIT:;
#SUBTITLETRANSLIT:;
#ARTISTTRANSLIT:;
#GENRE:K-POP;
#ORIGIN:;
#CREDIT:;
#BANNER:[Playing With Numbers] - ONE SHOT, TWO SHOT (DDRDAIKENKAI).png;
#BACKGROUND:[Playing With Numbers] - ONE SHOT, TWO SHOT (DDRDAIKENKAI)-bg.png;
#PREVIEWVID:;
#JACKET:[Playing With Numbers] - ONE SHOT, TWO SHOT (DDRDAIKENKAI)-jacket.png;
#CDIMAGE:;
#DISCIMAGE:;
#LYRICSPATH:;
#CDTITLE:CDTitle.png;
#MUSIC:[Playing With Numbers] - ONE SHOT, TWO SHOT (DDRDAIKENKAI).ogg;
#OFFSET:0.011501;
#SAMPLESTART:55.961140;
#SAMPLELENGTH:14.000004;
#SELECTABLE:YES;
#BPMS:0.000=120.000;
#STOPS:;
#DELAYS:;
#WARPS:;
#TIMESIGNATURES:0.000=4=4;
#TICKCOUNTS:0.000=4;
#COMBOS:0.000=1;
#SPEEDS:0.000=1.000=0.000=0;
#SCROLLS:0.000=1.000;
#FAKES:;
#LABELS:0.000=Song Start;
#BGCHANGES:0.000=[Playing With Numbers] - ONE SHOT, TWO SHOT (DDRDAIKENKAI).avi=1.000=0=0=1=====,
99999=-nosongbg-=1.000=0=0=0 // don't automatically add -songbackground-
;
#KEYSOUNDS:;
#ATTACKS:
;

//---------------dance-single - ----------------
#NOTEDATA:;
#CHARTNAME:;
#STEPSTYPE:dance-single;
#DESCRIPTION:;
#CHARTSTYLE:;
#DIFFICULTY:Hard;
#METER:8;
#RADARVALUES:0.559971,0.544994,0.613152,0.226282,0.357672,537.000000,453.000000,84.000000,31.000000,0.000000,0.000000,0.000000,0.000000,0.000000,0.559971,0.544994,0.613152,0.226282,0.357672,537.000000,453.000000,84.000000,31.000000,0.000000,0.000000,0.000000,0.000000,0.000000;
#CREDIT:DDRDAIKENKAI;
#NOTES:
// measure 0
0000
0000
0000
0000
,  // measure 1
0000
0000
0000
0000
,  // measure 2
0000
0000
0000
0000
,  // measure 3
0000
0000
0000
0000
,  // measure 4
1001
0000
0000
1001
0000
0000
0001
0000
0100
0000
0010
0000
1000
0000
0000
0000
0000
0000
1000
0000
0010
0000
0100
0000
,  // measure 5
0001
0000
0000
1000
0000
0000
0001
0000
1001
0000
0000
0000
0000
0000
0000
0000
,  // measure 6
0110
0000
0000
0110
0000
0000
0010
0000
1000
0000
0001
0000
0100
0000
0000
0000
0000
0000
0100
0000
0001
0000
1000
0000
,  // measure 7
0010
0000
0000
0000
0000
0000
0000
0000
0000
0010
0000
0000
0000
0000
0000
0000
0000
0000
0010
0000
0000
0000
0000
0000
0110
0000
0000
0000
0000
0000
0000
0000
0000
0000
0000
0000
1000
0000
0000
0000
1000
0000
0000
0000
1000
0000
0000
0000
,  // measure 8
1001
0000
0000
1001
0000
0000
0001
0000
1000
0000
0001
0000
0010
0000
0000
0000
0000
0000
0100
0000
1000
0000
0001
0000
,  // measure 9
0100
0000
0000
0001
0000
0000
1000
0000
1001
0000
0000
0000
0000
0000
0000
0000
,  // measure 10
0110
0000
0000
0110
0000
0000
0010
0000
1000
0000
0100
0000
0010
0000
0000
0000
0000
0000
0010
0000
0001
0000
0100
0000
,  // measure 11
0020
0000
2030
0000
3200
0000
0301
0100
,  // measure 12
1000
0000
0001
0200
0000
0000
0310
0000
0001
0000
0000
0000
0010
0000
1000
0000
,  // measure 13
0100
0000
0010
0200
0000
0000
1300
0000
0002
0000
0000
0000
1003
0000
0010
0000
,  // measure 14
0100
0000
1000
0100
0000
0000
0001
0000
0100
0000
1000
0100
0000
0000
0001
0000
,  // measure 15
0010
0000
0100
0010
0000
0000
0001
0000
1002
0000
0000
0000
1003
0000
0010
0000
,  // measure 16
1000
0000
0100
0010
0000
0000
0100
0000
1000
0000
0000
0000
0001
0000
1000
0000
,  // measure 17
0001
0000
0010
0100
0000
0000
0010
0000
0002
0000
0000
0000
1003
0000
0000
0000
,  // measure 18
0010
1000
0001
0000
1001
0000
1000
0001
,  // measure 19
0000
1000
0020
0000
0130
0001
0010
0100
,  // measure 20
0110
0000
0000
0000
1001
0000
0000
0001
0100
0000
0010
0000
1000
0000
0000
0001
,  // measure 21
0000
0010
0100
0000
1000
0000
0010
0000
1010
0000
0000
0000
0101
0000
0000
0000
,  // measure 22
1100
0000
0011
1000
0001
0000
1010
0001
,  // measure 23
1000
0000
0011
1000
0001
0100
0010
1000
,  // measure 24
0100
0000
0010
0000
0110
0000
0000
0010
0001
0000
1000
0000
0100
0000
0000
1000
,  // measure 25
0001
0100
0001
0100
0001
0000
1000
0000
1010
0000
0000
0000
2001
0000
0000
0000
,  // measure 26
3001
0000
0101
1000
0001
0000
1100
0001
,  // measure 27
1000
0000
0101
1000
0001
0000
1002
0000
,  // measure 28
0103
0000
1000
0000
0100
0000
0001
0000
1000
0000
0100
0010
0000
0100
0000
0000
,  // measure 29
1000
0000
0010
0000
0001
0000
0010
0000
1000
0000
0001
1000
0000
0001
0000
0000
,  // measure 30
0020
0000
0031
0000
0002
0000
0103
0000
0100
0000
0010
1000
0000
0000
0000
0000
,  // measure 31
1010
0000
1000
0001
0000
0000
0000
0000
0011
0000
0001
1000
0000
0000
0000
0000
,  // measure 32
1000
0000
0100
0000
0001
0000
0100
0000
0010
0000
0001
1000
0000
0001
0000
0000
,  // measure 33
1000
0000
0010
0000
0001
0000
0010
0000
0100
0000
0001
1000
0000
0001
0000
0000
,  // measure 34
2000
0000
3010
0000
0020
0000
0130
0000
0100
0000
0001
1000
0000
0000
0000
0000
,  // measure 35
1002
1000
1003
0100
0001
0010
1000
0001
,  // measure 36
0011
0000
0012
0000
0000
0003
2000
0000
3010
0000
0000
0000
0000
0000
1000
0000
,  // measure 37
1001
0000
0000
1010
0000
0000
0110
0000
0101
0000
0001
0000
1000
0000
0100
0000
,  // measure 38
0110
0110
0000
0001
1001
0000
0000
0010
,  // measure 39
0110
0000
0000
0000
0000
0000
0000
0000
0000
1010
0000
0000
0000
0000
0000
0000
0000
0000
1001
0000
0000
0000
0000
0000
1100
0000
0000
0000
0000
0000
0000
0000
0000
1000
0000
0000
0001
0000
0000
0000
0001
0000
0000
0000
0001
0000
0000
0000
,  // measure 40
1000
1000
0000
0010
0110
0000
0102
0000
,  // measure 41
2003
3200
0320
0031
,  // measure 42
1000
0010
0001
0010
1000
0100
0001
0100
,  // measure 43
0010
0000
0001
0000
0010
0000
0001
0000
0010
0000
0001
0000
0100
0000
0010
0000
1000
0000
0100
0000
0000
0010
0000
0000
,  // measure 44
0001
0000
0100
0000
2000
0000
0000
3100
0000
0000
0001
0000
1001
0000
0000
0001
,  // measure 45
0000
0001
1000
0000
0001
0000
0100
0010
1000
0000
0001
0000
0100
0001
0000
0000
,  // measure 46
1001
0000
0101
1000
0001
0000
1100
0001
,  // measure 47
1000
0000
0101
1000
0001
0100
0010
1000
,  // measure 48
0010
0000
0100
0000
0101
0000
0000
0001
1000
0000
0100
0000
0010
0000
0000
0001
,  // measure 49
0000
0010
0100
1000
0100
0000
1000
0001
0010
0000
0001
0000
1000
0001
0000
0000
,  // measure 50
1001
0000
1010
0001
1000
0100
0011
1000
,  // measure 51
0001
0100
1010
0001
1000
0001
0220
0330
,  // measure 52
1001
0000
0100
0000
1001
0000
0010
0000
0100
0000
0001
1000
0000
0100
0000
0000
,  // measure 53
0110
0000
1000
0000
0110
0000
0001
0000
1000
0000
0001
0100
0000
0010
0000
0000
,  // measure 54
1010
0000
0100
0000
1010
0000
0001
0000
0100
0000
0001
1000
0000
0000
0000
0000
,  // measure 55
1100
0000
0010
0001
0000
0000
0000
0000
0101
0000
0010
1000
0000
0000
0000
0000
,  // measure 56
0011
0000
0100
0000
0011
0000
1000
0000
0010
0000
0100
0001
0000
1000
0000
0000
,  // measure 57
1100
0000
0001
0000
1100
0000
0010
0000
0001
0000
1000
0100
0000
0010
0000
0000
,  // measure 58
1001
0000
0010
0000
1001
0000
0100
0000
1000
0000
1000
0001
0000
0010
0000
0000
,  // measure 59
0002
0023
0230
2300
,  // measure 60
3001
0000
0010
0000
0100
0000
0010
0001
0000
0000
1001
0000
0000
1100
0000
0000
,  // measure 61
1000
0000
0010
0000
0001
0000
0010
1000
0000
0000
1001
0000
0000
0101
0000
0000
,  // measure 62
0100
0000
1000
0000
0100
0000
0001
1000
0000
0000
0110
0000
0000
1001
0000
0000
,  // measure 63
0001
0000
0100
1000
0000
0000
0001
0000
0001
0000
0010
1000
0000
0000
0000
0000
,  // measure 64
1100
0000
0001
0000
0101
0000
1000
0000
0001
0000
0010
0100
0000
0010
0000
0000
,  // measure 65
0011
0000
1000
0000
1010
0000
0001
0000
0100
0000
0010
1000
0000
0100
0000
0000
,  // measure 66
1100
0000
0010
0000
0101
0000
0010
0000
1000
0000
1000
0001
0000
1000
0000
0000
,  // measure 67
1001
0000
0100
0002
0000
0000
1003
0000
1000
0000
0010
0002
0000
0000
0003
0000
;

//---------------dance-single - ----------------
#NOTEDATA:;
#CHARTNAME:;
#STEPSTYPE:dance-single;
#DESCRIPTION:;
#CHARTSTYLE:;
#DIFFICULTY:Easy;
#METER:3;
#RADARVALUES:0.229411,0.247268,0.058395,0.218983,0.000000,220.000000,212.000000,8.000000,30.000000,0.000000,0.000000,0.000000,0.000000,0.000000,0.229411,0.247268,0.058395,0.218983,0.000000,220.000000,212.000000,8.000000,30.000000,0.000000,0.000000,0.000000,0.000000,0.000000;
#CREDIT:DDRDAIKENKAI;
#NOTES:
0000
0000
0000
0000
,
0000
0000
0000
0000
,
0000
0000
0000
0000
,
0000
0000
0000
0000
,
1001
0000
0100
0000
,
0010
0010
0010
0000
,
1000
0000
0100
0000
,
0010
0010
0010
0000
,
0002
0000
0103
0000
,
0010
0010
0010
0000
,
2000
0000
3100
0000
,
0010
0010
0010
0000
,
0001
1000
0001
0000
,
0100
0010
0100
0000
,
0001
0001
1000
1000
,
0100
0010
0110
0000
,
0010
0010
0010
0000
,
0001
0001
0001
0000
,
0000
1000
0001
0100
,
0000
0010
1000
0100
,
0010
0010
0001
0001
,
0100
1000
0100
0001
,
0010
0010
0100
0100
,
1000
0001
1001
0000
,
1000
1000
0001
0100
,
0001
0010
1000
0010
,
0001
0001
1000
1000
,
0010
0010
0110
0000
,
0100
0100
0001
1000
,
0100
0100
1000
0001
,
0100
0100
0001
1000
,
1000
0001
0001
1000
,
0010
0001
0010
0010
,
1000
0100
0010
0010
,
0001
1000
0010
0010
,
0200
0000
0302
0000
,
2003
0000
3100
0000
,
0010
0010
0001
0000
,
2000
0000
3001
0000
,
0100
0100
0001
0000
,
0200
0000
0301
0000
,
0010
0100
1000
0000
,
0001
0100
0010
1000
,
0002
0023
0230
2300
,
0001
0002
0000
3003
,
1000
0010
0100
0100
,
0110
1000
1000
0001
,
0001
1000
1000
0100
,
0001
0010
1000
1000
,
0010
0001
0100
1000
,
0001
0001
1000
1000
,
0010
0010
0100
0200
,
1300
0100
0001
0001
,
0001
0010
1000
1000
,
1000
0010
0001
0001
,
0010
0010
0100
0100
,
1000
0100
0001
0001
,
0010
1000
0100
0100
,
0010
1000
0010
0001
,
2000
3020
0230
0302
,
1003
0001
2002
3003
,
0001
1000
2002
3003
,
0100
0100
0220
0330
,
0020
0000
2030
0000
,
3001
0010
0200
0300
,
1000
0001
0200
0300
,
0010
1000
0002
0003
,
2000
0000
0002
3003
;

//---------------dance-single - ----------------
#NOTEDATA:;
#CHARTNAME:;
#STEPSTYPE:dance-single;
#DESCRIPTION:;
#CHARTSTYLE:;
#DIFFICULTY:Medium;
#METER:5;
#RADARVALUES:0.368100,0.369534,0.153288,0.189785,0.069345,353.000000,332.000000,21.000000,26.000000,0.000000,0.000000,0.000000,0.000000,0.000000,0.368100,0.369534,0.153288,0.189785,0.069345,353.000000,332.000000,21.000000,26.000000,0.000000,0.000000,0.000000,0.000000,0.000000;
#CREDIT:DDRDAIKENKAI;
#NOTES:
0000
0000
0000
0000
,
0000
0000
0000
0000
,
0000
0000
0000
0000
,
0000
0000
0000
0000
,
1001
2001
0000
0000
3001
0000
0000
0000
,
0100
0000
0000
0010
0000
0000
0100
0000
0110
0000
0000
0000
0000
0000
0000
0000
,
1001
1002
0000
0000
1003
0000
0000
0000
,
0010
0000
0000
0100
0000
0000
0010
0000
0120
0000
0000
0000
0030
0000
0000
0000
,
0100
0100
0000
0000
1001
0000
0000
0000
,
0100
0000
0000
0100
0000
0000
0100
0000
1001
0000
0000
0000
0000
0000
0000
0000
,
0010
0010
0000
0000
1001
0000
0000
0000
,
0010
0000
0000
0010
0000
0000
0010
0000
1001
0000
0000
0000
1000
0000
0001
0000
,
0100
0000
0010
1000
0100
0000
0010
0001
,
0100
0000
1000
0100
0001
0000
1000
0010
,
0001
0010
1000
0000
0001
0010
0100
0000
,
1000
0001
0100
0010
1000
0000
0001
0001
,
1000
0000
0000
0000
0010
0000
0000
0100
0000
0000
0100
0000
0000
0001
0000
0000
,
1000
0000
0000
0000
0100
0000
0000
0010
0000
0000
0010
0000
0000
0100
0000
0000
,
1000
0000
0000
0000
0001
0000
0000
0010
0000
0000
0010
0000
0000
0100
0000
0000
,
1000
0000
0010
0000
0100
0001
0100
0001
,
1000
0000
0001
0000
0100
0010
1000
0000
,
0010
1000
0001
0100
0002
0000
2003
0000
,
3100
0000
0010
0001
0100
0000
0010
1000
,
0100
0000
0010
0001
0100
0010
1000
1000
,
0001
0000
0101
0000
0010
0100
1000
0000
,
0100
0010
0001
0000
0011
0000
1001
0000
,
0100
0000
0001
0100
1000
0000
0001
0010
,
1000
0000
0001
0100
1000
0000
1001
0000
,
1000
0010
1000
0000
0001
0010
0100
0000
,
0010
0001
0010
0000
0001
1000
0100
0000
,
1000
0010
0100
0000
0010
0010
0010
0000
,
1000
0100
0001
0000
1000
0100
0001
0000
,
1000
0010
1000
0000
0001
0010
0100
0000
,
0010
0001
0010
0000
0001
0100
1000
0000
,
0100
0001
0100
0000
0010
1000
0100
0000
,
0020
0001
0031
0000
2000
0100
3100
0000
,
0020
0000
0031
1000
,
0001
0000
0000
0001
0000
0000
0001
0000
0100
0000
0000
0000
0000
0000
0000
0000
,
0010
0010
0000
0000
1001
0000
0000
0000
,
0100
0000
0000
0000
0000
0000
0000
0000
0000
0100
0000
0000
0000
0000
0000
0000
0000
0000
0100
0000
0000
0000
0000
0000
0010
0000
0000
0000
0000
0000
0000
0000
0000
0000
0000
0000
1000
0000
0000
0000
0001
0000
0000
0000
1000
0000
0000
0000
,
0100
0100
0000
0000
1001
0000
0000
0000
,
0010
0000
0000
0010
0000
0000
0010
0000
1001
0000
0000
0000
0000
0000
0000
0000
,
0001
0010
0100
0000
1000
0001
1000
0000
,
0020
0000
2030
0000
3100
0010
0001
1000
,
0100
0000
0010
0000
0002
0000
0000
1000
0000
0000
1000
0000
0000
1000
0000
0000
,
1003
0000
0000
0000
1100
0000
0000
1000
0000
0000
0001
0000
0000
0100
0000
0000
,
0010
0000
1000
0100
1000
0000
0100
1000
,
0001
0000
0100
0001
1000
0001
0001
0000
,
0010
0000
1001
0000
0010
1000
0100
0000
,
1000
0001
0100
0001
0200
0000
0320
0000
,
1030
0000
0001
0010
0100
0000
1000
0010
,
0100
0000
0001
0010
0100
0000
0110
0000
,
1000
0010
1000
0000
0100
0010
0001
0000
,
0100
0001
0100
0000
0001
0010
0100
0000
,
1000
0001
1000
0000
0001
0100
1000
0000
,
0001
0010
1000
0000
0001
0100
1000
0000
,
0100
0010
0100
0000
0001
0010
0100
0000
,
1000
0010
1000
0000
0100
0010
0001
0000
,
1000
0100
1000
0000
0001
0100
1000
0000
,
0200
0302
2003
3200
,
0310
0001
0100
0010
2000
0000
3000
0000
,
0001
0010
0100
1000
0002
0000
0003
0000
,
1000
0001
0010
0001
0200
0000
0300
0000
,
0020
0000
2030
0000
,
3001
0010
1000
0010
0001
0000
1000
0000
,
0001
0100
1000
0100
0002
0000
1003
0000
,
0010
1000
0100
1000
0020
0000
0130
0000
,
0220
0000
0330
0000
;
