#TITLE:ONE SHOT TWO SHOT;
#SUBTITLE:;
#ARTIST:BoA;
#TITLETRANSLIT:;
#SUBTITLETRANSLIT:;
#ARTISTTRANSLIT:;
#GENRE:;
#CREDIT:;
#BANNER:[Playing With Numbers] - ONE SHOT TWO SHOT.png;
#BACKGROUND:[Playing With Numbers] - ONE SHOT TWO SHOT-bg.png;
#LYRICSPATH:;
#CDTITLE:;
#MUSIC:[Playing With Numbers] - ONE SHOT TWO SHOT.ogg;
#OFFSET:-0.230268;
#SAMPLESTART:47.939972;
#SAMPLELENGTH:12.000000;
#SELECTABLE:YES;
#BPMS:0.000000=120.000000
;
#STOPS:
;
#BGCHANGES:0.000=[Playing With Numbers] - ONE SHOT TWO SHOT.avi=0.000=0=0=1=====,
99999=-nosongbg-=1.000=0=0=0 // don't automatically add -songbackground-
;
#KEYSOUNDS:;
#ATTACKS:;

//---------------dance-single - ----------------
#NOTES:
     dance-single:
     :
     Hard:
     7:
     0.366830,0.406022,0.070766,0.111204,0.161752,254.000000,247.000000,7.000000,11.000000,0.000000,0.000000,0.366830,0.406022,0.070766,0.111204,0.161752,254.000000,247.000000,7.000000,11.000000,0.000000,0.000000:
// measure 0
0000
0000
0000
0000
,  // measure 1
0000
0000
0000
0000
,  // measure 2
0000
0000
0000
0000
,  // measure 3
0000
0000
0000
0000
,  // measure 4
0000
0000
0000
0000
,  // measure 5
0000
0000
0000
0000
,  // measure 6
0000
0000
0000
0000
,  // measure 7
0000
0000
0000
0000
,  // measure 8
0000
0000
0000
0000
0000
0000
0010
0000
0000
0010
0000
0000
1000
0000
0100
0000
1000
0000
0100
0000
0000
0000
0000
0000
,  // measure 9
0010
0000
0000
0000
0001
0000
0000
0000
0010
0000
0000
0000
0001
0000
0000
0000
0000
0000
0000
0000
0000
0001
0000
0000
0000
0000
0000
0000
0000
0000
0001
0000
0000
0000
0000
0000
0100
0000
0000
0000
0000
0000
0000
0000
0000
0000
0000
0000
,  // measure 10
0000
0000
0000
0000
0000
0000
0010
0000
0000
0010
0000
0000
1000
0000
0001
0000
1000
0000
0001
0000
0000
0000
0000
0000
,  // measure 11
0100
0000
0000
0000
0010
0000
0000
0000
0100
0000
0000
0000
0010
0000
0000
0000
0000
0000
0000
0000
0000
0010
0000
0000
0000
0000
0000
0000
0000
0000
0010
0000
0000
0000
0000
0000
1000
0000
0000
0000
0000
0000
0000
0000
0000
0000
0000
0000
,  // measure 12
0001
0000
0010
0000
0100
0000
1000
0000
0000
1000
0000
0000
0001
0000
0010
0000
0001
0000
0010
0000
0000
0000
0000
0000
,  // measure 13
0100
0000
0000
0000
1000
0000
0000
0000
0100
0000
0000
0000
1000
0000
0000
0000
0000
0000
0000
0000
0000
1000
0000
0000
0000
0000
0000
0000
0000
0000
1000
0000
0000
0000
0000
0000
0001
0000
0000
0000
0000
0000
0000
0000
0000
0000
0000
0000
,  // measure 14
0000
0000
0000
0000
0000
0000
0100
0000
0000
0100
0000
0000
0001
0000
1000
0000
0001
0000
1000
0000
0000
0000
0000
0000
,  // measure 15
0010
0000
0000
0000
0100
0000
0000
0000
0010
0000
0000
0000
0100
0000
0000
0000
0000
0000
0000
0000
0000
0100
0000
0000
0000
0000
0000
0000
0000
0000
0100
0000
0000
0000
0000
0000
0001
0000
0000
0000
0000
0000
0000
0000
0000
0000
0000
0000
,  // measure 16
0000
0000
0210
0000
0310
1000
0001
0000
,  // measure 17
1000
0000
0012
0000
0103
0010
1000
0000
,  // measure 18
0100
0001
0001
0100
,  // measure 19
0100
0000
2000
0000
3010
0100
0001
0000
,  // measure 20
1000
0000
0100
0000
0010
0000
0002
0000
0000
0000
0000
0000
0013
0000
0000
0001
0000
0000
0100
0000
0000
0000
0000
0000
,  // measure 21
0010
0000
2010
0000
3010
1000
0001
0000
,  // measure 22
1000
0001
0100
0100
,  // measure 23
1000
0000
1000
0000
0100
0000
0010
0100
,  // measure 24
0010
0000
0100
0000
0010
0000
0000
0000
1010
0000
0000
1000
0000
0000
1000
0000
,  // measure 25
0000
1000
0000
0000
0010
0000
0000
0000
1001
0000
0000
0001
0000
0000
0001
0000
,  // measure 26
0000
0001
0000
0000
0100
0000
0000
0000
0002
0000
0100
0000
0103
0000
0000
0000
,  // measure 27
2000
0100
3100
0000
0002
0010
0013
0100
,  // measure 28
0010
0000
0001
0000
0100
0000
0000
0000
0110
0000
0000
0010
0000
0000
0010
0000
,  // measure 29
0000
0010
0000
0000
1000
0000
0000
0000
0101
0000
0000
0100
0000
0000
0100
0000
,  // measure 30
0000
0100
0000
0000
0001
0000
0000
0000
2000
0000
0010
0000
3010
0000
0000
0000
,  // measure 31
0002
0010
0013
0000
2000
0010
3010
0100
,  // measure 32
0001
0000
0100
0100
0001
0001
1000
0001
,  // measure 33
0010
0000
0001
0001
1000
1000
0100
1000
,  // measure 34
0001
0000
0100
0100
0010
0010
1000
0100
,  // measure 35
0010
0000
0001
0100
0010
0000
1000
0001
,  // measure 36
0010
0000
0100
0100
1000
1000
0001
0100
,  // measure 37
0010
0000
0100
0100
1000
1000
0100
0001
,  // measure 38
1000
0000
0001
0001
0010
0010
0001
0010
,  // measure 39
1000
0000
0010
0001
1000
0000
1000
0001
,  // measure 40
0100
0000
0001
0100
1000
0100
0001
0001
,  // measure 41
1000
0000
0001
0010
1000
0010
0100
0100
,  // measure 42
1000
1000
0001
0100
1000
0100
0010
0010
,  // measure 43
1000
0000
0001
0100
0010
0000
1000
0001
,  // measure 44
0100
0000
0001
0010
1000
0010
0100
0100
,  // measure 45
1000
0000
1000
0010
0001
0010
0100
0100
,  // measure 46
0001
0001
1000
0100
0001
0100
0010
0010
,  // measure 47
0001
1000
0001
0000
0000
0000
0000
0000
;

//---------------dance-single - ----------------
#NOTES:
     dance-single:
     :
     Medium:
     5:
     0.301840,0.382139,0.161752,0.363941,0.000000,209.000000,193.000000,16.000000,36.000000,0.000000,0.000000,0.301840,0.382139,0.161752,0.363941,0.000000,209.000000,193.000000,16.000000,36.000000,0.000000,0.000000:
0000
0000
0000
0000
,
0000
0000
0000
0000
,
0000
0000
0000
0000
,
0000
0000
0000
0000
,
0000
0000
0000
0000
,
0000
0000
0000
0000
,
0000
0000
0000
0000
,
0000
0000
0000
0000
,
0000
0000
0010
0010
2000
0000
3002
0000
,
0203
0302
0000
0103
,
0000
0000
1000
1000
0020
0000
2030
0000
,
3020
0230
0000
0310
,
0000
0000
0001
0001
0020
0000
0032
0000
,
2003
3020
0000
1030
,
0000
0000
0100
0100
0002
0000
0023
0000
,
0230
0320
0000
0031
,
0000
0201
0301
0001
,
0001
2100
3100
0100
,
0100
1020
1030
1000
,
1000
0012
0013
0010
,
0010
0120
0130
0100
,
0100
2001
3001
0001
,
0001
0100
0100
0010
,
0010
0000
1000
0000
1000
0000
0001
1000
,
0001
1000
0001
0000
0201
0000
0301
0000
,
0001
0000
0100
0010
1000
0010
0100
0000
,
0120
0000
1030
0000
1000
0100
0010
0000
,
0001
0100
0010
0000
1000
0100
0010
0001
,
0010
0001
0010
0000
2001
0000
3001
0000
,
1000
0000
0001
0100
0001
0100
0010
0000
,
0210
0000
0310
0000
0001
0100
0010
0000
,
1000
0100
0010
0000
0001
0100
0010
0000
,
1000
0000
1000
0100
0010
0001
2000
0000
,
3001
0000
0100
0010
1000
0010
0200
0000
,
0301
0000
0001
0010
0001
0100
0002
0000
,
0103
0020
1030
2000
,
3100
0000
0010
0001
0100
0001
0020
0000
,
0031
0000
0001
0100
0010
0100
0002
0000
,
0103
0000
0010
1000
0010
0100
0020
0000
,
1030
2000
3100
0200
,
1300
0000
1000
1000
0100
0100
0010
0000
,
0011
0000
0001
0100
0010
1000
0010
0000
,
0110
0000
1000
1000
0001
0001
0100
0000
,
0101
0000
0001
0010
0100
0010
0001
0000
,
1001
0000
1000
1000
0100
0100
0010
0000
,
0011
0000
0001
0100
0010
1000
0010
0000
,
1100
0000
1000
1000
0100
0100
0010
0000
,
0001
0100
0000
0000
;

//---------------dance-single - ----------------
#NOTES:
     dance-single:
     :
     Easy:
     3:
     0.190636,0.238837,0.040438,0.181971,0.000000,132.000000,128.000000,4.000000,18.000000,0.000000,0.000000,0.190636,0.238837,0.040438,0.181971,0.000000,132.000000,128.000000,4.000000,18.000000,0.000000,0.000000:
0000
0000
0000
0000
,
0000
0000
0000
0000
,
0000
0000
0000
0000
,
0000
0000
0000
0000
,
0000
0000
0000
0000
,
0000
0000
0000
0000
,
0000
0000
0000
0000
,
0000
0000
0000
0000
,
0000
1000
1000
1000
,
0001
0001
0000
0000
,
0000
0100
0100
0100
,
0010
0010
0000
0000
,
2000
3001
0001
0001
,
1000
1000
0000
0000
,
0000
0100
0100
0100
,
0010
0010
0000
0000
,
0000
0002
0000
0103
,
0000
0002
0000
0013
,
0000
0010
0010
0001
,
0001
0100
0100
0010
,
1000
2000
0000
3001
,
0000
2000
0000
3010
,
0000
0010
0010
0100
,
0100
0001
0001
1000
,
1000
0001
0010
0001
,
0100
0001
0001
1000
,
1000
0010
0000
0100
,
0100
0100
0000
0010
,
0010
1000
0001
1000
,
0100
0010
0000
0010
,
0010
0010
0000
0001
,
0001
0110
0001
1000
,
0100
1000
1000
1000
,
1000
0001
0001
0001
,
0001
0100
0100
0100
,
0100
0220
0330
2002
,
3003
0001
0001
0001
,
0001
1000
1000
1000
,
1000
0100
0100
0010
,
0010
2002
0000
3003
,
0000
1000
1000
0020
,
0030
0100
0100
0002
,
0023
0031
0001
2000
,
3100
1000
1000
0010
,
0010
0100
0001
2000
,
3100
1000
1000
0020
,
2030
3100
0010
0001
,
1000
0001
0000
0000
;

//---------------dance-single - ----------------
#NOTES:
     dance-single:
     :
     Beginner:
     1:
     0.103983,0.167186,0.000000,0.121314,0.000000,72.000000,72.000000,0.000000,12.000000,0.000000,0.000000,0.103983,0.167186,0.000000,0.121314,0.000000,72.000000,72.000000,0.000000,12.000000,0.000000,0.000000:
0000
0000
0000
0000
,
0000
0000
0000
0000
,
0000
0000
0000
0000
,
0000
0000
0000
0000
,
0000
0000
0000
0000
,
0000
0000
0000
0000
,
0000
0000
0000
0000
,
0000
0000
0000
0000
,
0000
0000
2000
3000
,
0002
0003
0000
0000
,
0000
0000
0200
0300
,
0020
0030
0000
0000
,
0000
0000
2000
3000
,
0002
0003
0000
0000
,
0000
0000
0200
0300
,
0020
0030
0000
0000
,
0000
0000
0000
0010
,
0000
0000
0000
0010
,
0000
1000
1000
0000
,
0001
0001
0000
0000
,
0000
0100
0000
0000
,
0000
0100
0000
0000
,
0000
0010
0010
0100
,
0100
0000
0000
0001
,
0000
0100
0100
0100
,
0000
0100
0000
0100
,
0000
0001
0000
0001
,
0000
0010
0000
0010
,
0000
0100
0100
0100
,
0000
0010
0000
0001
,
0000
1000
0000
1000
,
0000
1000
0000
0010
,
0000
0200
0300
0000
,
0000
0020
0030
0000
,
0000
2000
3000
0000
,
0000
0002
0003
0000
,
0000
0001
0001
0001
,
0000
1000
1000
1000
,
0000
0001
0000
1000
,
0000
0001
0000
1000
,
0000
0010
0010
0010
,
0000
0100
0100
0100
,
0000
0010
0000
0010
,
0000
0100
0000
0100
,
0000
0001
0001
0001
,
0000
1000
1000
1000
,
0000
0001
0000
1000
,
0000
0001
0000
0000
;
