#VERSION:0.83;
#TITLE:70cm四方の窓辺;
#SUBTITLE:;
#ARTIST:ROTTENGRAFFTY;
#TITLETRANSLIT:70cm Shihou No Madobe;
#SUBTITLETRANSLIT:;
#ARTISTTRANSLIT:;
#GENRE:;
#ORIGIN:;
#CREDIT:;
#BANNER:70cm Shihou No Madobe.png;
#BACKGROUND:70cm Shihou No Madobe-bg.png;
#PREVIEWVID:;
#JACKET:70cm Shihou No Madobe-jacket.png;
#CDIMAGE:;
#DISCIMAGE:;
#LYRICSPATH:;
#CDTITLE:;
#MUSIC:70cm Shihou No Madobe.ogg;
#OFFSET:0.440000;
#SAMPLESTART:41.922001;
#SAMPLELENGTH:13.692000;
#SELECTABLE:YES;
#BPMS:0.000=93.125,
12.000=149.000,
44.000=37.250,
58.000=149.000,
226.000=90.000,
227.500=100.000,
229.000=90.000,
230.000=100.000,
231.000=90.000,
232.000=82.000,
232.500=100.000,
234.500=82.000,
235.000=93.125;
#STOPS:;
#DELAYS:;
#WARPS:;
#TIMESIGNATURES:0.000=4=4;
#TICKCOUNTS:0.000=4;
#COMBOS:0.000=1;
#SPEEDS:0.000=1.000=0.000=0;
#SCROLLS:0.000=1.000;
#FAKES:;
#LABELS:0.000=Song Start;
#BGCHANGES:;
#KEYSOUNDS:;
#ATTACKS:
;

//---------------dance-single - ----------------
#NOTEDATA:;
#CHARTNAME:;
#STEPSTYPE:dance-single;
#DESCRIPTION:;
#CHARTSTYLE:;
#DIFFICULTY:Hard;
#METER:10;
#RADARVALUES:0.514458,0.644694,0.172232,0.336634,0.418836,460.000000,438.000000,22.000000,43.000000,2.000000,0.000000,10.000000,0.000000,0.000000,0.514458,0.644694,0.172232,0.336634,0.418836,460.000000,438.000000,22.000000,43.000000,2.000000,0.000000,10.000000,0.000000,0.000000;
#CREDIT:;
#NOTES:
0000
0000
0000
0000
,
0000
0000
0000
0000
,
0000
0000
0000
0000
,
1000
0000
0100
0000
0010
0000
0100
0000
1000
0000
0100
1000
0000
0100
1000
0000
,
0001
0000
1000
0001
0000
1000
0001
0000
0100
0000
0001
0100
0000
0001
0100
0000
,
0010
0100
0001
0010
0100
1000
0100
1000
,
0001
0100
0010
0100
0001
1000
0100
0010
,
0001
0000
0100
0000
0010
0000
0100
0000
0001
0000
0100
0001
0000
0100
0001
0000
,
1000
0000
0001
1000
0000
0001
1000
0000
0100
0000
1000
0100
0000
1000
0100
0000
,
0010
0100
0010
0100
0001
0100
0001
0100
,
0010
0000
0100
0000
0010
0000
0001
0000
1000
0000
0001
0100
0001
0100
0001
0100
,
0002
2003
3020
0130
,
0020
0000
2030
0000
3002
0000
0023
0230
,
2300
3002
0203
0310
,
0200
0000
0000
0000
0302
0000
1000
0100
1003
0000
0001
0000
0000
0000
1100
0000
,
0000
0101
0000
1100
0000
0110
0000
1100
,
0100
0000
1000
0000
0001
0000
0100
0000
0010
0000
0100
0010
0000
0100
0001
0000
,
0100
0000
0001
0100
0000
0001
1000
0000
0001
0000
1000
0001
0000
1000
0100
0000
,
1100
0000
0110
0000
1000
0001
0000
1010
,
0000
0011
0000
1010
0000
0110
0000
1010
,
0010
0000
1000
0000
0001
0000
0010
0000
0100
0000
0010
0100
0000
0010
0001
0000
,
0010
0000
0001
0010
0000
0001
1000
0000
0001
0000
1000
0001
2000
0000
0010
0000
,
3002
0000
1003
0001
1000
0001
1000
0001
1000
0000
0001
1000
0000
1000
0100
0000
,
0010
0000
0001
0000
1000
0000
0010
0000
0100
0000
0010
0100
0000
0100
0001
0000
,
1000
0000
0100
1000
0000
1000
0001
0000
1000
0000
0001
1000
0000
0001
0010
0000
,
0001
0000
0010
0001
0000
0010
0100
0000
0010
0000
0100
0010
0000
0100
1000
0000
,
1100
0000
0110
0000
1000
0001
0000
1010
,
0000
0000
0000
0011
0000
0000
0000
0000
0000
1010
0000
0000
1000
0000
0010
0000
1000
0000
0001
0000
0100
0000
0010
0000
,
0100
0000
0000
0000
0001
0000
0000
0000
1000
0000
0000
0000
0002
0000
0000
0000
0000
0000
0000
0000
0000
0000
0000
0000
0013
0000
0000
0000
0000
0000
0000
0000
0000
0001
0000
0000
0000
0000
0000
0000
0000
0000
0010
0000
0000
0000
0000
0000
,
0011
0000
0000
0000
0001
0000
0000
0000
0010
0000
0000
0100
0000
0000
1000
0000
,
0001
0000
0000
0000
1000
0001
1000
0001
2000
0000
0000
3020
0000
0000
0230
0000
,
0001
0000
0000
0000
0310
0000
0000
0000
0100
0000
0000
0001
0000
0000
1000
0000
,
0100
1000
0100
1000
0100
0000
0100
1000
0200
0000
0000
0320
0000
0000
0032
0000
,
1000
0000
0000
0000
0103
0000
0000
0000
0010
0000
0000
0100
0000
0000
0001
0000
,
1000
0000
0000
0000
0001
1000
0001
1000
0001
0000
0000
1000
0000
0000
0100
0000
,
1100
0000
0000
0000
1000
0000
0000
0000
0100
0000
0000
0010
0000
0000
0001
0000
,
2000
0000
0000
0000
3002
0000
0000
0000
0023
0000
0000
0230
0000
0000
2300
0000
,
0100
0000
0000
0000
3001
0000
1000
0000
0020
0000
0000
0230
0000
0000
0320
0000
,
2030
0000
0000
3002
0000
0000
0013
0000
0100
0000
0000
1000
0000
0000
0100
0000
,
1100
0000
1000
0000
0001
0100
010M
1000
,
0100
1000
0100
M100
0202
0000
0000
0000
,
0000
0303
2200
3300
,
1000
0100
1000
0100
1000
0100
1000
0100
1000
0000
0001
0000
0100
0000
0010
0000
,
0400
0000
0001
1000
0000
0000
1000
0001
0340
0000
0001
1000
0000
0000
1000
0031
,
0010
0100
1000
0000
0001
1000
0010
0100
,
0040
0000
1000
0001
0000
0000
0001
1000
0430
0000
1000
0001
0000
0000
0001
1300
,
0100
0010
0100
1000
0001
1000
0010
0100
,
0040
0000
1000
0100
0000
0000
0001
0130
0040
0000
1000
0100
0000
0000
0001
0130
,
0010
0100
0001
1000
0100
0010
0100
0010
,
0100
0001
0100
0001
0100
0010
0002
0010
,
2003
0000
3001
1000
0010
0100
0001
0000
0100
0000
0010
0100
0000
0010
0100
0000
,
0040
0000
1000
0100
0000
0000
0001
0130
0010
0000
0100
0000
0002
0000
0100
0000
,
2003
0000
0001
0000
3200
0000
1000
0000
0310
0000
0100
0010
0000
0100
0010
0000
,
0400
0000
1000
0001
0000
0000
0001
1000
0340
0000
1000
0001
0000
0000
0001
1030
,
0010
0000
0100
0000
0010
0000
1000
0000
0100
0000
0010
0100
0000
0010
0100
0000
,
0040
0000
0001
0100
0000
0000
1000
0130
0010
0001
0010
0001
0010
0001
0010
0001
,
1000
0001
1000
0001
1000
0001
1000
0001
0200
0000
0001
0000
0010
0000
1000
0000
,
0000
1300
0100
0010
1000
0000
1000
0001
,
0010
1000
0000
1000
0010
0100
2000
0000
,
0000
0000
0000
0000
,
0000
0000
0000
0000
,
3000
0000
0000
0000
;

//---------------dance-single - ----------------
#NOTEDATA:;
#CHARTNAME:;
#STEPSTYPE:dance-single;
#DESCRIPTION:;
#CHARTSTYLE:;
#DIFFICULTY:Medium;
#METER:7;
#RADARVALUES:0.356765,0.402591,0.000000,0.336634,0.074373,319.000000,319.000000,0.000000,43.000000,0.000000,0.000000,0.000000,0.000000,0.000000,0.356765,0.402591,0.000000,0.336634,0.074373,319.000000,319.000000,0.000000,43.000000,0.000000,0.000000,0.000000,0.000000,0.000000;
#CREDIT:;
#NOTES:
0000
0000
0000
0000
,
0000
0000
0000
0000
,
0000
0000
0000
0000
,
0001
0100
0000
0100
0020
0100
0030
0100
,
1000
0100
0000
0100
0020
0100
0030
0100
,
0002
0100
2003
0001
,
3200
1000
0320
0100
,
0031
0010
0000
0010
0200
0010
0300
0010
,
1000
0010
0000
0010
0200
0010
0300
0010
,
0002
1000
0100
1000
,
0023
0000
0230
0000
1300
0100
0010
0001
,
2000
3002
0203
0310
,
0200
0302
2003
3100
,
0020
0230
2300
3001
,
2000
0000
3020
0100
1030
0001
0000
1000
,
0000
0100
0000
0010
0000
0100
0000
0100
,
1000
0000
0100
1000
0200
0000
0010
0000
,
0302
1000
0203
0010
,
1300
0000
1000
0000
0001
1000
0000
0001
,
0000
0100
0000
0010
0000
0100
0000
0100
,
0001
0000
0100
0001
0200
0000
0001
0000
,
0010
1000
0010
0302
,
1003
0000
0100
0000
0010
0000
0001
0000
1000
0000
0000
0001
0000
0000
0100
0000
,
0001
0000
0000
0000
0001
0000
0100
0000
0010
0000
0000
0100
0000
0000
0100
0000
,
0010
0000
0000
1000
0000
0000
0001
0000
1000
0000
0000
0000
0100
0000
0000
0000
,
0020
1000
0230
0001
,
0310
0000
0100
0000
1000
0001
0000
1000
,
0000
0000
0000
0010
0000
0000
0000
0000
0000
0100
0000
0000
0010
0000
0000
0000
0010
0000
0000
0000
0010
0000
0000
0000
,
0100
0000
0000
0000
0000
0000
0000
0000
0010
0000
0000
0000
0000
0000
0000
0000
1000
0000
0000
0000
0000
0000
0000
0000
0001
0000
0000
0000
0000
0000
0000
0000
0000
0010
0000
0000
0000
0000
0000
0000
0000
0000
0100
0000
0000
0000
0000
0000
,
1000
0000
0000
0000
0010
0000
0000
0000
1000
0000
0000
0100
0000
0000
0010
0000
,
0001
0000
0000
0000
0001
0000
0100
0000
0010
0000
0000
0100
0000
0000
0001
0000
,
1000
0000
0000
0000
0100
0000
0000
0000
1000
0000
0000
0010
0000
0000
0100
0000
,
0001
0000
1000
0000
0100
0000
0010
0000
0100
0000
0000
0010
0000
0000
0001
0000
,
1000
0000
0000
0000
0010
0000
0000
0000
1000
0000
0000
0100
0000
0000
0010
0000
,
0001
0000
0000
0000
0010
0000
0001
0000
1000
0000
0000
0010
0000
0000
0100
0000
,
0001
0000
0000
0000
0010
0000
0000
0000
0001
0000
0000
0100
0000
0000
0010
0000
,
1000
0000
0000
0000
0100
0000
0000
0000
0020
0000
0000
0032
0000
0000
0203
0000
,
0000
0000
0300
0000
0100
0000
0001
0000
0200
0000
0000
0320
0000
0000
0230
0000
,
0302
0000
0000
2003
0000
0000
3100
0000
1000
0000
0000
0100
0000
0000
0010
0000
,
0001
0000
0100
0000
0001
0100
0010
0100
,
0010
1000
0100
1000
0200
0000
0000
0000
,
0000
0000
0320
0000
,
0031
0010
0100
1000
0001
0100
0001
0100
,
1000
0100
1000
0100
0010
0100
0010
0100
,
0010
1000
0100
0000
1000
0100
1000
0100
,
0001
0100
0001
0100
0010
0100
0010
0100
,
0010
0001
0000
0001
1000
0010
1000
0010
,
0001
0010
0001
0010
0100
0010
0100
0010
,
0100
0001
0010
0000
0002
0000
1000
0000
,
0010
1000
0203
0320
,
1030
0100
0010
0001
1000
0010
1000
0010
,
0001
0010
0001
0010
0100
0010
0100
0010
,
1000
0100
0010
0001
1000
0010
1000
0010
,
0001
0010
0001
0010
0100
0010
0100
0010
,
1000
0100
0010
0010
0001
0010
0001
0010
,
1000
0010
1000
0010
0100
1000
0001
0100
,
1000
0100
0001
1000
0100
0001
0100
1000
,
0000
0010
0001
0010
1000
0000
0100
0001
,
0100
1000
0000
0010
0001
0010
2000
0000
,
0000
0000
0000
0000
,
0000
0000
3000
0000
;

//---------------dance-single - ----------------
#NOTEDATA:;
#CHARTNAME:;
#STEPSTYPE:dance-single;
#DESCRIPTION:;
#CHARTSTYLE:;
#DIFFICULTY:Easy;
#METER:4;
#RADARVALUES:0.191244,0.236818,0.046972,0.696755,0.000000,171.000000,165.000000,6.000000,89.000000,0.000000,0.000000,0.000000,0.000000,0.000000,0.191244,0.236818,0.046972,0.696755,0.000000,171.000000,165.000000,6.000000,89.000000,0.000000,0.000000,0.000000,0.000000,0.000000;
#CREDIT:;
#NOTES:
0000
0000
0000
0000
,
0000
0000
0000
0000
,
0000
0000
0000
0000
,
0200
0000
0302
0000
,
2003
0000
3200
0000
,
0320
0000
2000
3000
,
0002
0003
2000
3000
,
0230
0000
2300
0000
,
3002
0000
0203
0000
,
0320
0000
0000
0000
,
0230
0302
2003
3200
,
0320
0032
2003
3000
,
0002
0203
0320
0030
,
0200
0302
2003
3000
,
0200
2300
3002
0000
,
0203
0000
2300
0000
,
3020
0000
0032
0000
,
2000
3000
0200
0300
,
2000
3003
2000
0000
,
3200
0000
0302
0000
,
0023
0000
2030
0000
,
0000
0000
0000
3002
,
0023
0230
2300
0100
,
3200
0000
1000
1000
,
2300
0001
3002
0000
,
0203
0000
0320
0000
,
2030
0001
3002
0010
,
1000
1000
0203
0001
,
0010
0302
1003
0000
,
0110
0000
1000
0100
,
1100
1000
0100
0010
,
0001
0000
0001
0010
,
0100
1000
0010
0100
,
0001
0000
1000
0000
,
0110
0010
0001
0000
,
0110
0000
0001
0010
,
0011
0001
1000
0010
,
0100
0000
0010
0100
,
0001
1000
0001
0000
,
0110
0000
0001
0010
,
1000
0100
0002
0000
,
0000
0000
2003
0000
,
0200
3300
2000
0001
,
3020
1000
0230
0010
,
1000
1000
0302
1000
,
0023
0001
0230
0010
,
0001
0001
0320
0100
,
0032
0010
2003
0001
,
0010
0010
3002
0000
,
0000
0000
0000
2003
,
3200
0320
0032
1000
,
0203
0001
0320
0032
,
0023
2030
3002
1000
,
0023
0001
0230
0302
,
0203
2300
3002
1000
,
0203
0001
0320
0032
,
0203
0000
2300
0000
3001
0000
0000
0100
,
0000
0000
0100
0000
0010
0000
0000
0010
,
0000
0100
0000
0000
0100
0000
0002
0000
,
0000
0000
0000
0000
,
0000
0000
0003
0000
;

//---------------dance-single - ----------------
#NOTEDATA:;
#CHARTNAME:;
#STEPSTYPE:dance-single;
#DESCRIPTION:;
#CHARTSTYLE:;
#DIFFICULTY:Edit;
#METER:10;
#RADARVALUES:0.564785,0.676400,0.172232,0.281833,0.532352,505.000000,483.000000,22.000000,36.000000,2.000000,0.000000,10.000000,0.000000,0.000000,0.564785,0.676400,0.172232,0.281833,0.532352,505.000000,483.000000,22.000000,36.000000,2.000000,0.000000,10.000000,0.000000,0.000000;
#CREDIT:;
#OFFSET:0.440000;
#BPMS:0.000000=93.125000
,12.000000=149.000000
,44.000000=74.500000
,72.000000=149.000000
,240.000000=90.000000
,241.500000=100.000000
,243.000000=90.000000
,244.000000=100.000000
,245.000000=90.000000
,246.000000=82.000000
,246.500000=100.000000
,248.500000=82.000000
,249.000000=93.125000
;
#STOPS:;
#DELAYS:;
#WARPS:;
#TIMESIGNATURES:0.000000=4=4
;
#TICKCOUNTS:0.000000=4
;
#COMBOS:0.000000=1
;
#SPEEDS:0.000000=1.000000=0.000000=0
;
#SCROLLS:0.000000=1.000000
;
#FAKES:;
#LABELS:0.000000=Song Start
;
#NOTES:
// measure 0
0000
0000
0000
0000
,  // measure 1
0000
0000
0000
0000
,  // measure 2
0000
0000
0000
0000
,  // measure 3
1000
0000
0100
0000
0010
0000
0100
0000
1000
0000
0100
1000
0000
0100
1000
0000
,  // measure 4
0001
0000
1000
0001
0000
1000
0001
0000
0100
0000
0001
0100
0000
0001
0100
0000
,  // measure 5
0010
0100
0001
0010
0100
1000
0100
1000
,  // measure 6
0001
0100
0010
0100
0001
1000
0100
0010
,  // measure 7
0001
0000
0100
0000
0010
0000
0100
0000
0001
0000
0100
0001
0000
0100
0001
0000
,  // measure 8
1000
0000
0001
1000
0000
0001
1000
0000
0100
0000
1000
0100
0000
1000
0100
0000
,  // measure 9
0010
0100
0010
0100
0001
0100
0001
0100
,  // measure 10
0010
0000
0100
0000
0010
0000
0001
0000
1000
0000
0001
0100
0001
0100
0001
0100
,  // measure 11
0001
0000
0000
0000
0000
0000
0001
0000
0100
0000
0010
0000
0100
0000
0001
0000
1000
0000
0000
0100
0000
0000
0100
0000
0010
0000
0000
0000
0000
0000
0100
0000
,  // measure 12
0010
0001
0000
1000
0000
0001
0000
0100
0020
0000
0000
0000
0230
0000
0000
0000
,  // measure 13
0301
0000
0000
0000
1000
0000
1000
0000
0100
0000
0010
0000
0100
0000
1000
0000
0100
0000
0000
0010
0000
0000
0001
0000
1000
0000
0000
0000
0000
0000
0001
0000
,  // measure 14
1000
0010
0000
0100
0000
0010
0000
0100
0002
0000
0000
0000
2003
0000
0000
0000
,  // measure 15
3200
0000
0000
0000
0000
0000
0000
0000
1300
0000
0100
0000
0010
0000
0100
0000
1000
0000
0000
0001
0000
0000
0100
0000
0010
0000
0000
0000
0000
0000
0100
0000
,  // measure 16
0010
0000
0010
1000
0000
0001
0000
0010
0000
0000
0000
0000
0100
0000
0010
0000
,  // measure 17
0001
0000
0000
0010
0001
0000
0010
0001
2000
0000
0000
0000
0001
0000
0010
0000
,  // measure 18
3001
1000
0000
0011
0000
1010
0000
0011
,  // measure 19
0000
0110
0000
0011
0010
0001
1000
0010
,  // measure 20
0100
0000
0010
0100
0000
0010
1000
0000
0010
0000
1000
0010
0000
1000
0001
0000
,  // measure 21
1000
0000
0001
1000
0000
0001
0010
0000
0011
0000
0000
0000
0110
0000
0000
0000
,  // measure 22
0001
1000
0000
0101
0000
1100
0000
0101
,  // measure 23
0000
0110
0000
0101
0100
0001
1000
0100
,  // measure 24
0010
0000
0100
0010
0000
0100
1000
0000
0100
0000
1000
0100
0000
1000
0001
0000
,  // measure 25
1000
0000
0001
1000
0002
0000
0100
0000
2003
0000
3001
1000
0001
1000
0001
1000
,  // measure 26
0001
0000
1000
0001
0000
0001
0010
0000
0100
0000
1000
0000
0001
0000
0100
0000
,  // measure 27
0010
0000
0100
0010
0000
0010
1000
0000
0001
0000
0010
0001
0000
0001
1000
0000
,  // measure 28
0001
0000
1000
0001
0000
1000
0100
0000
1000
0000
0100
1000
0000
0100
0010
0000
,  // measure 29
0100
0000
0010
0100
0000
0010
0001
0000
0011
0000
0000
0000
0110
0000
0000
0000
,  // measure 30
0001
1000
0000
0101
0000
1100
0000
0101
,  // measure 31
0001
0100
0001
1000
0010
0100
0010
1000
0001
2000
0000
0000
,  // measure 32
3100
0000
0000
1000
0000
0000
0100
0000
1100
0000
0000
0000
1000
0000
0000
0000
,  // measure 33
0100
0000
0000
0010
0000
0000
0001
0000
1000
0000
0000
0000
0001
1000
0001
1000
,  // measure 34
0002
0000
0000
0203
0000
0000
0320
0000
1000
0000
0000
0000
0130
0000
0000
0000
,  // measure 35
0010
0000
0000
1000
0000
0000
0001
0000
0010
0001
0010
0001
0010
0000
0010
0001
,  // measure 36
0020
0000
0000
0230
0000
0000
2300
0000
0001
0000
0000
0000
3010
0000
0000
0000
,  // measure 37
0100
0000
0000
0010
0000
0000
1000
0000
0001
0000
0000
0000
1000
0001
1000
0001
,  // measure 38
1000
0000
0000
0001
0000
0000
0010
0000
0011
0000
0000
0000
0001
0000
0000
0000
,  // measure 39
0010
0000
0000
0100
0000
0000
1000
0000
0002
0000
0000
0000
2003
0000
0000
0000
,  // measure 40
3200
0000
0000
0320
0000
0000
0032
0000
0010
0000
0000
0000
1003
0000
0001
0000
,  // measure 41
0200
0000
0000
0320
0000
0000
0230
0000
0302
0000
0000
2003
0000
0000
3100
0000
,  // measure 42
0010
0000
0000
0001
0000
0000
0010
0000
0011
0000
0000
0000
0001
0000
0000
0000
,  // measure 43
1000
0010
M010
0001
0010
0001
0010
001M
,  // measure 44
2020
0000
0000
3030
,  // measure 45
0022
0000
0000
0000
0033
0000
0000
0000
0001
0010
0001
0010
0001
0010
0001
0010
,  // measure 46
0001
0000
1000
0000
0010
0000
0100
0000
0040
0000
1000
0001
0000
0000
0001
1000
,  // measure 47
0430
0000
1000
0001
0000
0000
0001
1300
0100
0000
0010
0000
0001
0000
0000
0000
,  // measure 48
1000
0000
0001
0000
0100
0000
0010
0000
0400
0000
0001
1000
0000
0000
1000
0001
,  // measure 49
0340
0000
0001
1000
0000
0000
1000
0031
0010
0000
0100
0000
0010
0000
0001
0000
,  // measure 50
1000
0000
0001
0000
0100
0000
0010
0000
0400
0000
0001
0010
0000
0000
1000
0310
,  // measure 51
0400
0000
0001
0010
0000
0000
1000
0310
0100
0000
0010
0000
1000
0000
0001
0000
,  // measure 52
0010
0100
0010
0100
0010
1000
0010
1000
,  // measure 53
0010
0000
0100
0000
2000
0000
0100
0000
3002
0000
1003
0001
0100
0010
1000
0000
,  // measure 54
0010
0000
0100
0010
0000
0100
0010
0000
0400
0000
0001
0010
0000
0000
1000
0310
,  // measure 55
0100
0010
2000
0010
3002
1000
0023
0001
,  // measure 56
0130
0000
0010
0100
0000
0010
0100
0000
0040
0000
0001
1000
0000
0000
1000
0001
,  // measure 57
0430
0000
0001
1000
0000
0000
1000
0301
0100
0000
0010
0000
0100
0000
0001
0000
,  // measure 58
1000
0000
0100
0010
0000
0100
0010
0000
0400
0000
1000
0010
0000
0000
0001
0310
,  // measure 59
0100
1000
0100
1000
0100
1000
0100
1000
0001
1000
0001
1000
0001
1000
0001
1000
,  // measure 60
0020
1000
0100
0001
0000
0031
0010
0100
,  // measure 61
0001
0000
0001
1000
0100
0001
0000
0001
,  // measure 62
0100
0010
0002
0000
0000
0000
0000
0000
,  // measure 63
0000
0000
0000
0000
,  // measure 64
0003
0000
0000
0000
;

//---------------dance-single - ----------------
#NOTEDATA:;
#CHARTNAME:;
#STEPSTYPE:dance-single;
#DESCRIPTION:;
#CHARTSTYLE:;
#DIFFICULTY:Beginner;
#METER:1;
#RADARVALUES:0.108484,0.165773,0.000000,0.148745,0.000000,97.000000,97.000000,0.000000,19.000000,0.000000,0.000000,0.000000,0.000000,0.000000,0.108484,0.165773,0.000000,0.148745,0.000000,97.000000,97.000000,0.000000,19.000000,0.000000,0.000000,0.000000,0.000000,0.000000;
#CREDIT:;
#NOTES:
0000
0000
0000
0000
,
0000
0000
0000
0000
,
0000
0000
0000
0000
,
2000
0000
3000
0000
,
0002
0000
0003
0000
,
1000
0000
1000
0000
,
0001
0000
0001
0000
,
0200
0000
0300
0000
,
0020
0000
0030
0000
,
0200
0000
0000
0000
,
0000
0000
0300
0000
,
0010
0010
0010
0000
,
1000
1000
1000
0000
,
0001
0001
0001
0000
,
1000
0001
1000
0000
,
0001
0000
0100
0000
,
0010
0000
0010
0000
,
0100
0000
0001
0000
,
1000
0000
1000
0000
,
0100
0000
0010
0000
,
0001
0000
0001
0000
,
0100
0000
0010
0000
,
1000
0000
0100
0000
,
0010
0000
1000
0000
,
0100
0000
0010
0000
,
0010
0000
0001
0000
,
0100
0000
0010
0000
,
0100
0000
0002
0000
,
0003
1000
1000
0000
,
0001
0000
0000
0000
,
0001
0000
0100
0000
,
0010
0000
0000
0000
,
0010
0000
1000
0000
,
0001
0000
0000
0000
,
0001
0000
0010
0000
,
0100
0000
0000
0000
,
0100
0000
0010
0000
,
0000
0000
0001
0000
,
1000
0000
0010
0000
,
0100
0000
0100
0100
,
0100
0100
0200
0000
,
0300
0000
0002
0003
,
2000
3000
0001
0000
,
0020
0030
0020
0000
,
0000
0030
0000
0000
,
2000
3000
2000
0000
,
0000
3000
0000
0000
,
0020
0030
0020
0000
,
0000
0030
0200
0000
,
0000
0000
0300
0010
,
0010
0010
0010
0000
,
0000
0000
0000
1000
,
1000
1000
1000
0000
,
0000
0000
0000
0100
,
0100
0100
0100
0000
,
0000
0000
0002
0000
,
0000
0003
2000
0000
,
0000
3000
0000
0000
0001
0000
0000
0000
,
0000
0001
0000
0000
0000
0000
0002
0000
,
0000
0000
0000
0000
,
0000
0000
0003
0000
;
